osu file format v14

[General]
AudioFilename: audio.ogg
AudioLeadIn: 0
PreviewTime: 51001
Countdown: 0
SampleSet: Soft
StackLeniency: 0.4
Mode: 0
LetterboxInBreaks: 0
WidescreenStoryboard: 1

[Editor]
Bookmarks: 16440,49849,67236,83770,89736
DistanceSpacing: 1.2
BeatDivisor: 3
GridSize: 8
TimelineZoom: 1

[Metadata]
Title:SUPERORBITAL (Game Ver.)
TitleUnicode:SUPERORBITAL (Game Ver.)
Artist:Daiichi Uchuu Sokudo
ArtistUnicode:第一宇宙速度
Creator:farq
Version:Hard
Source:ソニコミ
Tags:natsume shizuku japanese rock pop jpop j-pop jrock j-rock sonicomi communication with super sonico visual novel anime
BeatmapID:4228184
BeatmapSetID:2028694

[Difficulty]
HPDrainRate:4.5
CircleSize:3.3
OverallDifficulty:6
ApproachRate:8
SliderMultiplier:1.42
SliderTickRate:1

[Events]
//Background and Video events
0,0,"838892.png",0,0
//Break Periods
//Storyboard Layer 0 (Background)
//Storyboard Layer 1 (Fail)
//Storyboard Layer 2 (Pass)
//Storyboard Layer 3 (Foreground)
//Storyboard Layer 4 (Overlay)
//Storyboard Sound Samples

[TimingPoints]
110,340.909090909091,4,2,1,60,1,0
110,-100,4,2,1,60,0,0
4190,340.909090909091,4,2,1,60,1,0
4190,-105.263157894737,4,2,1,60,0,0
5553,-100,4,2,1,63,0,0
15780,-100,4,2,1,55,0,0
16121,-100,4,2,1,63,0,0
16462,-111.111111111111,4,2,1,60,0,0
38280,-105.263157894737,4,2,1,65,0,0
51065,-105.263157894737,4,2,1,50,0,0
51917,-90.9090909090909,4,2,1,70,0,1
73735,-100,4,2,1,63,0,0
84644,-100,4,2,1,60,0,0

[Colours]
Combo1 : 0,166,166
Combo2 : 255,183,219

[HitObjects]
409,213,110,5,4,2:0:0:0:
256,192,280,12,0,3860,0:0:0:0:
180,384,4190,6,0,L|192:302,1,67.4499999999999,8|0,2:0|1:0,0:0:0:0:
122,272,4530,2,0,L|116:186,1,67.4499999999999,8|0,2:0|1:0,0:0:0:0:
43,170,4871,1,8,2:0:0:0:
43,170,4957,1,0,1:0:0:0:
43,170,5042,2,0,L|65:82,1,67.4499999999999,0|8,1:0|2:0,0:0:0:0:
40,68,5297,1,8,2:0:0:0:
40,68,5383,1,0,1:0:0:0:
119,11,5553,6,0,P|183:29|261:37,1,142,6|10,1:2|2:0,0:0:0:0:
346,28,6065,1,0,0:0:0:0:
346,28,6235,2,0,L|363:112,1,71,2|0,1:2|1:0,0:0:0:0:
445,94,6576,2,0,L|435:180,1,71,10|0,2:0|0:0,0:0:0:0:
500,221,6917,6,0,P|487:264|482:296,1,71,2|0,1:2|1:0,0:0:0:0:
400,267,7258,1,10,2:0:0:0:
357,341,7428,1,2,3:2:0:0:
357,341,7513,1,0,3:0:0:0:
357,341,7599,2,0,P|305:325|258:318,1,71,2|0,1:2|1:0,0:0:0:0:
222,375,7940,2,0,L|148:349,1,71,10|0,2:0|0:0,0:0:0:0:
69,356,8280,6,0,P|68:282|124:256,1,142,2|10,1:2|2:0,0:0:0:0:
206,274,8792,1,0,0:0:0:0:
206,274,8962,2,0,L|217:186,1,71,2|0,1:2|1:0,0:0:0:0:
168,131,9303,1,10,2:0:0:0:
161,45,9474,1,2,2:0:0:0:
240,14,9644,6,0,P|310:26|401:37,1,142,2|10,1:2|2:0,0:0:0:0:
464,21,10155,1,0,3:0:0:0:
464,21,10241,1,0,3:0:0:0:
464,21,10326,2,0,P|477:60|470:115,1,71,2|0,1:2|1:0,0:0:0:0:
414,145,10667,1,14,2:0:0:0:
461,235,10837,1,8,2:0:0:0:
461,235,10922,1,8,2:0:0:0:
461,235,11008,6,0,B|461:269|446:282|446:282|406:267|328:269,1,142,6|10,1:2|2:0,0:0:0:0:
313,344,11519,1,2,2:0:0:0:
313,344,11690,2,0,P|236:323|163:315,1,142,2|10,1:2|2:0,0:0:0:0:
96,351,12201,1,0,0:0:0:0:
20,311,12371,6,0,L|11:232,1,71,2|0,1:2|1:0,0:0:0:0:
33,157,12712,1,10,2:0:0:0:
54,80,12883,1,0,3:0:0:0:
54,80,12968,1,0,3:0:0:0:
54,80,13053,2,0,P|95:62|134:67,1,71,2|0,1:2|1:0,0:0:0:0:
183,120,13394,2,0,P|221:122|256:129,1,71,10|2,2:0|2:0,0:0:0:0:
270,44,13735,6,0,P|344:51|367:133,1,142,2|10,1:2|2:0,0:0:0:0:
349,188,14246,1,0,0:0:0:0:
431,167,14417,2,0,P|435:205|438:258,1,71,2|0,1:2|1:0,0:0:0:0:
492,302,14758,2,0,P|483:346|478:395,1,71,10|0,2:0|0:0,0:0:0:0:
398,371,15099,5,2,1:2:0:0:
398,371,15269,1,0,1:0:0:0:
335,313,15440,1,10,2:0:0:0:
267,365,15610,1,2,3:2:0:0:
267,365,15695,1,0,3:0:0:0:
267,365,15780,2,0,L|221:358,3,35.5,10|8|10|8,1:2|2:0|2:0|2:0,0:0:0:0:
196,335,16121,2,0,L|156:339,3,35.5,10|8|10|8,2:0|2:0|2:0|2:0,0:0:0:0:
123,348,16462,6,0,B|85:289|85:289|117:222,1,127.8,6|8,1:2|2:0,0:0:0:0:
184,196,16974,1,2,2:0:0:0:
184,196,17144,2,0,P|175:127|119:101,1,127.8,2|8,1:2|2:0,0:0:0:0:
44,108,17655,1,2,2:0:0:0:
48,24,17826,6,0,P|119:19|187:10,1,127.8,2|8,1:2|2:0,0:0:0:0:
257,24,18337,1,0,1:0:0:0:
317,81,18508,2,0,L|315:154,1,63.9000000000001,2|2,2:0|1:2,0:0:0:0:
257,205,18849,1,10,2:0:0:0:
257,205,19019,1,2,3:2:0:0:
235,284,19190,6,0,B|243:322|263:326|303:304|368:295,1,127.8,2|10,1:2|2:0,0:0:0:0:
420,332,19701,2,0,P|454:274|426:207,1,127.799996099854,2|0,2:0|1:0,0:0:0:0:
388,152,20212,2,0,L|399:85,1,63.9000000000001,10|2,2:0|1:2,0:0:0:0:
449,23,20553,6,0,P|389:-9|322:28,1,127.8,0|8,1:0|2:0,0:0:0:0:
302,86,21065,1,0,1:0:0:0:
237,32,21235,2,0,L|162:50,1,63.9000000000001,2|2,2:0|1:2,0:0:0:0:
95,20,21576,1,10,2:0:0:0:
33,73,21746,1,2,3:2:0:0:
33,73,21917,6,0,B|27:137|27:137|89:195,1,127.8,2|8,1:2|2:0,0:0:0:0:
142,133,22428,1,2,2:0:0:0:
210,179,22599,2,0,P|200:247|197:321,1,127.8,2|8,1:2|2:0,0:0:0:0:
252,376,23110,1,2,2:0:0:0:
252,376,23280,6,0,P|317:374|332:306,1,127.8,2|8,1:2|2:0,0:0:0:0:
337,238,23792,1,2,1:2:0:0:
419,248,23962,2,0,P|423:201|423:162,1,63.8999980499268,2|0,2:0|1:0,0:0:0:0:
505,168,24303,2,0,P|500:137|496:91,1,63.8999980499268,10|0,2:0|3:0,0:0:0:0:
444,38,24644,6,0,P|403:22|359:29,1,63.9000000000001,2|0,1:2|0:0,0:0:0:0:
301,7,24985,2,0,P|238:27|161:44,1,127.8,10|0,2:0|1:0,0:0:0:0:
171,124,25496,1,2,1:2:0:0:
171,124,25667,1,10,2:0:0:0:
249,151,25837,1,2,2:0:0:0:
269,231,26008,6,0,L|290:361,1,127.8,0|8,1:0|2:0,0:0:0:0:
206,366,26519,2,0,L|187:233,1,127.8,2|2,1:2|1:2,0:0:0:0:
112,203,27030,1,10,2:0:0:0:
30,209,27201,1,0,3:0:0:0:
30,209,27286,1,0,3:0:0:0:
30,209,27371,6,0,B|3:148|3:148|51:76,1,127.8,6|10,1:2|2:0,0:0:0:0:
77,23,27883,2,0,B|78:23|141:35|223:45,1,127.799996099854,2|2,2:0|1:2,0:0:0:0:
257,105,28394,1,8,2:0:0:0:
337,71,28565,1,2,2:0:0:0:
337,71,28735,6,0,P|379:126|348:186,1,127.8,0|8,1:0|2:0,0:0:0:0:
279,193,29246,1,0,1:0:0:0:
245,271,29417,1,2,2:0:0:0:
245,271,29587,1,2,1:2:0:0:
260,353,29758,2,0,P|292:346|325:345,1,63.9000000000001,10|2,2:0|3:2,0:0:0:0:
405,354,30099,6,0,P|456:308|430:238,1,127.8,2|8,1:2|2:0,0:0:0:0:
383,200,30610,1,2,2:0:0:0:
459,168,30780,2,0,P|440:104|423:26,1,127.799996099854,2|10,1:2|2:0,0:0:0:0:
351,6,31292,1,0,0:0:0:0:
269,22,31462,6,0,B|237:16|221:49|221:49|240:86|250:139,1,127.8,0|8,1:0|2:0,0:0:0:0:
304,170,31974,1,0,1:0:0:0:
247,231,32144,1,2,2:0:0:0:
247,231,32315,1,2,1:2:0:0:
262,312,32485,1,10,2:0:0:0:
198,364,32655,1,2,3:2:0:0:
198,364,32826,6,0,B|187:389|169:390|118:374|98:297,1,127.8,2|10,1:2|2:0,0:0:0:0:
26,299,33337,2,0,P|38:237|47:158,1,127.8,2|0,2:0|1:0,0:0:0:0:
25,91,33849,2,0,P|66:83|92:85,1,63.9000000000001,10|2,2:0|2:0,0:0:0:0:
131,14,34190,6,0,L|255:42,1,127.8,0|8,1:0|2:0,0:0:0:0:
341,28,34701,1,2,1:2:0:0:
341,28,34871,2,0,B|402:57|402:57|380:135,1,127.799996099854,2|10,2:0|2:0,0:0:0:0:
344,189,35383,1,0,3:0:0:0:
344,189,35553,6,0,P|353:229|358:266,1,63.9000000000001,2|0,1:2|1:0,0:0:0:0:
437,269,35894,2,0,P|431:305|427:345,1,63.9000000000001,8|0,2:0|0:0,0:0:0:0:
365,384,36235,1,0,1:2:0:0:
365,384,36405,1,0,1:0:0:0:
306,324,36576,2,0,P|265:332|237:346,1,63.9000000000001,10|2,2:0|2:0,0:0:0:0:
173,381,36917,5,2,1:2:0:0:
111,325,37087,2,0,P|93:264|155:224,1,127.8,2|2,1:2|3:2,0:0:0:0:
202,173,37599,1,10,2:0:0:0:
202,173,37684,1,8,2:0:0:0:
202,173,37769,1,10,2:0:0:0:
263,229,37940,2,0,L|305:226,3,31.95,8|8|2|4,3:0|3:0|3:2|3:0,0:0:0:0:
337,214,38280,6,0,B|362:212|387:192|387:192|368:141|361:92,1,134.899996397781,6|8,1:2|2:0,0:0:0:0:
432,57,38792,1,0,0:0:0:0:
358,9,38962,2,0,P|320:7|269:1,1,67.4499999999999,0|0,1:0|1:0,0:0:0:0:
266,88,39303,2,0,L|187:71,1,67.4499999999999,10|0,2:0|0:0,0:0:0:0:
145,11,39644,5,2,1:2:0:0:
145,11,39815,1,2,1:2:0:0:
57,10,39985,1,8,2:0:0:0:
8,82,40155,2,0,B|-13:102|-4:129|-4:129|22:156|61:193,1,134.9,2|2,1:2|1:2,0:0:0:0:
143,189,40667,1,8,2:0:0:0:
138,283,40837,1,2,3:2:0:0:
138,283,41008,6,0,P|200:298|265:240,1,134.9,0|8,1:0|2:0,0:0:0:0:
307,189,41519,1,0,0:0:0:0:
384,229,41690,2,0,P|393:196|397:158,1,67.4499999999999,0|0,1:0|1:0,0:0:0:0:
482,143,42030,2,0,P|476:110|473:70,1,67.4499999999999,10|2,2:0|2:0,0:0:0:0:
405,29,42371,1,2,1:2:0:0:
405,29,42542,2,0,P|373:13|310:13,1,67.4499981988907,2|8,1:2|2:0,0:0:0:0:
258,36,42883,2,0,P|193:66|126:80,1,134.9,2|2,1:2|1:2,0:0:0:0:
53,38,43394,1,8,2:0:0:0:
10,121,43565,1,2,3:2:0:0:
10,121,43735,6,0,P|6:185|67:225,1,134.9,0|8,1:0|2:0,0:0:0:0:
154,209,44246,1,0,0:0:0:0:
130,293,44417,1,0,1:0:0:0:
130,293,44587,1,0,1:0:0:0:
186,360,44758,2,0,L|259:344,1,67.4499999999999,10|0,2:0|0:0,0:0:0:0:
317,286,45099,5,2,1:2:0:0:
252,226,45269,2,0,P|254:191|254:142,1,67.4499999999999,2|8,1:2|2:0,0:0:0:0:
191,96,45610,2,0,B|203:72|225:58|225:58|275:71|317:76,1,134.9,2|2,1:2|1:2,0:0:0:0:
371,15,46121,1,8,2:0:0:0:
456,64,46292,1,2,3:2:0:0:
456,64,46462,6,0,P|446:130|438:224,1,134.9,0|8,1:0|2:0,0:0:0:0:
472,280,46974,1,0,0:0:0:0:
432,358,47144,2,0,P|356:348|356:348,1,67.4499999999999,0|0,1:0|1:0,0:0:0:0:
334,266,47485,2,0,L|250:283,1,67.4499999999999,10|0,2:0|0:0,0:0:0:0:
231,359,47826,6,0,P|222:303|152:289,1,134.9,2|8,1:2|2:0,0:0:0:0:
69,315,48337,1,2,1:2:0:0:
6,253,48508,2,0,B|-25:236|7:190|29:178|86:182,1,134.9,2|12,2:0|2:0,0:0:0:0:
167,190,49019,1,8,2:0:0:0:
167,190,49104,1,8,2:0:0:0:
167,190,49190,2,0,P|181:147|176:100,1,67.4499999999999,14|8,2:0|2:0,0:0:0:0:
127,55,49530,6,0,L|88:62,2,33.725,8|4|10,3:0|3:0|2:0,0:0:0:0:
208,22,49871,1,10,2:0:0:0:
274,79,50042,6,0,L|267:122,2,33.725,8|4|10,3:0|3:0|2:0,0:0:0:0:
334,14,50383,1,10,2:0:0:0:
425,46,50553,5,8,3:0:0:0:
425,46,50638,1,4,3:0:0:0:
425,46,50724,1,10,2:0:0:0:
416,133,50894,1,10,2:0:0:0:
416,133,51917,6,0,B|378:131|376:231|447:285,1,156.2,6|8,1:2|2:0,0:0:0:0:
490,335,52428,1,2,2:0:0:0:
403,372,52599,2,0,P|332:358|232:352,1,156.2,2|8,1:2|2:0,0:0:0:0:
155,365,53110,1,2,2:0:0:0:
99,289,53280,6,0,B|98:257|116:233|116:233|171:240|231:239,1,156.2,2|8,1:2|2:0,0:0:0:0:
303,214,53792,1,2,3:2:0:0:
303,214,53877,1,0,3:0:0:0:
303,214,53962,2,0,P|308:170|307:118,1,78.1,0|0,1:2|1:0,0:0:0:0:
216,108,54303,2,0,P|226:63|258:42,1,78.1,8|2,2:0|2:0,0:0:0:0:
334,2,54644,6,0,P|404:22|496:42,1,156.2,2|8,1:2|2:0,0:0:0:0:
501,132,55155,1,0,0:0:0:0:
419,178,55326,2,0,P|421:225|428:267,1,78.1,0|0,1:0|1:0,0:0:0:0:
465,340,55667,1,8,2:0:0:0:
371,333,55837,1,2,2:0:0:0:
287,376,56008,6,0,B|256:383|221:365|221:365|227:327|224:271,1,156.2,2|8,1:2|2:0,0:0:0:0:
300,220,56519,1,2,3:2:0:0:
300,220,56604,1,0,3:0:0:0:
300,220,56690,2,0,P|293:168|279:128,1,78.1,0|0,1:0|1:0,0:0:0:0:
206,93,57030,1,14,2:0:0:0:
181,12,57201,1,10,2:0:0:0:
181,12,57286,1,8,2:0:0:0:
182,12,57371,6,0,P|143:3|105:6,1,78.1,6|0,1:2|0:0,0:0:0:0:
25,57,57712,1,10,2:0:0:0:
102,109,57883,2,0,P|96:154|92:208,1,78.1,2|0,2:0|1:0,0:0:0:0:
8,226,58224,2,0,P|15:269|21:313,1,78.1,2|8,1:2|2:0,0:0:0:0:
61,376,58565,1,2,3:2:0:0:
118,302,58735,5,2,1:2:0:0:
118,302,58905,2,0,P|163:302|207:329,1,78.1,2|8,1:2|2:0,0:0:0:0:
263,376,59246,2,0,P|331:369|346:285,1,156.2,2|2,2:0|1:2,0:0:0:0:
315,213,59758,1,8,2:0:0:0:
315,213,59928,1,2,2:0:0:0:
408,226,60099,6,0,B|433:221|457:196|457:196|437:152|407:75,1,156.2,6|8,1:2|2:0,0:0:0:0:
405,12,60610,2,0,P|357:11|315:6,1,78.1,2|0,2:0|1:0,0:0:0:0:
280,84,60951,2,0,P|238:74|197:67,1,78.1,2|8,1:2|2:0,0:0:0:0:
121,21,61292,1,2,2:0:0:0:
41,69,61462,6,0,P|48:110|53:148,1,78.1,8|0,2:0|1:0,0:0:0:0:
24,235,61803,1,8,2:0:0:0:
24,235,61974,1,0,1:0:0:0:
106,279,62144,1,10,2:0:0:0:
120,380,62315,1,10,2:0:0:0:
120,380,62400,1,8,2:0:0:0:
120,380,62485,2,0,L|167:370,3,39.05,10|8|4|4,2:0|2:0|3:0|3:0,0:0:0:0:
205,377,62826,6,0,B|228:363|256:331|256:331|230:223,1,156.2,6|8,1:2|2:0,0:0:0:0:
186,165,63337,1,2,2:0:0:0:
130,88,63508,2,0,B|138:59|156:31|293:65,1,156.2,2|8,1:2|2:0,0:0:0:0:
356,28,64019,1,2,2:0:0:0:
436,74,64190,6,0,P|441:151|365:163,1,156.2,0|8,1:2|2:0,0:0:0:0:
298,216,64701,1,2,3:2:0:0:
298,216,64786,1,0,3:0:0:0:
298,216,64871,2,0,P|294:260|283:316,1,78.1,0|0,1:2|1:0,0:0:0:0:
255,381,65212,1,12,2:0:0:0:
182,320,65383,1,8,2:0:0:0:
182,320,65468,1,8,2:0:0:0:
182,320,65553,6,0,P|137:318|92:352,1,78.1,6|0,1:2|0:0,0:0:0:0:
23,373,65894,1,10,2:0:0:0:
23,373,66065,1,0,1:0:0:0:
3,281,66235,2,0,P|6:247|16:203,1,78.1,8|0,3:0|1:0,0:0:0:0:
109,202,66576,6,0,B|126:197|149:154|149:154|132:110|55:91,1,156.2,4|2,2:0|1:2,0:0:0:0:
6,38,67087,1,2,1:2:0:0:
100,8,67258,1,10,2:0:0:0:
100,8,67343,1,0,0:0:0:0:
100,8,67428,2,0,P|138:11|193:24,1,78.1,2|2,2:0|1:2,0:0:0:0:
211,106,67769,1,2,1:2:0:0:
273,36,67940,1,14,2:0:0:0:
373,26,68110,1,10,2:0:0:0:
373,26,68195,1,8,2:0:0:0:
373,26,68280,6,0,B|408:17|434:41|434:41|429:81|404:160,1,156.2,6|10,1:2|2:0,0:0:0:0:
323,159,68792,2,0,P|322:203|355:231,1,78.1,2|0,2:0|1:0,0:0:0:0:
436,241,69133,2,0,P|428:283|428:342,1,78.1,2|8,1:2|2:0,0:0:0:0:
347,368,69474,1,2,2:0:0:0:
253,375,69644,6,0,P|177:355|92:342,1,156.2,0|8,1:0|2:0,0:0:0:0:
17,298,70155,1,0,3:0:0:0:
17,298,70241,1,0,3:0:0:0:
17,298,70326,2,0,P|23:255|47:224,1,78.1,0|0,1:0|1:0,0:0:0:0:
134,204,70667,1,10,2:0:0:0:
152,112,70837,1,2,2:0:0:0:
81,49,71008,6,0,B|98:3|165:-1|245:26,1,156.2,6|10,1:2|2:0,0:0:0:0:
295,75,71519,2,0,P|337:70|381:70,1,78.1,2|0,2:0|1:0,0:0:0:0:
461,39,71860,2,0,P|492:108|424:162,1,156.2,2|0,1:2|0:0,0:0:0:0:
350,179,72371,5,14,2:0:0:0:
384,266,72542,1,0,1:0:0:0:
336,346,72712,2,0,L|244:340,1,78.1,8|0,2:0|1:0,0:0:0:0:
164,351,73053,1,10,2:0:0:0:
121,279,73224,1,8,2:0:0:0:
121,279,73309,1,8,2:0:0:0:
121,279,73394,2,0,L|112:220,3,39.05,8|8|4|4,2:0|2:0|3:0|3:0,0:0:0:0:
107,198,73735,6,0,B|100:174|124:149|124:149|238:173,1,142,6|10,1:2|2:0,0:0:0:0:
289,136,74246,1,0,0:0:0:0:
365,173,74417,2,0,P|370:137|375:100,1,71,2|0,1:2|1:0,0:0:0:0:
460,101,74758,2,0,P|456:62|452:22,1,71,10|0,2:0|0:0,0:0:0:0:
369,13,75099,6,0,P|294:7|214:-3,1,142,2|10,1:2|2:0,0:0:0:0:
182,73,75610,1,2,3:2:0:0:
182,73,75695,1,0,3:0:0:0:
182,73,75780,2,0,P|134:74|108:60,1,71,2|0,1:2|1:0,0:0:0:0:
41,18,76121,1,10,2:0:0:0:
41,18,76292,1,0,0:0:0:0:
20,100,76462,6,0,P|37:173|49:241,1,142,2|10,1:2|2:0,0:0:0:0:
27,322,76974,1,0,0:0:0:0:
110,304,77144,2,0,P|187:317|266:323,1,142,2|10,1:2|2:0,0:0:0:0:
333,302,77655,1,2,2:0:0:0:
388,367,77826,6,0,B|429:369|444:317|412:232,1,142,2|10,1:2|2:0,0:0:0:0:
358,196,78337,1,0,3:0:0:0:
358,196,78422,1,0,3:0:0:0:
358,196,78508,2,0,P|355:161|383:115,1,71,2|0,1:2|1:0,0:0:0:0:
452,110,78849,1,10,2:0:0:0:
400,48,79019,1,8,2:0:0:0:
400,48,79104,1,8,2:0:0:0:
400,48,79190,6,0,B|380:30|334:17|334:17|262:78,1,142,6|10,1:2|2:0,0:0:0:0:
247,142,79701,1,2,2:0:0:0:
247,142,79871,2,0,P|205:134|157:132,1,71,2|0,1:2|1:0,0:0:0:0:
146,52,80212,2,0,P|107:58|72:62,1,71,10|0,2:0|0:0,0:0:0:0:
11,117,80553,6,0,P|8:191|81:208,1,142,2|10,1:2|2:0,0:0:0:0:
155,212,81065,1,0,3:0:0:0:
155,212,81235,2,0,P|164:258|165:308,1,71,2|0,1:2|1:0,0:0:0:0:
250,291,81576,2,0,L|256:220,1,71,10|2,2:0|2:0,0:0:0:0:
251,134,81917,6,0,B|303:109|303:109|391:178,1,142,6|10,1:2|2:0,0:0:0:0:
447,196,82428,1,0,0:0:0:0:
494,124,82599,1,2,1:2:0:0:
494,124,82769,1,0,1:0:0:0:
481,39,82940,2,0,P|445:36|391:32,1,71,10|0,2:0|0:0,0:0:0:0:
327,10,83280,6,0,P|290:22|251:29,1,71,2|0,1:2|1:0,0:0:0:0:
173,14,83621,1,14,2:0:0:0:
102,70,83792,1,2,3:2:0:0:
102,70,83877,1,0,3:0:0:0:
102,70,83962,2,0,L|107:118,3,35.5,10|8|10|8,1:2|2:0|2:0|2:0,0:0:0:0:
140,136,84303,2,0,L|136:174,3,35.5,10|8|10|8,2:0|2:0|2:0|2:0,0:0:0:0:
132,217,84644,5,6,1:2:0:0:
256,192,84729,12,2,87371,2:0:0:0:
132,217,88735,6,0,P|140:252|143:306,1,71,8|8,2:0|2:0,0:0:0:0:
135,335,88991,1,0,1:0:0:0:
135,335,89076,1,4,3:0:0:0:
220,368,89246,5,2,1:3:0:0:
368,259,89587,1,2,1:3:0:0:
