osu file format v14

[General]
AudioFilename: audio.mp3
AudioLeadIn: 0
PreviewTime: 55857
Countdown: 0
SampleSet: Soft
StackLeniency: 0.7
Mode: 0
LetterboxInBreaks: 0
WidescreenStoryboard: 1

[Editor]
DistanceSpacing: 0.7
BeatDivisor: 2
GridSize: 4
TimelineZoom: 1.8

[Metadata]
Title:Crystal Dream (TV Size)
TitleUnicode:クリスタル・ドリーム (TV Size)
Artist:Daiichi Uchuu Sokudo
ArtistUnicode:第一宇宙速度
Creator:farq
Version:Stellar Cascade
Source:そにアニ -SUPER SONICO THE ANIMATION-
Tags:amats mrgglock soniani anime nitroplus ending first astronomical velocity j-pop jpop japanese pop すーぱーそに子 ed female vocalist
BeatmapID:4488790
BeatmapSetID:2133738

[Difficulty]
HPDrainRate:5
CircleSize:3.5
OverallDifficulty:7.8
ApproachRate:8.5
SliderMultiplier:1.6
SliderTickRate:1

[Events]
//Background and Video events
0,0,"bg.jpg",0,0
//Break Periods
//Storyboard Layer 0 (Background)
//Storyboard Layer 1 (Fail)
//Storyboard Layer 2 (Pass)
//Storyboard Layer 3 (Foreground)
//Storyboard Layer 4 (Overlay)
//Storyboard Sound Samples

[TimingPoints]
50,416.666666666667,4,2,1,60,1,0
2966,-100,4,2,1,5,0,0
3175,-100,4,2,1,60,0,0
3383,-100,4,2,1,68,0,0
16716,-125,4,2,1,60,0,0
43383,-166.666666666667,4,2,1,50,0,0
53383,-125,4,2,1,60,0,0
55883,-250,4,2,1,40,0,0
56716,-83.3333333333333,4,2,1,73,0,1
81716,-200,4,2,1,65,0,0
83383,-200,4,2,1,60,0,0

[Colours]
Combo1 : 255,128,128
Combo2 : 255,128,192
Combo3 : 128,255,255

[HitObjects]
256,192,1716,12,0,2966,0:0:0:0:
416,50,3175,5,8,0:0:0:0:
416,50,3279,1,8,0:0:0:0:
416,50,3383,2,0,B|406:33|398:7|398:7|392:78|371:145,1,160,4|10,1:2|0:0,0:0:0:0:
511,129,4008,1,0,0:0:0:0:
364,194,4216,2,0,P|325:194|279:155,1,80,2|2,1:2|0:0,0:0:0:0:
315,10,4633,2,0,P|308:63|298:100,1,80,8|0,0:0|0:0,0:0:0:0:
231,285,5050,6,0,P|184:279|166:154,1,160,2|8,1:2|0:0,0:0:0:0:
180,94,5675,1,0,0:0:0:0:
97,10,5883,2,0,P|49:87|100:152,1,160,2|8,1:2|0:0,0:0:0:0:
217,220,6508,1,0,0:0:0:0:
14,305,6716,6,0,P|94:313|342:370,1,320,2|0,1:2|1:0,0:0:0:0:
479,260,7758,1,2,0:0:0:0:
407,381,7966,1,10,0:0:0:0:
414,198,8175,2,0,P|378:200|324:212,1,80,2|0,0:0|1:0,0:0:0:0:
185,250,8591,5,2,0:0:0:0:
297,139,8800,1,10,0:0:0:0:
283,278,9008,1,2,0:0:0:0:
209,88,9216,2,0,P|214:51|218:8,1,80,2|0,1:2|0:0,0:0:0:0:
127,134,9633,2,0,P|125:95|121:38,1,80,10|0,0:0|0:0,0:0:0:0:
298,6,10050,6,0,P|369:15|387:113,2,160,2|10|2,1:2|0:0|1:2,0:0:0:0:
330,237,11091,1,2,0:0:0:0:
491,186,11300,2,0,P|457:166|418:167,1,80,8|0,0:0|0:0,0:0:0:0:
322,373,11716,6,0,P|251:362|227:272,1,160,2|8,1:2|0:0,0:0:0:0:
222,191,12341,1,0,0:0:0:0:
115,369,12550,2,0,P|91:294|179:247,1,160,2|8,1:2|0:0,0:0:0:0:
295,239,13175,1,0,0:0:0:0:
132,161,13383,5,2,1:2:0:0:
201,102,13591,1,2,1:2:0:0:
12,18,13800,2,0,P|56:22|116:34,1,80,14|0,0:0|0:0,0:0:0:0:
287,117,14216,1,2,1:2:0:0:
260,30,14425,1,2,1:2:0:0:
472,12,14633,2,0,P|433:12|384:21,1,80,14|0,0:0|0:0,0:0:0:0:
459,244,15050,5,2,1:2:0:0:
493,162,15258,1,2,1:2:0:0:
399,358,15466,5,12,0:0:0:0:
360,171,15675,1,0,1:0:0:0:
285,272,15883,5,14,0:0:0:0:
332,55,16091,1,0,1:0:0:0:
242,172,16300,1,12,0:0:0:0:
75,0,16508,1,8,0:0:0:0:
104,0,16612,1,8,0:0:0:0:
123,7,16716,6,0,P|116:63|102:128,1,96,4|0,1:2|0:0,0:0:0:0:
99,124,17133,2,0,P|139:130|188:109,1,64,10|2,0:0|0:0,0:0:0:0:
4,192,17550,2,0,P|73:207|111:234,1,96,2|0,1:2|0:0,0:0:0:0:
105,238,17966,1,10,0:0:0:0:
191,366,18175,6,0,P|195:336|197:279,1,64,2|0,0:0|1:0,0:0:0:0:
266,258,18591,2,0,P|263:226|256:183,1,64,2|8,0:0|0:0,0:0:0:0:
191,366,19008,2,0,P|195:336|197:279,1,64,2|0,0:0|1:0,0:0:0:0:
266,258,19425,2,0,P|263:226|256:183,1,64,2|8,0:0|0:0,0:0:0:0:
121,37,19841,6,0,P|177:17|241:72,1,128,2|2,0:0|0:0,0:0:0:0:
349,9,20466,2,0,P|346:49|312:73,1,64,10|0,0:0|0:0,0:0:0:0:
437,183,20883,5,2,1:2:0:0:
457,174,20987,1,0,0:0:0:0:
465,153,21091,1,0,0:0:0:0:
461,130,21195,1,0,0:0:0:0:
440,121,21300,2,0,L|397:125,3,32,10|0|0|0,0:0|0:0|0:0|0:0,0:0:0:0:
347,188,21716,5,2,1:2:0:0:
338,167,21820,1,0,0:0:0:0:
318,156,21925,1,0,0:0:0:0:
296,151,22029,1,0,0:0:0:0:
274,155,22133,2,0,L|265:202,3,32,10|0|0|0,0:0|0:0|0:0|0:0,0:0:0:0:
260,207,22550,6,0,P|226:218|192:221,1,64,2|0,1:2|0:0,0:0:0:0:
78,165,22966,1,10,0:0:0:0:
75,359,23175,6,0,P|132:327|118:250,1,128,2|0,0:0|0:0,0:0:0:0:
11,294,23800,1,10,0:0:0:0:
204,365,24008,2,0,P|264:348|265:269,1,128,2|0,0:0|0:0,0:0:0:0:
361,318,24633,1,10,0:0:0:0:
216,238,24841,6,0,P|213:184|285:144,1,128,2|0,0:0|0:0,0:0:0:0:
336,230,25466,1,10,0:0:0:0:
262,65,25675,2,0,P|294:67|348:79,1,64,2|0,0:0|1:0,0:0:0:0:
393,22,26091,2,0,P|425:26|464:37,1,64,2|8,0:0|0:0,0:0:0:0:
397,128,26508,1,2,0:0:0:0:
194,3,26716,6,0,P|180:41|190:86,1,64,0|0,1:0|0:0,0:0:0:0:
205,171,27133,1,10,0:0:0:0:
106,104,27341,2,0,B|49:115|49:115|67:198,1,128,2|2,0:0|0:0,0:0:0:0:
88,360,27966,6,0,B|102:332|102:332|91:287,1,64,10|2,0:0|0:0,0:0:0:0:
187,248,28383,2,0,B|173:276|173:276|184:321,1,64,2|2,1:2|0:0,0:0:0:0:
274,376,28800,1,10,0:0:0:0:
266,213,29008,2,0,B|261:145|261:145|192:146,1,128,2|0,0:0|0:0,0:0:0:0:
89,150,29633,1,8,0:0:0:0:
306,20,29841,1,8,0:0:0:0:
303,47,29945,1,8,0:0:0:0:
305,74,30050,6,0,B|323:93|323:93|358:93|421:103,1,96,4|0,1:2|0:0,0:0:0:0:
413,114,30466,2,0,P|429:84|428:36,1,64,10|2,0:0|0:0,0:0:0:0:
477,173,30883,2,0,P|480:220|489:267,1,96,2|0,1:2|0:0,0:0:0:0:
494,289,31300,1,10,0:0:0:0:
311,356,31508,6,0,P|342:361|373:368,1,64,2|0,0:0|1:0,0:0:0:0:
212,266,31925,2,0,P|243:271|274:278,1,64,2|8,0:0|0:0,0:0:0:0:
408,248,32341,2,0,P|376:241|345:235,1,64,2|0,0:0|1:0,0:0:0:0:
309,158,32758,2,0,P|277:151|246:145,1,64,2|8,0:0|0:0,0:0:0:0:
131,0,33175,6,0,P|95:57|139:116,1,128,2|2,0:0|0:0,0:0:0:0:
24,118,33800,2,0,P|31:154|37:205,1,64,10|0,0:0|0:0,0:0:0:0:
39,202,34112,1,0,0:0:0:0:
41,224,34216,1,2,1:2:0:0:
167,218,34425,1,0,0:0:0:0:
100,285,34633,1,10,0:0:0:0:
172,351,34841,2,0,P|201:347|243:346,1,64,0|2,0:0|1:2,0:0:0:0:
334,199,35258,5,0,0:0:0:0:
267,266,35466,1,10,0:0:0:0:
339,332,35675,1,0,0:0:0:0:
480,233,35883,2,0,P|487:204|494:149,1,64,2|0,1:2|0:0,0:0:0:0:
426,102,36300,1,10,0:0:0:0:
482,323,36508,6,0,P|430:310|407:223,1,128,2|0,0:0|0:0,0:0:0:0:
347,366,37133,1,10,0:0:0:0:
336,167,37341,2,0,P|326:207|322:243,1,64,2|0,0:0|1:0,0:0:0:0:
264,118,37758,2,0,P|268:86|276:55,1,64,2|8,0:0|0:0,0:0:0:0:
0,8,38175,6,0,P|64:11|141:36,1,128,2|0,1:2|1:0,0:0:0:0:
189,151,38800,1,10,0:0:0:0:
75,92,39008,2,0,P|57:113|65:159,1,64,2|0,0:0|1:0,0:0:0:0:
89,271,39425,2,0,P|105:244|101:192,1,64,2|8,0:0|0:0,0:0:0:0:
299,85,39841,6,0,P|311:127|247:200,1,128,2|2,0:0|0:0,0:0:0:0:
204,354,40466,2,0,P|229:284|299:283,1,128,10|2,0:0|1:2,0:0:0:0:
382,364,41091,1,0,0:0:0:0:
432,221,41300,1,10,0:0:0:0:
486,354,41508,1,0,0:0:0:0:
351,282,41716,5,2,1:2:0:0:
505,157,41925,1,0,1:0:0:0:
352,197,42133,2,0,P|321:192|289:183,1,64,8|0,0:0|1:0,0:0:0:0:
264,0,42550,1,10,0:0:0:0:
321,106,42758,1,0,1:0:0:0:
226,87,42966,1,4,0:3:0:0:
418,26,43175,1,8,0:0:0:0:
447,21,43279,1,8,0:0:0:0:
475,21,43383,6,0,B|495:44|501:47|501:47|471:89|471:112,1,95.9999970703126,6|2,1:2|0:0,0:0:0:0:
399,144,44008,2,0,B|409:171|414:194|414:194|436:198|466:206,2,95.9999970703126,2|2|2,1:2|0:0|0:0,0:0:0:0:
347,82,45258,1,2,0:0:0:0:
271,106,45675,1,2,1:2:0:0:
251,29,46091,1,2,0:0:0:0:
110,12,46508,6,0,P|102:85|84:169,1,143.999995605469,2|0,0:0|0:0,0:0:0:0:
87,154,47966,1,2,0:0:0:0:
87,154,48175,2,0,P|75:209|24:223,2,95.9999970703126,2|2|2,0:0|0:0|1:2,0:0:0:0:
7,33,49425,1,2,0:0:0:0:
73,75,49633,1,8,0:0:0:0:
94,2,49841,1,6,0:3:0:0:
175,122,50050,6,0,P|222:125|291:137,1,95.9999970703126,4|0,1:2|0:0,0:0:0:0:
352,115,50675,1,0,1:0:0:0:
352,115,50883,2,0,P|360:87|362:52,1,47.9999985351563,2|0,1:2|0:0,0:0:0:0:
437,181,51300,2,0,P|436:154|431:124,1,47.9999985351563,10|0,0:0|0:0,0:0:0:0:
300,242,51716,1,2,1:2:0:0:
362,287,51925,2,0,P|360:318|354:356,1,47.9999985351563,2|0,0:0|0:0,0:0:0:0:
278,331,52341,2,0,P|282:358|284:400,1,47.9999985351563,2|0,1:2|1:0,0:0:0:0:
214,244,52758,2,0,P|208:275|201:305,1,47.9999985351563,2|8,0:0|0:0,0:0:0:0:
237,167,53175,1,2,0:0:0:0:
1,21,53383,6,0,P|48:24|119:39,1,96,4|0,1:2|0:0,0:0:0:0:
117,40,53800,1,10,0:0:0:0:
10,224,54008,2,0,P|16:195|23:146,1,64,2|0,0:0|1:0,0:0:0:0:
44,362,54425,2,0,P|46:334|55:291,1,64,2|8,0:0|0:0,0:0:0:0:
113,161,54841,1,10,0:0:0:0:
118,139,54945,1,8,0:0:0:0:
110,117,55050,5,4,1:2:0:0:
144,301,55258,1,0,1:0:0:0:
206,137,55466,1,8,0:0:0:0:
31,14,55675,1,8,0:0:0:0:
133,33,55883,6,0,P|148:37|171:40,2,32,2|2|2,0:0|0:0|0:0,0:0:0:0:
31,14,56508,1,2,0:0:0:0:
172,137,56716,5,4,1:2:0:0:
8,97,56925,2,0,P|9:152|55:188,1,95.9999970703126,2|8,0:0|0:0,0:0:0:0:
58,369,57341,2,0,P|70:322|76:275,1,95.9999970703126,2|0,0:0|1:0,0:0:0:0:
218,211,57758,2,0,P|213:170|146:136,1,95.9999970703126,2|8,0:0|0:0,0:0:0:0:
148,338,58175,1,2,0:0:0:0:
279,268,58383,6,0,B|332:279|411:293|411:293|377:305|343:324,1,191.999994140625,0|8,1:0|0:0,0:0:0:0:
430,372,59008,1,2,0:0:0:0:
506,274,59216,1,0,1:0:0:0:
382,181,59425,1,2,0:0:0:0:
457,120,59633,1,8,0:0:0:0:
364,0,59841,6,0,P|277:60|334:148,1,191.999994140625,2|2,0:0|0:0,0:0:0:0:
446,4,60466,1,10,0:0:0:0:
241,85,60675,2,0,P|140:72|127:-14,1,191.999994140625,2|2,0:0|0:0,0:0:0:0:
161,174,61300,1,10,0:0:0:0:
201,15,61508,1,0,0:0:0:0:
35,37,61716,6,0,B|6:77|-12:95|-12:95|5:152|19:248,2,191.999994140625,0|10|0,1:0|0:0|1:0,0:0:0:0:
90,168,62758,1,0,0:0:0:0:
227,37,62966,1,10,0:0:0:0:
124,68,63175,1,2,0:0:0:0:
187,202,63383,5,6,1:2:0:0:
314,7,63591,2,0,P|306:60|288:111,1,95.9999970703126,2|8,0:0|0:0,0:0:0:0:
356,216,64008,2,0,P|404:237|457:206,1,95.9999970703126,2|0,0:0|1:0,0:0:0:0:
453,90,64425,2,0,P|409:112|410:162,1,95.9999970703126,2|8,0:0|0:0,0:0:0:0:
512,272,64841,1,2,0:0:0:0:
380,359,65050,6,0,P|298:346|285:240,1,191.999994140625,0|12,1:0|0:0,0:0:0:0:
265,20,65675,2,0,P|254:66|247:114,1,95.9999970703126,2|0,0:0|1:0,0:0:0:0:
357,280,66091,2,0,P|371:219|377:169,1,95.9999970703126,2|12,0:0|0:0,0:0:0:0:
246,114,66508,1,2,0:0:0:0:
96,289,66716,6,0,P|102:336|111:384,1,95.9999970703126,4|2,1:2|0:0,0:0:0:0:
109,173,67133,2,0,P|56:172|16:214,1,95.9999970703126,10|0,0:0|0:0,0:0:0:0:
26,66,67550,5,2,1:2:0:0:
50,43,67654,1,2,0:0:0:0:
82,33,67758,1,2,1:2:0:0:
115,28,67862,1,2,0:0:0:0:
116,61,67966,5,14,0:0:0:0:
141,39,68070,1,2,0:0:0:0:
172,27,68175,1,2,1:2:0:0:
205,25,68279,1,0,1:0:0:0:
207,58,68383,5,2,1:2:0:0:
228,32,68487,1,2,0:0:0:0:
261,26,68591,1,10,0:0:0:0:
294,31,68695,1,2,0:0:0:0:
303,63,68800,5,10,0:0:0:0:
322,35,68904,1,2,0:0:0:0:
353,24,69008,1,6,1:2:0:0:
386,22,69112,1,0,1:0:0:0:
379,54,69216,6,0,P|386:112|440:127,1,95.9999970703126,10|4,0:0|1:2,0:0:0:0:
480,37,69633,1,10,0:0:0:0:
487,242,69841,1,10,0:0:0:0:
487,276,69946,1,8,0:0:0:0:
500,308,70050,5,4,1:2:0:0:
394,205,70258,2,0,P|335:216|292:237,1,95.9999970703126,2|8,0:0|0:0,0:0:0:0:
206,368,70675,2,0,P|203:323|251:278,1,95.9999970703126,2|0,0:0|1:0,0:0:0:0:
382,358,71091,2,0,P|320:346|269:347,1,95.9999970703126,2|8,0:0|0:0,0:0:0:0:
176,220,71508,1,2,0:0:0:0:
75,384,71716,6,0,P|15:353|45:237,1,191.999994140625,0|8,1:0|0:0,0:0:0:0:
92,7,72341,1,2,0:0:0:0:
61,157,72550,1,0,1:0:0:0:
222,54,72758,1,2,0:0:0:0:
203,148,72966,1,12,0:0:0:0:
144,92,73175,1,2,0:0:0:0:
355,10,73383,6,0,P|372:62|371:105,1,95.9999970703126,4|2,1:2|0:0,0:0:0:0:
434,311,73800,2,0,P|488:249|427:149,1,191.999994140625,10|0,0:0|1:0,0:0:0:0:
278,265,74425,1,0,0:0:0:0:
351,363,74633,1,10,0:0:0:0:
267,187,74841,6,0,P|271:144|289:74,1,95.9999970703126,2|0,0:0|1:0,0:0:0:0:
377,14,75258,2,0,P|372:66|359:123,1,95.9999970703126,2|8,0:0|0:0,0:0:0:0:
184,161,75675,2,0,P|144:164|102:117,1,95.9999970703126,2|0,0:0|1:0,0:0:0:0:
40,8,76091,2,0,P|23:60|39:127,1,95.9999970703126,2|12,0:0|0:0,0:0:0:0:
171,84,76508,1,2,0:0:0:0:
29,187,76716,5,4,1:2:0:0:
152,243,76925,1,2,0:0:0:0:
82,372,77133,2,0,P|124:384|217:285,1,191.999994140625,10|0,0:0|1:0,0:0:0:0:
260,134,77758,1,0,0:0:0:0:
426,215,77966,1,10,0:0:0:0:
352,374,78175,6,0,P|366:334|369:269,1,95.9999970703126,2|0,0:0|1:0,0:0:0:0:
352,146,78591,1,2,1:2:0:0:
286,306,78800,1,12,0:0:0:0:
509,238,79008,2,0,B|473:206|473:206|445:214|403:216,1,95.9999970703126,2|0,1:2|0:0,0:0:0:0:
478,376,79425,1,2,1:2:0:0:
493,346,79529,1,0,1:0:0:0:
483,313,79633,1,12,0:0:0:0:
303,218,79841,1,2,1:2:0:0:
439,38,80050,6,0,P|439:96|425:155,1,95.9999970703126,0|2,1:0|1:2,0:0:0:0:
205,161,80466,1,10,0:0:0:0:
354,40,80675,1,0,1:0:0:0:
111,9,80883,1,8,0:0:0:0:
265,72,81091,1,0,1:0:0:0:
71,142,81300,1,10,0:2:0:0:
245,286,81508,1,8,0:0:0:0:
251,314,81612,1,8,0:0:0:0:
247,343,81716,6,0,B|339:345|477:296|477:296|434:328|410:358,1,320,6|4,1:2|1:2,0:0:0:0:
256,192,83487,12,4,88800,0:3:0:0:
