osu file format v14

[General]
AudioFilename: audio.mp3
AudioLeadIn: 0
PreviewTime: 55857
Countdown: 0
SampleSet: Soft
StackLeniency: 0.7
Mode: 0
LetterboxInBreaks: 0
WidescreenStoryboard: 1

[Editor]
DistanceSpacing: 1.2
BeatDivisor: 16
GridSize: 4
TimelineZoom: 0.7999997

[Metadata]
Title:Crystal Dream (TV Size)
TitleUnicode:クリスタル・ドリーム (TV Size)
Artist:Daiichi Uchuu Sokudo
ArtistUnicode:第一宇宙速度
Creator:farq
Version:Mrgglock's Normal
Source:そにアニ -SUPER SONICO THE ANIMATION-
Tags:amats mrgglock soniani anime nitroplus ending first astronomical velocity j-pop jpop japanese pop すーぱーそに子 ed female vocalist
BeatmapID:4552659
BeatmapSetID:2133738

[Difficulty]
HPDrainRate:3
CircleSize:3
OverallDifficulty:4
ApproachRate:5
SliderMultiplier:1
SliderTickRate:1

[Events]
//Background and Video events
0,0,"bg.jpg",0,0
//Break Periods
//Storyboard Layer 0 (Background)
//Storyboard Layer 1 (Fail)
//Storyboard Layer 2 (Pass)
//Storyboard Layer 3 (Foreground)
//Storyboard Layer 4 (Overlay)
//Storyboard Sound Samples

[TimingPoints]
50,416.666666666667,4,2,1,60,1,0
3383,-100,4,2,1,68,0,0
16716,-100,4,2,1,60,0,0
43383,-111.111111111111,4,2,1,50,0,0
53175,-100,4,2,1,50,0,0
53383,-100,4,2,1,60,0,0
55883,-100,4,2,1,40,0,0
56716,-90.9090909090909,4,2,1,73,0,1
81716,-90.9090909090909,4,2,1,65,0,0
83383,-90.9090909090909,4,2,1,60,0,0

[Colours]
Combo1 : 255,128,128
Combo2 : 255,128,192
Combo3 : 128,255,255

[HitObjects]
512,355,3383,6,0,P|462:340|410:334,1,100,4|10,1:2|0:0,0:0:0:0:
371,353,4008,1,0,0:0:0:0:
371,353,4216,2,0,P|341:363|306:367,1,50,2|2,1:2|0:0,0:0:0:0:
274,351,4633,1,8,0:0:0:0:
178,379,5050,2,0,P|128:378|91:313,1,100,2|8,1:2|0:0,0:0:0:0:
85,294,5675,1,0,0:0:0:0:
6,242,6091,1,0,0:0:0:0:
6,242,6300,1,8,0:0:0:0:
63,160,6716,6,0,P|109:175|160:181,1,100,2|10,1:2|0:0,0:0:0:0:
210,177,7341,2,0,P|256:162|307:156,1,100,0|2,0:0|0:0,0:0:0:0:
350,181,7966,1,10,0:0:0:0:
428,243,8383,2,0,P|479:240|516:162,1,100,0|10,1:0|0:0,0:0:0:0:
469,116,9216,2,0,P|475:83|486:50,1,50,2|0,1:2|0:0,0:0:0:0:
456,22,9633,1,10,0:0:0:0:
364,63,10050,6,0,P|310:69|267:38,1,100,2|10,1:2|0:0,0:0:0:0:
231,18,10675,2,0,P|203:26|166:32,1,50,0|2,0:0|1:2,0:0:0:0:
137,8,11091,2,0,P|83:2|40:32,1,100,2|0,0:0|0:0,0:0:0:0:
23,69,11716,1,2,1:2:0:0:
67,164,12133,1,8,0:0:0:0:
67,164,12342,2,0,P|123:173|166:189,1,100
201,220,12966,1,8,0:0:0:0:
290,174,13383,6,0,P|323:169|351:160,1,50,2|2,1:2|1:2,0:0:0:0:
369,124,13800,2,0,P|416:115|477:149,1,100,14|2,0:0|1:2,0:0:0:0:
500,175,14425,1,2,1:2:0:0:
500,175,14633,2,0,P|482:222|471:274,1,100,14|2,0:0|1:2,0:0:0:0:
477,370,15466,2,0,P|450:374|427:384,1,50,12|0,0:0|1:0,0:0:0:0:
395,345,15883,2,0,P|368:341|345:331,1,50,14|0,0:0|1:0,0:0:0:0:
306,361,16300,2,0,P|279:365|256:375,1,50,12|8,0:0|0:0,0:0:0:0:
219,342,16716,5,4,1:2:0:0:
125,378,17133,2,0,P|101:376|76:359,1,50,10|2,0:0|0:0,0:0:0:0:
61,315,17550,1,2,1:2:0:0:
13,227,17966,1,10,0:0:0:0:
13,227,18175,2,0,P|31:184|43:132,1,100,2|2,0:0|0:0,0:0:0:0:
133,89,19008,2,0,P|183:83|245:138,1,100,2|2,0:0|0:0,0:0:0:0:
281,194,19841,6,0,P|331:200|393:145,1,100,2|2,0:0|0:0,0:0:0:0:
404,138,20466,1,10,0:0:0:0:
489,190,20883,2,0,P|494:163|503:135,1,50,2|0,1:2|0:0,0:0:0:0:
510,92,21300,1,10,0:0:0:0:
437,23,21716,2,0,P|410:18|382:9,1,50,2|0,1:2|0:0,0:0:0:0:
339,2,22133,1,10,0:0:0:0:
277,81,22550,2,0,P|238:105|155:69,1,100,2|10,1:2|0:0,0:0:0:0:
146,68,23175,6,0,P|97:61|54:85,1,100,2|0,0:0|0:0,0:0:0:0:
35,134,23800,1,10,0:0:0:0:
35,134,24008,2,0,P|51:186|59:235,1,100,2|0,0:0|0:0,0:0:0:0:
151,267,24841,2,0,P|205:266|250:218,1,100,2|0,0:0|0:0,0:0:0:0:
252,193,25466,1,10,0:0:0:0:
252,193,25675,2,0,P|265:132|299:68,1,100,2|2,0:0|0:0,0:0:0:0:
361,38,26508,6,0,P|415:39|460:87,1,100,2|0,0:0|0:0,0:0:0:0:
470,112,27133,1,10,0:0:0:0:
507,204,27550,2,0,P|488:251|484:276,1,50,0|2,1:0|0:0,0:0:0:0:
492,299,27966,2,0,P|444:322|389:304,1,100,10|2,0:0|1:2,0:0:0:0:
354,291,28591,2,0,P|319:298|292:313,1,50,2|10,0:0|0:0,0:0:0:0:
267,336,29008,1,2,0:0:0:0:
175,310,29425,1,0,0:0:0:0:
175,310,29633,2,0,P|181:283|190:256,1,50,8|8,0:0|0:0,0:0:0:0:
212,217,30050,5,4,1:2:0:0:
248,124,30466,2,0,P|242:97|233:70,1,50,10|2,0:0|0:0,0:0:0:0:
211,31,30883,1,2,1:2:0:0:
118,13,31300,1,10,0:0:0:0:
118,13,31509,2,0,P|60:19|22:60,1,100,2|2,0:0|0:0,0:0:0:0:
3,141,32342,2,0,P|18:200|25:243,1,100,2|2,0:0|0:0,0:0:0:0:
3,336,33175,6,0,P|41:366|91:368,1,100,2|2,0:0|0:0,0:0:0:0:
134,342,33800,1,10,0:0:0:0:
214,282,34216,2,0,P|220:253|231:224,1,50,2|0,1:2|0:0,0:0:0:0:
251,190,34633,1,10,0:0:0:0:
331,130,35050,2,0,P|324:101|314:72,1,50,2|0,1:2|0:0,0:0:0:0:
294,38,35467,1,10,0:0:0:0:
386,0,35884,2,0,P|441:19|501:31,1,100,2|10,1:2|0:0,0:0:0:0:
501,74,36509,6,0,P|486:133|481:182,1,100,2|0,0:0|0:0,0:0:0:0:
494,220,37134,1,10,0:0:0:0:
494,220,37342,2,0,P|437:231|403:285,1,100,2|2,0:0|0:0,0:0:0:0:
394,359,38175,2,0,P|348:348|296:341,1,100,2|0,1:2|1:0,0:0:0:0:
246,348,38800,1,10,0:0:0:0:
246,348,39009,2,0,P|210:328|198:257,1,100,2|2,0:0|0:0,0:0:0:0:
261,201,39842,6,0,P|281:154|303:73,1,100,2|2,0:0|0:0,0:0:0:0:
289,57,40467,1,10,0:0:0:0:
208,7,40884,1,2,1:2:0:0:
208,7,41092,2,0,P|144:16|113:65,1,100
91,79,41716,2,0,P|106:140|112:185,1,100,2|8,1:2|0:0,0:0:0:0:
35,243,42550,2,0,P|25:269|20:296,1,50,10|0,0:0|1:0,0:0:0:0:
55,325,42966,2,0,P|65:351|70:378,1,50,4|8,0:3|0:0,0:0:0:0:
113,383,43383,6,0,P|161:378|202:337,1,89.9999972534181,6|2,1:2|0:0,0:0:0:0:
205,309,44008,1,2,1:2:0:0:
264,241,44425,1,2,0:0:0:0:
229,157,44841,2,0,P|221:121|213:63,1,89.9999972534181,2|2,0:0|0:0,0:0:0:0:
284,12,45675,1,2,1:2:0:0:
364,51,46091,1,2,0:0:0:0:
442,6,46508,6,0,P|488:35|488:122,1,134.999995880127,2|0,0:0|0:0,0:0:0:0:
436,178,47550,1,0,1:0:0:0:
468,267,47966,1,2,0:0:0:0:
468,267,48175,2,0,P|484:313|495:363,1,89.9999972534181,2|2,0:0|0:0,0:0:0:0:
408,383,49008,1,2,1:2:0:0:
345,318,49425,1,2,0:0:0:0:
257,339,49841,6,0,P|214:334|164:263,1,134.999995880127,6|0,0:3|0:0,0:0:0:0:
213,188,50883,1,2,1:2:0:0:
159,115,51300,1,10,0:0:0:0:
213,43,51716,1,2,1:2:0:0:
213,43,51925,2,0,P|159:32|110:12,1,89.9999972534181,2|2,0:0|1:2,0:0:0:0:
39,42,52758,1,2,0:0:0:0:
43,134,53175,6,0,P|25:182|13:233,1,100,2|0,0:0|0:0,0:0:0:0:
40,277,53800,1,10,0:0:0:0:
40,277,54008,1,2,0:0:0:0:
127,325,54425,1,2,0:0:0:0:
197,254,54841,2,0,P|248:268|310:280,1,100,10|0,0:0|1:0,0:0:0:0:
347,275,55466,1,8,0:0:0:0:
347,275,55675,1,8,0:0:0:0:
483,36,56716,6,0,P|440:3|387:10,1,110.000003356934,4|8,1:2|0:0,0:0:0:0:
347,49,57341,2,0,P|317:38|281:33,1,55.0000016784668,2|0,0:0|1:0,0:0:0:0:
240,46,57758,1,2,0:0:0:0:
137,6,58175,2,0,P|84:21|17:27,1,110.000003356934,2|0,0:0|0:0,0:0:0:0:
7,79,58800,1,8,0:0:0:0:
7,79,59008,2,0,P|19:115|23:149,1,55.0000016784668,2|0,0:0|1:0,0:0:0:0:
60,170,59425,2,0,P|48:206|44:240,1,55.0000016784668,2|8,0:0|0:0,0:0:0:0:
17,269,59841,6,0,P|76:277|119:345,1,110.000003356934,2|2,0:0|0:0,0:0:0:0:
132,361,60466,1,10,0:0:0:0:
240,378,60883,2,0,P|251:320|270:244,1,110.000003356934,0|10,1:0|0:0,0:0:0:0:
327,181,61716,2,0,P|317:157|310:119,1,55.0000016784668,0|0,1:0|0:0,0:0:0:0:
280,82,62133,2,0,P|316:37|385:26,1,110.000003356934,10|0,0:0|1:0,0:0:0:0:
472,45,62966,2,0,P|478:79|487:100,1,55.0000016784668,10|2,0:0|0:0,0:0:0:0:
507,154,63383,5,6,1:2:0:0:
507,154,63591,2,0,P|494:184|489:211,1,55.0000016784668,2|8,0:0|0:0,0:0:0:0:
467,256,64008,2,0,P|480:286|485:313,1,55.0000016784668,2|0,0:0|1:0,0:0:0:0:
463,358,64425,1,2,0:0:0:0:
356,382,64841,2,0,P|306:373|266:321,1,110.000003356934,2|0,0:0|0:0,0:0:0:0:
294,283,65466,1,12,0:0:0:0:
294,283,65675,2,0,P|289:255|274:223,1,55.0000016784668,2|0,0:0|1:0,0:0:0:0:
249,184,66091,2,0,P|254:156|269:124,1,55.0000016784668,2|12,0:0|0:0,0:0:0:0:
304,93,66508,6,0,P|291:51|190:36,1,110.000003356934,2|2,0:0|0:0,0:0:0:0:
181,34,67133,1,10,0:0:0:0:
75,3,67550,1,2,1:2:0:0:
3,86,67966,2,0,P|24:146|34:201,1,110.000003356934,14|2,0:0|1:2,0:0:0:0:
69,232,68591,2,0,P|99:218|145:212,1,55.0000016784668,10|10,0:0|0:0,0:0:0:0:
173,225,69008,1,6,1:2:0:0:
196,117,69425,2,0,P|243:90|322:112,1,110.000003356934,4|10,1:2|0:0,0:0:0:0:
323,150,70050,5,4,1:2:0:0:
323,150,70258,2,0,P|352:162|389:166,1,55.0000016784668,2|8,0:0|0:0,0:0:0:0:
405,119,70675,2,0,P|434:107|471:103,1,55.0000016784668,2|0,0:0|1:0,0:0:0:0:
500,136,71091,1,2,0:0:0:0:
507,245,71508,2,0,P|487:308|481:354,1,110.000003356934,2|0,0:0|0:0,0:0:0:0:
433,378,72133,1,8,0:0:0:0:
433,378,72341,2,0,P|399:367|381:364,1,55.0000016784668,2|0,0:0|1:0,0:0:0:0:
335,331,72758,2,0,P|301:342|283:345,1,55.0000016784668,2|12,0:0|0:0,0:0:0:0:
232,370,73175,6,0,B|184:377|194:330|133:335,1,110.000003356934,2|2,0:0|0:0,0:0:0:0:
79,349,73800,1,10,0:0:0:0:
6,266,74216,1,0,1:0:0:0:
53,166,74633,1,10,0:0:0:0:
53,166,74841,2,0,P|46:135|28:82,1,55.0000016784668,2|0,0:0|1:0,0:0:0:0:
11,65,75258,1,2,0:0:0:0:
101,2,75675,2,0,P|131:9|185:27,1,55.0000016784668,2|0,0:0|1:0,0:0:0:0:
202,44,76092,1,2,0:0:0:0:
273,127,76508,6,0,P|252:185|243:238,1,110.000003356934,2|2,0:0|0:0,0:0:0:0:
252,286,77133,1,10,0:0:0:0:
324,368,77550,1,0,1:0:0:0:
434,346,77966,1,10,0:0:0:0:
434,346,78175,2,0,P|439:318|455:283,1,55.0000016784668,2|0,0:0|1:0,0:0:0:0:
478,247,78591,2,0,P|473:219|457:184,1,55.0000016784668,2|12,1:2|0:0,0:0:0:0:
437,145,79008,2,0,P|443:117|471:35,1,110.000003356934,2|2,1:2|1:2,0:0:0:0:
362,11,79841,6,0,P|302:39|286:78,1,110.000003356934,2|2,1:2|1:2,0:0:0:0:
289,131,80466,1,10,0:0:0:0:
214,213,80883,2,0,P|207:247|200:266,1,55.0000016784668,8|0,0:0|1:0,0:0:0:0:
151,291,81300,2,0,P|159:316|164:343,1,55.0000016784668,10|8,0:2|0:0,0:0:0:0:
202,384,81716,1,6,1:2:0:0:
256,192,81925,12,4,83383,1:2:0:0:
