osu file format v14

[General]
AudioFilename: audio.mp3
AudioLeadIn: 0
PreviewTime: 55857
Countdown: 0
SampleSet: Soft
StackLeniency: 0.7
Mode: 0
LetterboxInBreaks: 0
WidescreenStoryboard: 1

[Editor]
Bookmarks: 83543
DistanceSpacing: 0.7
BeatDivisor: 2
GridSize: 32
TimelineZoom: 1.8

[Metadata]
Title:Crystal Dream (TV Size)
TitleUnicode:クリスタル・ドリーム (TV Size)
Artist:Daiichi Uchuu Sokudo
ArtistUnicode:第一宇宙速度
Creator:farq
Version:Amats' Hard
Source:そにアニ -SUPER SONICO THE ANIMATION-
Tags:amats mrgglock soniani anime nitroplus ending first astronomical velocity j-pop jpop japanese pop すーぱーそに子 ed female vocalist
BeatmapID:4519271
BeatmapSetID:2133738

[Difficulty]
HPDrainRate:4
CircleSize:3.4
OverallDifficulty:6
ApproachRate:8
SliderMultiplier:1.4
SliderTickRate:1

[Events]
//Background and Video events
0,0,"bg.jpg",0,0
//Break Periods
//Storyboard Layer 0 (Background)
//Storyboard Layer 1 (Fail)
//Storyboard Layer 2 (Pass)
//Storyboard Layer 3 (Foreground)
//Storyboard Layer 4 (Overlay)
//Storyboard Sound Samples

[TimingPoints]
50,416.666666666667,4,2,1,60,1,0
3383,-100,4,2,1,68,0,0
16716,-125,4,2,1,60,0,0
43383,-142.857142857143,4,2,1,50,0,0
53383,-125,4,2,1,60,0,0
55883,-125,4,2,1,40,0,0
56716,-90.9090909090909,4,2,1,73,0,1
81716,-90.9090909090909,4,2,1,65,0,0
81925,-142.857142857143,4,2,1,65,0,0
83383,-142.857142857143,4,2,1,60,0,0

[Colours]
Combo1 : 255,128,128
Combo2 : 255,128,192
Combo3 : 128,255,255

[HitObjects]
18,323,3175,5,8,0:0:0:0:
18,323,3279,1,8,0:0:0:0:
18,323,3383,2,0,P|85:306|155:296,1,140,4|10,1:2|0:0,0:0:0:0:
233,355,4008,1,0,0:0:0:0:
318,307,4216,2,0,P|329:274|320:240,1,70,2|2,1:2|0:0,0:0:0:0:
228,207,4633,2,0,P|216:174|225:140,1,70,8|0,0:0|0:0,0:0:0:0:
282,60,5050,6,0,B|361:43|331:112|440:84,2,140,2|8|2,1:2|0:0|1:2,0:0:0:0:
225,140,6091,1,0,0:0:0:0:
158,67,6300,2,0,P|123:73|89:78,1,70,8|0,0:0|0:0,0:0:0:0:
9,136,6716,6,0,B|-22:206|-22:206|-1:229|18:253,1,140,2|10,1:2|0:0,0:0:0:0:
60,342,7341,2,0,P|94:335|128:330,1,70,0|0,0:0|1:0,0:0:0:0:
203,265,7758,2,0,P|237:271|271:276,1,70,2|10,0:0|0:0,0:0:0:0:
346,341,8175,1,2,0:0:0:0:
441,317,8383,6,0,P|479:260|461:195,1,140,0|10,1:0|0:0,0:0:0:0:
402,116,9008,1,2,0:0:0:0:
319,168,9216,2,0,P|284:161|250:156,2,70,2|0|10,1:2|0:0|0:0,0:0:0:0:
480,56,10050,6,0,P|463:123|453:193,1,140,2|10,1:2|0:0,0:0:0:0:
508,274,10675,1,0,0:0:0:0:
440,345,10883,2,0,P|407:356|373:347,1,70,2|2,1:2|0:0,0:0:0:0:
308,273,11300,2,0,P|274:264|241:275,1,70,8|0,0:0|0:0,0:0:0:0:
170,343,11716,6,0,B|91:360|121:291|12:319,2,140,2|8|2,1:2|0:0|1:2,0:0:0:0:
241,275,12758,1,0,0:0:0:0:
334,304,12966,2,0,P|340:269|345:235,1,70,8|0,0:0|0:0,0:0:0:0:
416,167,13383,5,2,1:2:0:0:
416,167,13591,1,2,1:2:0:0:
382,74,13800,2,0,P|347:80|313:85,1,70,14|0,0:0|0:0,0:0:0:0:
246,21,14216,1,2,1:2:0:0:
246,21,14425,1,2,1:2:0:0:
154,54,14633,2,0,P|160:89|165:123,1,70,14|0,0:0|0:0,0:0:0:0:
157,221,15050,6,0,B|208:211|208:211|228:186|228:186|288:175,1,140,2|12,1:2|0:0,0:0:0:0:
346,250,15675,1,0,1:0:0:0:
290,330,15883,2,0,P|255:323|221:318,1,70,14|0,0:0|1:0,0:0:0:0:
123,332,16300,1,12,0:0:0:0:
81,255,16508,5,8,0:0:0:0:
81,255,16612,1,8,0:0:0:0:
81,255,16716,2,0,P|70:199|61:144,1,112,4|10,1:2|0:0,0:0:0:0:
102,71,17341,1,2,0:0:0:0:
181,98,17550,2,0,P|232:117|281:94,1,112,2|10,1:2|0:0,0:0:0:0:
338,32,18175,6,0,P|393:42|448:51,1,112,2|2,0:0|0:0,0:0:0:0:
512,112,18800,1,8,0:0:0:0:
512,112,19008,2,0,P|501:167|492:222,1,112,2|2,0:0|0:0,0:0:0:0:
423,271,19633,1,8,0:0:0:0:
358,217,19841,6,0,P|302:227|247:236,1,112,2|2,0:0|0:0,0:0:0:0:
183,290,20466,1,10,0:0:0:0:
24,232,20883,2,0,P|29:204|33:176,1,56,2|0,1:2|0:0,0:0:0:0:
119,161,21300,1,10,0:0:0:0:
119,161,21508,6,0,P|108:216|99:271,1,112
37,328,22133,1,10,0:0:0:0:
37,328,22341,1,0,0:0:0:0:
110,369,22550,2,0,P|163:378|209:348,1,112,2|10,1:2|0:0,0:0:0:0:
258,280,23175,1,2,0:0:0:0:
318,337,23383,6,0,P|373:326|428:317,1,112,0|10,1:0|0:0,0:0:0:0:
498,364,24008,2,0,P|524:315|512:262,1,112,2|0,0:0|0:0,0:0:0:0:
467,198,24633,1,10,0:0:0:0:
467,198,24841,6,0,P|411:208|356:217,1,112,2|0,0:0|0:0,0:0:0:0:
286,264,25466,1,10,0:0:0:0:
212,222,25675,2,0,P|222:166|231:111,1,112,2|2,0:0|0:0,0:0:0:0:
370,17,26508,1,2,0:0:0:0:
434,70,26716,6,0,P|461:65|489:60,2,56,0|0|10,1:0|0:0|0:0,0:0:0:0:
300,173,27550,2,0,P|272:167|244:163,1,56,0|2,1:0|0:0,0:0:0:0:
184,220,27966,1,10,0:0:0:0:
184,220,28175,6,0,P|135:246|82:234,1,112,2|2,0:0|0:0,0:0:0:0:
14,184,28800,2,0,P|19:156|23:128,1,56,10|2,0:0|0:0,0:0:0:0:
14,45,29216,2,0,P|41:39|69:35,1,56,0|0,1:0|0:0,0:0:0:0:
138,83,29633,1,8,0:0:0:0:
223,59,29841,5,8,0:0:0:0:
223,59,29945,1,8,0:0:0:0:
223,59,30050,2,0,P|249:107|237:160,1,112,4|10,1:2|0:0,0:0:0:0:
170,210,30675,1,2,0:0:0:0:
228,269,30883,2,0,P|283:258|338:249,1,112,2|10,1:2|0:0,0:0:0:0:
420,230,31508,6,0,P|446:278|434:331,1,112,2|2,0:0|0:0,0:0:0:0:
368,382,32133,1,8,0:0:0:0:
368,382,32341,2,0,P|312:371|257:362,1,112,2|2,0:0|0:0,0:0:0:0:
177,369,32966,1,8,0:0:0:0:
177,369,33175,6,0,P|167:313|157:258,1,112,2|2,0:0|0:0,0:0:0:0:
96,200,33800,1,10,0:0:0:0:
243,119,34216,2,0,P|270:123|298:128,1,56,2|0,1:2|0:0,0:0:0:0:
384,151,34633,1,10,0:0:0:0:
384,151,34841,6,0,P|410:102|398:49,1,112
329,10,35466,1,10,0:0:0:0:
329,10,35675,1,0,0:0:0:0:
254,47,35883,2,0,P|198:36|143:27,1,112,2|10,1:2|0:0,0:0:0:0:
60,14,36508,6,0,P|34:63|46:116,1,112,2|0,0:0|0:0,0:0:0:0:
113,174,37133,1,10,0:0:0:0:
113,174,37341,1,2,0:0:0:0:
239,284,37758,1,2,0:0:0:0:
349,157,38175,6,0,P|405:168|460:177,1,112,2|0,1:2|1:0,0:0:0:0:
512,245,38800,1,10,0:0:0:0:
512,245,39008,2,0,P|501:301|492:356,1,112,2|2,0:0|0:0,0:0:0:0:
325,375,39841,6,0,P|269:364|214:355,1,112,2|2,0:0|0:0,0:0:0:0:
133,375,40466,2,0,P|107:326|119:273,1,112,10|2,0:0|1:2,0:0:0:0:
175,211,41091,1,0,0:0:0:0:
175,211,41300,2,0,P|202:216|230:221,1,56,10|0,0:0|0:0,0:0:0:0:
294,275,41716,6,0,P|350:264|405:255,1,112,2|8,1:2|0:0,0:0:0:0:
477,210,42341,1,0,1:0:0:0:
477,210,42550,2,0,P|472:182|467:154,1,56,10|0,0:0|1:0,0:0:0:0:
444,74,42966,1,4,0:3:0:0:
369,107,43175,5,8,0:0:0:0:
369,107,43279,1,8,0:0:0:0:
369,107,43383,2,0,P|320:97|272:89,1,97.9999970092774,6|2,1:2|0:0,0:0:0:0:
194,79,44008,1,2,1:2:0:0:
194,79,44216,2,0,P|203:127|211:175,1,97.9999970092774,0|0,1:0|0:0,0:0:0:0:
372,221,45050,6,0,P|362:269|354:317,1,97.9999970092774,0|0,1:0|0:0,0:0:0:0:
288,367,45675,1,2,1:2:0:0:
166,253,46091,2,0,P|117:262|69:270,1,97.9999970092774,2|2,0:0|0:0,0:0:0:0:
8,213,46716,6,0,P|-13:170|-1:123,1,97.9999970092774,0|0,1:0|0:0,0:0:0:0:
55,62,47341,1,0,1:0:0:0:
55,62,47550,2,0,P|103:71|151:79,1,97.9999970092774,0|2,1:0|0:0,0:0:0:0:
275,190,48383,6,0,P|323:180|371:172,1,97.9999970092774,0|0,1:0|0:0,0:0:0:0:
452,192,49008,2,0,P|473:149|461:102,1,97.9999970092774,2|2,1:2|0:0,0:0:0:0:
410,44,49633,1,8,0:0:0:0:
410,44,49841,1,6,0:3:0:0:
332,76,50050,6,0,P|283:66|235:58,1,97.9999970092774,4|0,1:2|0:0,0:0:0:0:
157,78,50675,1,0,1:0:0:0:
157,78,50883,2,0,P|135:120|147:167,1,97.9999970092774,2|10,1:2|0:0,0:0:0:0:
296,252,51716,5,2,1:2:0:0:
296,252,51925,2,0,P|344:242|392:234,2,97.9999970092774,2|2|2,0:0|1:2|0:0,0:0:0:0:
160,349,53175,1,2,0:0:0:0:
66,330,53383,6,0,P|60:302|55:274,1,56,4|0,1:2|0:0,0:0:0:0:
117,202,53800,1,10,0:0:0:0:
200,248,54008,2,0,P|227:243|255:237,1,56,2|0,0:0|1:0,0:0:0:0:
300,153,54425,2,0,P|327:157|355:163,1,56,2|8,0:0|0:0,0:0:0:0:
443,220,54841,5,10,0:0:0:0:
443,220,54945,1,8,0:0:0:0:
443,220,55050,1,4,1:2:0:0:
499,143,55258,1,0,1:0:0:0:
453,59,55466,1,8,0:0:0:0:
360,82,55675,1,8,0:0:0:0:
360,82,56716,5,4,1:2:0:0:
260,123,56925,2,0,P|267:160|274:198,1,77.0000023498536,2|8,0:0|0:0,0:0:0:0:
381,203,57341,2,0,P|373:240|366:278,1,77.0000023498536,2|0,0:0|1:0,0:0:0:0:
285,349,57758,2,0,P|248:361|211:352,1,77.0000023498536,2|8,0:0|0:0,0:0:0:0:
132,279,58175,1,2,0:0:0:0:
36,330,58383,6,0,P|-6:268|12:196,1,154.000004699707,0|8,1:0|0:0,0:0:0:0:
84,116,59008,2,0,P|121:123|159:130,1,77.0000023498536,2|0,0:0|1:0,0:0:0:0:
250,69,59425,1,2,0:0:0:0:
250,69,59633,1,8,0:0:0:0:
346,116,59841,6,0,B|377:201|377:201|337:249,1,154.000004699707,2|2,0:0|0:0,0:0:0:0:
239,295,60466,1,10,0:0:0:0:
314,372,60675,2,0,B|404:371|362:315|477:321,1,154.000004699707,2|2,0:0|0:0,0:0:0:0:
511,239,61300,1,10,0:0:0:0:
420,180,61508,6,0,P|435:104|449:28,1,154.000004699707
341,15,62133,2,0,P|304:4|267:14,1,77.0000023498536,10|0,0:0|0:0,0:0:0:0:
159,21,62550,2,0,P|131:47|122:84,1,77.0000023498536,0|0,1:0|0:0,0:0:0:0:
191,174,62966,1,10,0:0:0:0:
191,174,63175,1,2,0:0:0:0:
263,94,63383,5,6,1:2:0:0:
359,141,63591,2,0,P|351:178|344:216,1,77.0000023498536,2|8,0:0|0:0,0:0:0:0:
359,323,64008,2,0,P|321:315|283:308,1,77.0000023498536,2|0,0:0|1:0,0:0:0:0:
195,371,64425,2,0,P|157:363|119:356,1,77.0000023498536,2|8,0:0|0:0,0:0:0:0:
32,293,64841,1,2,0:0:0:0:
127,243,65050,6,0,P|169:181|150:109,1,154.000004699707,0|12,1:0|0:0,0:0:0:0:
80,27,65675,2,0,P|42:34|4:41,1,77.0000023498536,2|0,0:0|1:0,0:0:0:0:
150,109,66091,2,0,P|187:101|225:94,1,77.0000023498536,2|12,0:0|0:0,0:0:0:0:
328,60,66508,6,0,B|359:145|359:145|319:193,1,154.000004699707,2|2,0:0|0:0,0:0:0:0:
240,267,67133,1,10,0:0:0:0:
161,192,67341,1,0,0:0:0:0:
58,226,67550,2,0,P|61:244|65:263,3,38.5000011749268,2|2|2|2,1:2|0:0|1:2|0:0,0:0:0:0:
20,293,67966,2,0,P|23:311|27:330,3,38.5000011749268,14|2|2|0,0:0|0:0|1:2|1:0,0:0:0:0:
62,372,68383,5,2,1:2:0:0:
152,311,68591,1,10,0:0:0:0:
152,311,68800,1,10,0:0:0:0:
247,363,69008,2,0,P|284:355|322:348,1,77.0000023498536,6|10,1:2|0:0,0:0:0:0:
269,254,69425,2,0,P|306:247|344:239,1,77.0000023498536,4|10,1:2|0:0,0:0:0:0:
445,301,69841,5,10,0:0:0:0:
445,301,69945,1,8,0:0:0:0:
445,301,70050,1,4,1:2:0:0:
510,215,70258,2,0,P|503:177|495:139,1,77.0000023498536,2|8,0:0|0:0,0:0:0:0:
448,42,70675,2,0,P|411:31|374:41,1,77.0000023498536,2|0,0:0|1:0,0:0:0:0:
314,131,71091,2,0,P|277:141|240:131,1,77.0000023498536,2|8,0:0|0:0,0:0:0:0:
175,44,71508,1,2,0:0:0:0:
72,77,71716,6,0,P|29:138|48:210,1,154.000004699707,0|8,1:0|0:0,0:0:0:0:
126,284,72341,2,0,P|163:276|201:269,1,77.0000023498536,2|0,0:0|1:0,0:0:0:0:
281,196,72758,1,2,0:0:0:0:
366,261,72966,1,12,0:0:0:0:
459,206,73175,6,0,P|501:267|482:339,1,154.000004699707,2|2,0:0|0:0,0:0:0:0:
380,375,73800,2,0,P|342:367|304:360,1,77.0000023498536,10|0,0:0|0:0,0:0:0:0:
220,293,74216,1,0,1:0:0:0:
220,293,74425,1,0,0:0:0:0:
141,367,74633,1,10,0:0:0:0:
42,322,74841,6,0,P|31:285|41:248,1,77.0000023498536,2|0,0:0|1:0,0:0:0:0:
131,187,75258,2,0,P|141:150|131:113,1,77.0000023498536,2|8,0:0|0:0,0:0:0:0:
61,30,75675,2,0,P|122:-12|194:6,1,154.000004699707,2|2,0:0|0:0,0:0:0:0:
269,84,76300,1,12,0:0:0:0:
371,52,76508,6,0,B|402:137|402:137|379:156|362:185,1,154.000004699707,2|2,0:0|0:0,0:0:0:0:
288,264,77133,2,0,P|250:256|212:249,1,77.0000023498536,10|0,0:0|0:0,0:0:0:0:
129,189,77550,1,0,1:0:0:0:
129,189,77758,1,0,0:0:0:0:
43,253,77966,1,10,0:0:0:0:
92,349,78175,6,0,P|128:359|165:348,1,77.0000023498536,2|0,0:0|1:0,0:0:0:0:
245,276,78591,1,2,1:2:0:0:
311,361,78800,1,12,0:0:0:0:
413,327,79008,2,0,P|427:251|442:175,1,154.000004699707,2|2,1:2|1:2,0:0:0:0:
369,95,79633,1,12,0:0:0:0:
281,157,79841,6,0,B|190:156|232:100|117:106,1,154.000004699707,2|2,1:2|1:2,0:0:0:0:
40,148,80466,2,0,P|32:110|25:72,1,77.0000023498536,10|0,0:0|1:0,0:0:0:0:
115,12,80883,2,0,P|122:49|129:87,1,77.0000023498536,8|0,0:0|1:0,0:0:0:0:
217,150,81300,1,10,0:2:0:0:
272,61,81508,5,8,0:0:0:0:
272,61,81612,1,8,0:0:0:0:
272,61,81716,1,6,1:2:0:0:
341,126,81925,2,0,B|412:108|455:178|455:178|454:89|519:49|519:49|499:28|489:2,1,342.999989532471,2|4,0:0|1:2,0:0:0:0:
256,192,83487,12,4,88800,0:3:0:0:
