osu file format v14

[General]
AudioFilename: audio.mp3
AudioLeadIn: 0
PreviewTime: 256288
Countdown: 0
SampleSet: Soft
StackLeniency: 0.6
Mode: 0
LetterboxInBreaks: 0
WidescreenStoryboard: 0

[Editor]
Bookmarks: 31414,33128,59699,60556,60985,76852,80281,80566,87138,87995,93995,108566,110138,110995,111566,132566,144556,146271,146556,146699,155699,156128,156556,159128,166288,172859,173716,183145,194288,196002,197288,201145,225573,226859,228145,228573,231145,232002,234573,235431,235859,248288,249145,270573,291145,292716,294573,296466,299823,303359
DistanceSpacing: 0.9
BeatDivisor: 12
GridSize: 4
TimelineZoom: 1.2

[Metadata]
Title:Blizzard
TitleUnicode:Blizzard
Artist:Daichi Miura
ArtistUnicode:三浦大知
Creator:-NeBu-
Version:Break The Ice
Source:ドラゴンボール超 ブロリー
Tags:dragon ball super daichi miura blizzard soundtrack ending movie anime blizzard Dragon Ball Super: Broly Movie
BeatmapID:1951841
BeatmapSetID:934920

[Difficulty]
HPDrainRate:5
CircleSize:3.8
OverallDifficulty:9.4
ApproachRate:9.6
SliderMultiplier:2.8
SliderTickRate:1

[Events]
//Background and Video events
0,0,"dbsupermovie-desktop-wallpaper.jpg",0,0
//Break Periods
//Storyboard Layer 0 (Background)
//Storyboard Layer 1 (Fail)
//Storyboard Layer 2 (Pass)
//Storyboard Layer 3 (Foreground)
//Storyboard Sound Samples

[TimingPoints]
19424,428.571428571429,4,2,0,55,1,0
31424,-100,4,2,0,40,0,0
32281,-100,4,2,0,55,0,0
33138,-100,4,2,0,65,0,0
46852,-166.666666666667,4,2,0,50,0,0
60566,-100,4,2,0,65,0,0
74281,-90.9090909090909,4,2,0,75,0,1
98281,-100,4,2,0,70,0,0
101709,-86.9565217391304,4,2,0,70,0,0
108566,-117.647058823529,4,2,0,65,0,0
110281,-74.074074074074,4,2,0,70,0,0
111995,-100,4,2,0,60,0,0
132566,-153.846153846154,4,2,0,50,0,0
144566,-117.647058823529,4,2,0,75,0,0
146709,-100,4,2,0,70,0,0
159566,-76.9230769230769,4,2,0,75,0,0
159995,-83.3333333333333,4,2,0,80,0,1
183995,-100,4,2,0,70,0,0
197281,-263.157894736842,4,2,0,30,0,0
201138,-333.333333333333,4,2,0,5,0,0
228566,-133.333333333333,4,2,0,35,0,0
238424,-66.6666666666667,4,2,0,35,0,0
239281,-133.333333333333,4,2,0,35,0,0
242281,-200,4,2,0,35,0,0
242709,-400,4,2,0,35,0,0
243138,-133.333333333333,4,2,0,35,0,0
252138,-66.6666666666667,4,2,0,35,0,0
252995,-133.333333333333,4,2,0,35,0,0
255566,-66.6666666666667,4,2,0,35,0,0
256424,-62.5,4,2,0,35,0,0
256852,-76.9230769230769,4,2,0,85,0,1
278281,-62.5,4,2,0,85,0,1
279138,-76.9230769230769,4,2,0,85,0,1
280852,-100,4,2,0,65,0,0
293709,-100,4,2,0,45,0,0
296424,-200,4,2,0,10,0,0

[Colours]
Combo1 : 23,23,23
Combo2 : 0,128,192
Combo3 : 255,128,64
Combo4 : 128,0,128
Combo5 : 16,186,12
Combo6 : 255,220,185

[HitObjects]
116,103,19424,5,8,0:0:0:0:
72,252,19852,1,8,0:0:0:0:
152,196,20281,1,8,0:0:0:0:
113,337,20566,2,0,L|205:346,1,93.3333333333334,8|8,0:0|0:0,0:0:0:0:
322,175,20995,1,8,0:0:0:0:
308,156,21138,5,8,0:0:0:0:
349,284,21566,1,8,0:0:0:0:
435,185,21852,1,0,0:0:0:0:
420,172,21995,2,0,L|406:76,1,93.3333333333334,8|0,0:0|0:0,0:0:0:0:
224,108,22281,1,8,0:0:0:0:
239,95,22424,2,0,L|253:-1,2,93.3333333333334,8|0|8,0:0|0:0|0:0,0:0:0:0:
297,225,22852,5,8,0:0:0:0:
160,176,23281,1,8,0:0:0:0:
214,250,23709,1,8,0:0:0:0:
156,152,23995,1,8,0:0:0:0:
144,132,24138,2,0,P|102:106|57:104,2,93.3333333333333,8|0|8,0:0|0:0|0:0,0:0:0:0:
210,333,24566,5,8,0:0:0:0:
380,272,24995,1,8,0:0:0:0:
160,228,25281,1,0,0:0:0:0:
396,288,25424,2,0,L|411:194,1,93.3333333333333,8|0,0:0|0:0,0:0:0:0:
289,277,25709,1,8,0:0:0:0:
53,337,25852,2,0,L|38:243,1,93.3333333333333,8|0,0:0|0:0,0:0:0:0:
188,384,26138,1,8,0:0:0:0:
256,140,26281,5,8,0:0:0:0:
145,206,26709,1,8,0:0:0:0:
329,270,27138,1,8,0:0:0:0:
124,196,27424,1,8,0:0:0:0:
329,270,27566,2,0,L|229:290,1,93.3333333333333,8|0,0:0|0:0,0:0:0:0:
344,364,27852,1,8,0:0:0:0:
408,152,27995,5,8,0:0:0:0:
200,88,28424,1,8,0:0:0:0:
360,48,28709,1,0,0:0:0:0:
116,104,28852,5,8,0:0:0:0:
108,129,28995,1,8,0:0:0:0:
100,151,29138,1,8,0:0:0:0:
363,189,29281,5,8,0:0:0:0:
371,214,29424,1,8,0:0:0:0:
379,236,29567,1,8,0:0:0:0:
218,24,29709,6,0,B|159:0|85:72|158:172|285:143,1,280,8|8,0:0|0:0,0:0:0:0:
312,252,30566,2,0,P|228:268|192:356,1,186.666666666667,8|8,0:0|0:0,0:0:0:0:
94,299,30995,2,0,L|82:191,2,93.3333333333333,8|0|8,0:0|0:0|0:0,0:0:0:0:
204,52,31424,5,8,0:0:0:0:
284,342,31852,1,8,0:0:0:0:
116,168,32138,1,0,0:0:0:0:
458,188,32281,5,8,0:0:0:0:
420,158,32424,1,8,0:0:0:0:
368,188,32566,1,8,0:0:0:0:
212,280,32709,5,8,0:0:0:0:
234,299,32852,1,8,0:0:0:0:
310,277,32995,1,8,0:0:0:0:
217,192,33138,6,0,P|145:224|141:328,1,186.666666666667,8|0,0:0|0:0,0:0:0:0:
437,379,33566,2,0,B|409:303|409:303|177:275,1,280,8|8,0:0|0:0,0:0:0:0:
302,384,34281,1,8,0:0:0:0:
501,237,34424,2,0,B|456:232|456:232|443:216|443:216|429:227|429:227|316:214,1,186.666666666667,8|8,0:0|0:0,0:0:0:0:
108,184,34852,6,0,P|191:146|198:47,1,186.666666666667,8|0,0:0|0:0,0:0:0:0:
288,12,35281,2,0,B|365:21|365:21|391:52|391:52|473:65,1,186.666666666667,8|0,0:0|0:0,0:0:0:0:
240,152,35709,1,8,0:0:0:0:
116,208,35852,1,8,0:0:0:0:
252,248,35995,1,8,0:0:0:0:
120,188,36138,1,8,0:0:0:0:
268,132,36281,1,8,0:0:0:0:
200,328,36424,1,8,0:0:0:0:
7,124,36566,6,0,B|109:89|54:181|200:128,1,186.666666666667,8|0,0:0|0:0,0:0:0:0:
435,91,36995,2,0,P|347:99|407:147,1,186.666666666667,8|0,0:0|0:0,0:0:0:0:
316,4,37424,2,0,P|264:100|293:183,1,186.666666666667,8|8,0:0|0:0,0:0:0:0:
403,327,37852,2,0,B|359:305|359:305|336:301|336:301|321:290|321:290|300:294|300:294|277:290|277:290|226:296,1,186.666666666667,8|8,0:0|0:0,0:0:0:0:
24,264,38281,6,0,B|96:252|96:252|136:268|136:268|216:249,1,186.666666666667,8|0,0:0|0:0,0:0:0:0:
385,147,38709,2,0,P|313:171|305:279,1,186.666666666667,8|0,0:0|0:0,0:0:0:0:
508,364,39138,1,8,0:0:0:0:
374,229,39281,1,8,0:0:0:0:
420,348,39424,1,8,0:0:0:0:
488,144,39566,1,8,0:0:0:0:
344,232,39709,1,8,0:0:0:0:
502,337,39852,1,8,0:0:0:0:
278,39,39995,6,0,B|220:68|220:68|225:115|225:115|223:122|223:122|227:128|227:128|236:192,1,186.666666666667,8|0,0:0|0:0,0:0:0:0:
302,384,40424,2,0,B|311:317|311:317|331:291|331:291|320:261|320:261|330:196,1,186.666666666667,8|0,0:0|0:0,0:0:0:0:
372,14,40852,2,0,L|392:118,1,93.3333333333333,8|0,0:0|0:0,0:0:0:0:
262,57,41138,1,8,0:0:0:0:
473,115,41281,2,0,B|464:164|464:164|459:169|459:169|462:174|462:174|451:241|451:241|455:249|455:249|448:255|448:255|441:307,1,186.666666666667,8|8,0:0|0:0,0:0:0:0:
176,285,41709,6,0,B|282:284|206:344|346:338,1,186.666666666667,8|0,0:0|0:0,0:0:0:0:
159,186,42138,2,0,B|116:155|46:181|46:181|46:215|83:236,1,186.666666666667,8|0,0:0|0:0,0:0:0:0:
220,240,42566,1,8,0:0:0:0:
152,168,42709,1,8,0:0:0:0:
184,248,42852,1,8,0:0:0:0:
252,80,42995,1,8,0:0:0:0:
120,172,43138,1,8,0:0:0:0:
349,234,43281,1,8,0:0:0:0:
312,27,43424,6,0,P|229:1|173:73,1,186.666666666667,8|0,0:0|0:0,0:0:0:0:
369,319,43852,2,0,B|399:233|399:233|364:144,1,186.666666666667,8|0,0:0|0:0,0:0:0:0:
256,223,44281,2,0,L|364:235,1,93.3333333333333,8|0,0:0|0:0,0:0:0:0:
204,144,44566,1,8,0:0:0:0:
369,319,44709,2,0,B|286:310|286:310|256:323|256:323|178:314,1,186.666666666667,8|8,0:0|0:0,0:0:0:0:
25,141,45138,6,0,B|168:120|168:120|210:147,1,186.666666666667,8|0,0:0|0:0,0:0:0:0:
476,259,45566,2,0,B|407:246|407:246|388:229|388:229|363:238|363:238|292:227,1,186.666666666667,8|0,0:0|0:0,0:0:0:0:
312,64,45995,1,8,0:0:0:0:
376,76,46138,1,8,0:0:0:0:
359,110,46281,1,8,0:0:0:0:
221,31,46424,1,8,0:0:0:0:
166,39,46566,1,8,0:0:0:0:
177,55,46709,1,8,0:0:0:0:
71,122,46852,6,0,P|30:160|24:214,1,111.999996582031,8|0,0:0|0:0,0:0:0:0:
192,241,47281,2,0,P|154:200|99:196,1,111.999996582031,8|0,0:0|0:0,0:0:0:0:
168,324,47709,2,0,B|279:332|222:266|344:268,1,167.999994873047,8|8,0:0|0:0,0:0:0:0:
455,143,48424,1,8,0:0:0:0:
455,143,48566,6,0,P|379:155|356:191,1,111.999996582031,8|0,0:0|0:0,0:0:0:0:
269,244,48995,2,0,P|296:250|330:281,1,55.9999982910157,8|0,0:0|0:0,0:0:0:0:
159,296,49281,1,0,0:0:0:0:
269,140,49424,2,0,P|296:134|330:103,1,55.9999982910157,8|0,0:0|0:0,0:0:0:0:
159,88,49710,1,0,0:0:0:0:
269,244,49852,2,0,P|301:252|336:328,1,111.999996582031,8|8,0:0|0:0,0:0:0:0:
60,244,50281,6,0,L|40:128,1,111.999996582031,8|0,0:0|0:0,0:0:0:0:
139,185,50709,2,0,L|158:295,1,111.999996582031,8|0,0:0|0:0,0:0:0:0:
24,167,51138,2,0,L|14:109,1,55.9999982910157,8|0,0:0|0:0,0:0:0:0:
160,196,51424,1,0,0:0:0:0:
127,0,51566,2,0,B|88:43|88:43|101:103,1,111.999996582031,8|0,0:0|0:0,0:0:0:0:
392,268,51995,5,8,0:0:0:0:
392,268,52424,1,8,0:0:0:0:
392,268,52852,1,8,0:0:0:0:
224,176,53138,1,8,0:0:0:0:
352,176,53281,2,0,L|208:192,1,111.999996582031,8|8,0:0|0:0,0:0:0:0:
68,65,53709,6,0,P|116:49|180:88,1,111.999996582031,8|0,0:0|0:0,0:0:0:0:
160,174,54138,2,0,P|112:190|48:151,1,111.999996582031,8|0,0:0|0:0,0:0:0:0:
169,73,54566,2,0,P|185:121|146:185,1,111.999996582031,8|0,0:0|0:0,0:0:0:0:
59,166,54995,2,0,P|43:118|82:54,1,111.999996582031,8|0,0:0|0:0,0:0:0:0:
115,119,55424,5,8,0:0:0:0:
115,119,55852,1,8,0:0:0:0:
115,119,56281,1,8,0:0:0:0:
232,42,56566,1,8,0:0:0:0:
156,219,56709,2,0,L|136:95,1,111.999996582031,8|0,0:0|0:0,0:0:0:0:
395,128,57138,6,0,P|365:173|306:192,1,111.999996582031,8|0,0:0|0:0,0:0:0:0:
232,42,57566,2,0,P|283:60|314:106,1,111.999996582031,8|0,0:0|0:0,0:0:0:0:
236,302,57995,2,0,L|244:240,1,55.9999982910157,8|0,0:0|0:0,0:0:0:0:
364,299,58281,1,0,0:0:0:0:
132,260,58424,2,0,L|256:244,1,111.999996582031,8|0,0:0|0:0,0:0:0:0:
128,104,58852,2,0,P|90:54|43:42,1,111.999996582031,8|0,0:0|0:0,0:0:0:0:
384,104,59281,2,0,P|422:54|469:42,1,111.999996582031,8|0,0:0|0:0,0:0:0:0:
104,216,59709,5,8,0:0:0:0:
216,212,59852,1,8,0:0:0:0:
192,240,59995,1,8,0:0:0:0:
264,112,60138,1,8,0:0:0:0:
312,152,60281,1,8,0:0:0:0:
228,116,60424,1,8,0:0:0:0:
362,46,60566,6,0,P|413:79|422:198,1,186.666666666667,8|0,0:0|0:0,0:0:0:0:
204,332,60995,2,0,P|184:280|152:252,1,93.3333333333333,8|0,0:0|0:0,0:0:0:0:
17,195,61281,1,0,0:0:0:0:
308,332,61424,2,0,P|328:280|360:252,1,93.3333333333333,8|0,0:0|0:0,0:0:0:0:
495,195,61710,1,0,0:0:0:0:
190,99,61852,2,0,L|90:83,1,93.3333333333333,8|0,0:0|0:0,0:0:0:0:
316,44,62138,1,0,0:0:0:0:
209,277,62281,6,0,B|190:203|190:203|207:166|207:166|185:81,1,186.666666666667,8|0,0:0|0:0,0:0:0:0:
316,44,62709,2,0,L|303:148,2,93.3333333333333,8|0|0,0:0|0:0|0:0,0:0:0:0:
428,200,63138,1,8,0:0:0:0:
344,260,63281,1,8,0:0:0:0:
472,288,63424,1,8,0:0:0:0:
336,180,63566,1,8,0:0:0:0:
368,288,63709,1,8,0:0:0:0:
440,120,63852,1,8,0:0:0:0:
232,79,63995,6,0,P|200:167|212:265,1,186.666666666667,8|0,0:0|0:0,0:0:0:0:
503,65,64424,2,0,P|455:37|400:45,1,93.3333333333333,8|0,0:0|0:0,0:0:0:0:
336,180,64709,1,0,0:0:0:0:
9,65,64852,2,0,P|57:37|112:45,1,93.3333333333333,8|0,0:0|0:0,0:0:0:0:
176,180,65137,1,0,0:0:0:0:
350,87,65281,2,0,L|334:191,1,93.3333333333333,8|0,0:0|0:0,0:0:0:0:
191,0,65566,1,0,0:0:0:0:
296,176,65709,6,0,B|303:223|303:223|297:236|297:236|307:245|307:245|328:368,1,186.666666666667,8|0,0:0|0:0,0:0:0:0:
93,267,66138,2,0,P|97:191|185:231,1,186.666666666667,8|0,0:0|0:0,0:0:0:0:
108,368,66566,1,8,0:0:0:0:
8,248,66709,1,8,0:0:0:0:
116,280,66852,1,8,0:0:0:0:
20,272,66995,1,8,0:0:0:0:
152,168,67138,1,8,0:0:0:0:
140,296,67281,1,8,0:0:0:0:
25,140,67424,6,0,P|37:92|168:37,1,186.666666666667,8|0,0:0|0:0,0:0:0:0:
335,203,67852,2,0,L|151:167,1,186.666666666667,8|0,0:0|0:0,0:0:0:0:
353,106,68281,2,0,B|411:122|411:122|439:262,1,186.666666666667,8|0,0:0|0:0,0:0:0:0:
76,246,68709,2,0,B|101:122|101:122|159:106,1,186.666666666667,8|0,0:0|0:0,0:0:0:0:
336,281,69138,6,0,B|255:324|255:324|156:299,1,186.666666666667,8|0,0:0|0:0,0:0:0:0:
63,234,69566,2,0,B|111:250|111:250|131:390,1,186.666666666667,8|0,0:0|0:0,0:0:0:0:
236,280,69995,1,8,0:0:0:0:
184,176,70138,1,8,0:0:0:0:
216,188,70281,1,8,0:0:0:0:
124,84,70424,1,8,0:0:0:0:
268,40,70566,1,8,0:0:0:0:
136,48,70709,1,8,0:0:0:0:
360,80,70852,5,8,0:0:0:0:
374,85,70995,1,8,0:0:0:0:
385,95,71138,1,8,0:0:0:0:
152,80,71281,5,8,0:0:0:0:
138,85,71424,1,8,0:0:0:0:
127,95,71567,1,8,0:0:0:0:
306,179,71709,5,8,0:0:0:0:
320,184,71852,1,8,0:0:0:0:
331,194,71995,1,8,0:0:0:0:
206,179,72138,5,8,0:0:0:0:
192,184,72281,1,8,0:0:0:0:
181,194,72424,1,8,0:0:0:0:
311,282,72566,6,0,P|346:314|399:319,2,93.3333333333333,8|8|8,0:0|0:0|0:0,0:0:0:0:
201,282,72995,2,0,P|166:314|113:319,2,93.3333333333333,8|8|8,0:0|0:0|0:0,0:0:0:0:
232,12,73424,6,0,L|254:18,1,17.5,8|0,0:0|0:0,0:0:0:0:
512,218,73852,6,0,L|304:250,1,186.666666666667,8|0,0:0|0:0,0:0:0:0:
184,270,74281,6,0,L|68:290,1,102.666669799805,12|0,0:0|0:0,0:0:0:0:
208,92,74566,1,0,0:0:0:0:
304,312,74709,1,8,0:0:0:0:
396,96,74852,1,0,0:0:0:0:
144,156,74995,1,0,0:0:0:0:
384,216,75138,6,0,L|516:232,1,102.666669799805,8|0,0:0|0:0,0:0:0:0:
320,20,75424,1,8,0:0:0:0:
124,248,75566,2,0,L|-8:264,1,102.666669799805,8|0,0:0|0:0,0:0:0:0:
188,52,75852,1,8,0:0:0:0:
384,216,75995,2,0,P|416:272|421:323,2,102.666669799805,8|0|0,0:0|0:0|0:0,0:0:0:0:
128,216,76424,2,0,P|96:272|91:323,2,102.666669799805,8|0|0,0:0|0:0|0:0,0:0:0:0:
348,116,76852,5,8,0:0:0:0:
198,299,76995,1,8,0:0:0:0:
136,52,77138,1,8,0:0:0:0:
272,156,77281,1,8,0:0:0:0:
76,244,77424,1,8,0:0:0:0:
200,0,77566,1,8,0:0:0:0:
299,284,77709,6,0,L|183:300,1,102.666669799805,12|0,0:0|0:0,0:0:0:0:
116,112,77995,1,0,0:0:0:0:
382,126,78138,2,0,L|398:238,1,102.666669799805,8|0,0:0|0:0,0:0:0:0:
256,375,78424,1,0,0:0:0:0:
136,188,78566,1,8,0:0:0:0:
312,156,78709,1,0,0:0:0:0:
192,320,78852,1,0,0:0:0:0:
71,135,78995,2,0,P|119:106|175:113,1,102.666669799805,8|0,0:0|0:0,0:0:0:0:
253,265,79281,1,0,0:0:0:0:
209,29,79424,6,0,L|89:9,1,102.666669799805,8|0,0:0|0:0,0:0:0:0:
272,252,79709,1,0,0:0:0:0:
314,72,79852,2,0,L|434:52,1,102.666669799805,8|0,0:0|0:0,0:0:0:0:
246,284,80137,1,0,0:0:0:0:
152,84,80281,1,8,0:0:0:0:
383,163,80424,1,8,0:0:0:0:
101,295,80566,6,0,L|-11:315,1,102.666669799805,8|8,0:0|0:0,0:0:0:0:
308,368,80852,1,8,0:0:0:0:
155,194,80995,2,0,L|43:214,1,102.666669799805,8|12,0:0|0:0,0:0:0:0:
362,267,81281,1,0,0:0:0:0:
203,101,81424,2,0,L|91:121,1,102.666669799805,8|8,0:0|0:0,0:0:0:0:
410,174,81710,1,0,0:0:0:0:
256,24,81852,1,8,0:0:0:0:
349,228,81995,6,0,P|429:256|488:156,1,205.33333959961,8|8,0:0|0:0,0:0:0:0:
203,101,82424,2,0,P|123:73|64:173,1,205.33333959961,8|8,0:0|0:0,0:0:0:0:
332,329,82852,2,0,L|350:219,1,102.666669799805,8|0,0:0|0:0,0:0:0:0:
203,101,83138,1,0,0:0:0:0:
180,329,83281,2,0,L|162:219,1,102.666669799805,8|0,0:0|0:0,0:0:0:0:
309,101,83567,1,0,0:0:0:0:
162,341,83709,5,8,0:0:0:0:
100,156,83852,1,8,0:0:0:0:
34,362,83995,1,8,0:0:0:0:
325,187,84138,1,8,0:0:0:0:
500,309,84281,1,8,0:0:0:0:
307,360,84424,1,8,0:0:0:0:
290,113,84566,6,0,P|335:105|386:133,1,102.666669799805,12|0,0:0|0:0,0:0:0:0:
208,244,84852,1,0,0:0:0:0:
107,40,84995,2,0,L|219:20,1,102.666669799805,8|0,0:0|0:0,0:0:0:0:
296,200,85281,1,0,0:0:0:0:
496,88,85424,2,0,L|382:65,1,102.666669799805,8|0,0:0|0:0,0:0:0:0:
307,282,85709,1,0,0:0:0:0:
56,136,85852,2,0,L|72:240,1,102.666669799805,8|0,0:0|0:0,0:0:0:0:
176,40,86138,1,0,0:0:0:0:
307,282,86281,6,0,B|221:292|221:292|193:325|193:325|104:336,1,205.33333959961,8|0,0:0|0:0,0:0:0:0:
334,33,86709,2,0,B|388:54|388:54|396:102|396:102|404:115|404:115|401:130|401:130|420:222,1,205.33333959961,8|0,0:0|0:0,0:0:0:0:
204,164,87138,1,8,0:0:0:0:
340,116,87281,1,8,0:0:0:0:
260,288,87424,1,8,0:0:0:0:
96,40,87566,5,8,0:0:0:0:
432,136,87709,1,8,0:0:0:0:
132,296,87852,1,8,0:0:0:0:
417,56,87995,6,0,P|473:64|506:108,1,102.666669799805,12|0,0:0|0:0,0:0:0:0:
356,268,88281,1,0,0:0:0:0:
220,80,88424,1,8,0:0:0:0:
424,172,88566,1,0,0:0:0:0:
232,316,88709,1,0,0:0:0:0:
289,30,88852,2,0,L|405:18,1,102.666669799805,8|0,0:0|0:0,0:0:0:0:
152,0,89138,1,8,0:0:0:0:
410,186,89281,2,0,L|512:196,1,102.666669799805,8|0,0:0|0:0,0:0:0:0:
273,216,89567,1,8,0:0:0:0:
505,121,89709,6,0,B|424:128|424:128|406:143|406:143|384:132|384:132|293:141,1,205.33333959961,8|0,0:0|0:0,0:0:0:0:
28,184,90138,2,0,B|147:192|41:265|224:280,1,205.33333959961,8|0,0:0|0:0,0:0:0:0:
352,172,90566,1,8,0:0:0:0:
153,134,90709,1,8,0:0:0:0:
392,44,90852,1,8,0:0:0:0:
80,96,90995,1,8,0:0:0:0:
415,225,91138,1,8,0:0:0:0:
29,271,91281,1,8,0:0:0:0:
359,157,91424,6,0,B|408:136|408:136|465:147,2,102.666669799805,12|0|0,0:0|0:0|0:0,0:0:0:0:
177,107,91852,2,0,B|128:86|128:86|71:97,2,102.666669799805,8|0|0,0:0|0:0|0:0,0:0:0:0:
296,296,92281,1,8,0:0:0:0:
364,44,92424,1,0,0:0:0:0:
160,184,92566,1,0,0:0:0:0:
381,276,92709,2,0,L|493:292,1,102.666669799805,8|0,0:0|0:0,0:0:0:0:
272,120,92995,1,0,0:0:0:0:
203,369,93138,6,0,L|95:385,1,102.666669799805,8|0,0:0|0:0,0:0:0:0:
368,256,93424,1,0,0:0:0:0:
160,184,93566,1,8,0:0:0:0:
414,82,93709,1,0,0:0:0:0:
224,272,93852,1,0,0:0:0:0:
348,0,93995,1,8,0:0:0:0:
304,340,94138,1,8,0:0:0:0:
368,256,94281,6,0,L|352:128,1,102.666669799805,8|8,0:0|0:0,0:0:0:0:
465,318,94567,1,8,0:0:0:0:
271,194,94710,2,0,L|255:66,1,102.666669799805,8|12,0:0|0:0,0:0:0:0:
368,256,94996,1,0,0:0:0:0:
174,132,95138,2,0,L|158:4,1,102.666669799805,8|8,0:0|0:0,0:0:0:0:
271,194,95424,1,0,0:0:0:0:
99,272,95566,1,8,0:0:0:0:
100,108,95709,6,0,P|136:62|251:128,1,205.33333959961,8|8,0:0|0:0,0:0:0:0:
252,294,96138,2,0,B|188:266|188:266|172:114,1,205.33333959961,8|8,0:0|0:0,0:0:0:0:
374,19,96566,2,0,P|408:63|418:122,1,102.666669799805,8|0,0:0|0:0,0:0:0:0:
373,281,96852,1,0,0:0:0:0:
138,19,96995,2,0,P|104:63|94:122,1,102.666669799805,8|0,0:0|0:0,0:0:0:0:
139,281,97281,1,0,0:0:0:0:
328,60,97424,5,8,0:0:0:0:
396,304,97566,1,8,0:0:0:0:
438,108,97709,1,8,0:0:0:0:
240,332,97852,1,8,0:0:0:0:
120,92,97995,1,8,0:0:0:0:
159,379,98138,1,8,0:0:0:0:
353,124,98281,6,0,B|381:82|440:101|466:194|382:227,1,186.666666666667,12|8,0:0|0:0,0:0:0:0:
159,124,98709,2,0,B|131:82|72:101|46:194|130:227,1,186.666666666667,8|8,0:0|0:0,0:0:0:0:
276,248,99138,2,0,B|176:263|236:339|101:330,1,186.666666666667,8|8,0:0|0:0,0:0:0:0:
163,32,99566,2,0,B|263:47|203:123|338:114,1,186.666666666667,8|8,0:0|0:0,0:0:0:0:
512,156,99995,2,0,B|460:166|460:166|449:196|449:196|433:184|433:184|401:189|401:189|396:188|396:188|393:192|393:192|352:200,1,186.666666666667,8|8,0:0|0:0,0:0:0:0:
132,245,100424,2,0,B|196:264|196:264|216:312|216:312|304:336,1,186.666666666667,8|8,0:0|0:0,0:0:0:0:
148,164,100852,6,0,P|100:168|60:206,1,93.3333333333333,8|0,0:0|0:0,0:0:0:0:
316,240,101138,1,8,0:0:0:0:
275,76,101281,2,0,P|238:44|183:43,1,93.3333333333333,8|0,0:0|0:0,0:0:0:0:
340,248,101567,1,8,0:0:0:0:
276,76,101709,6,0,L|489:46,1,214.666670761108,8|8,0:0|0:0,0:0:0:0:
199,196,102138,2,0,B|146:186|146:186|131:167|131:167|111:178|111:178|-3:157,1,214.666670761108,8|8,0:0|0:0,0:0:0:0:
251,0,102566,2,0,P|311:4|321:142,1,214.666670761108,8|8,0:0|0:0,0:0:0:0:
112,300,102995,2,0,B|130:245|130:245|195:236|195:236|205:241|205:241|214:235|214:235|294:225,1,214.666670761108,8|8,0:0|0:0,0:0:0:0:
512,290,103424,2,0,P|412:228|416:141,1,214.666670761108,8|8,0:0|0:0,0:0:0:0:
0,290,103852,2,0,P|100:228|96:141,1,214.666670761108,8|8,0:0|0:0,0:0:0:0:
115,37,104281,2,0,B|167:51|167:51|196:95,2,107.333335380554,8|0|8,0:0|0:0|0:0,0:0:0:0:
411,109,104709,2,0,B|359:123|359:123|330:167,2,107.333335380554,8|0|8,0:0|0:0|0:0,0:0:0:0:
438,384,105138,6,0,B|432:333|432:333|415:322|415:322|428:307|428:307|422:253|422:253|433:237|433:237|417:226|417:226|407:167,1,214.666670761108,8|8,0:0|0:0,0:0:0:0:
292,15,105566,2,0,B|341:41|341:41|257:97|257:97|311:127,1,214.666670761108,8|8,0:0|0:0,0:0:0:0:
140,172,105995,2,0,B|78:201|112:276|190:217|219:292|128:336,1,214.666670761108,8|8,0:0|0:0,0:0:0:0:
8,37,106424,2,0,B|79:61|79:61|74:66|74:66|76:57|76:57|132:41|132:41|201:62,1,214.666670761108,8|8,0:0|0:0,0:0:0:0:
370,133,106852,2,0,P|273:186|308:302,1,214.666670761108,8|8,0:0|0:0,0:0:0:0:
498,354,107281,2,0,B|482:270|482:270|346:222,1,214.666670761108,8|8,0:0|0:0,0:0:0:0:
227,159,107709,2,0,B|230:104|277:82|277:82|280:75|280:75|287:79|287:79|329:77|370:132,1,214.666670761108,8|8,0:0|0:0,0:0:0:0:
257,269,108138,2,0,B|117:292|216:372|57:369,1,214.666670761108,8|8,0:0|0:0,0:0:0:0:
180,72,108566,5,8,0:0:0:0:
88,93,108852,2,0,L|167:86,1,79.3333348464966,8|8,0:0|0:0,0:0:0:0:
88,93,109281,2,0,L|167:86,1,79.3333348464966,8|8,0:0|0:0,0:0:0:0:
88,93,109709,2,0,L|167:86,1,79.3333348464966,8|8,0:0|0:0,0:0:0:0:
327,222,110138,1,8,0:0:0:0:
245,30,110281,5,8,0:0:0:0:
137,264,110566,2,0,L|276:280,2,126.000000480652,8|8|8,0:0|0:0|0:0,0:0:0:0:
364,200,110995,1,8,0:0:0:0:
170,140,111138,1,8,0:0:0:0:
419,51,111281,1,8,0:0:0:0:
108,2,111424,1,8,0:0:0:0:
457,145,111566,5,8,0:0:0:0:
177,219,111995,5,8,0:0:0:0:
348,372,112424,1,8,0:0:0:0:
177,219,112852,1,8,0:0:0:0:
356,200,113138,1,8,0:0:0:0:
269,231,113281,2,0,L|173:218,2,93.3333333333333,8|0|8,0:0|0:0|0:0,0:0:0:0:
150,349,113709,5,8,0:0:0:0:
91,148,114138,1,8,0:0:0:0:
9,304,114424,1,0,0:0:0:0:
108,132,114566,1,8,0:0:0:0:
136,157,114709,1,8,0:0:0:0:
151,134,114852,1,8,0:0:0:0:
285,187,114995,1,8,0:0:0:0:
226,159,115138,1,8,0:0:0:0:
264,260,115281,1,8,0:0:0:0:
343,71,115424,5,8,0:0:0:0:
393,306,115852,1,8,0:0:0:0:
472,120,116281,1,8,0:0:0:0:
408,288,116566,1,8,0:0:0:0:
312,184,116709,2,0,B|266:166|266:166|219:183,1,93.3333333333333,8|0,0:0|0:0,0:0:0:0:
340,344,116995,1,8,0:0:0:0:
379,121,117138,5,8,0:0:0:0:
200,263,117566,1,8,0:0:0:0:
264,28,117995,5,8,0:0:0:0:
285,16,118138,1,8,0:0:0:0:
309,11,118281,1,8,0:0:0:0:
183,164,118424,1,8,0:0:0:0:
159,159,118567,1,8,0:0:0:0:
138,147,118710,1,8,0:0:0:0:
188,0,118852,5,8,0:0:0:0:
121,274,119281,1,8,0:0:0:0:
244,96,119709,1,8,0:0:0:0:
313,262,119995,1,8,0:0:0:0:
272,21,120138,2,0,P|210:22|179:51,2,93.3333333333333,8|0|8,0:0|0:0|0:0,0:0:0:0:
392,192,120566,5,8,0:0:0:0:
168,240,120995,1,8,0:0:0:0:
304,312,121281,1,0,0:0:0:0:
285,337,121424,1,8,0:0:0:0:
248,244,121566,1,8,0:0:0:0:
420,244,121709,1,8,0:0:0:0:
396,281,121852,1,8,0:0:0:0:
357,199,121995,1,8,0:0:0:0:
510,381,122138,1,8,0:0:0:0:
173,289,122281,5,8,0:0:0:0:
428,166,122709,1,8,0:0:0:0:
190,199,123138,1,8,0:0:0:0:
460,73,123424,1,8,0:0:0:0:
416,188,123566,2,0,L|324:176,1,93.3333333333333,8|0,0:0|0:0,0:0:0:0:
446,270,123852,1,8,0:0:0:0:
401,14,123995,5,8,0:0:0:0:
308,300,124424,1,8,0:0:0:0:
172,108,124852,5,8,0:0:0:0:
288,80,124995,1,8,0:0:0:0:
220,172,125138,1,8,0:0:0:0:
268,52,125281,1,8,0:0:0:0:
352,144,125424,1,8,0:0:0:0:
148,116,125566,1,8,0:0:0:0:
416,56,125709,5,8,0:0:0:0:
168,3,126138,1,8,0:0:0:0:
435,137,126566,1,8,0:0:0:0:
272,76,126852,1,8,0:0:0:0:
435,137,126995,2,0,L|449:240,2,93.3333333333333,8|0|8,0:0|0:0|0:0,0:0:0:0:
251,308,127424,5,8,0:0:0:0:
435,137,127852,1,8,0:0:0:0:
144,200,128138,1,0,0:0:0:0:
336,264,128281,1,8,0:0:0:0:
361,302,128424,1,8,0:0:0:0:
360,349,128566,1,8,0:0:0:0:
176,224,128709,1,8,0:0:0:0:
272,152,128852,1,8,0:0:0:0:
224,320,128995,1,8,0:0:0:0:
84,120,129138,5,8,0:0:0:0:
350,186,129566,1,8,0:0:0:0:
84,120,129995,1,8,0:0:0:0:
296,80,130281,1,8,0:0:0:0:
156,270,130424,2,0,L|144:178,1,93.3333333333333,8|0,0:0|0:0,0:0:0:0:
84,336,130709,1,8,0:0:0:0:
7,88,130852,5,8,0:0:0:0:
156,270,131281,1,8,0:0:0:0:
249,74,131709,1,8,0:0:0:0:
143,177,131852,1,8,0:0:0:0:
107,34,131995,1,8,0:0:0:0:
225,156,132138,1,8,0:0:0:0:
83,116,132281,1,8,0:0:0:0:
189,14,132424,1,8,0:0:0:0:
300,204,132566,6,0,P|357:209|398:164,1,121.333327779134,8|0,0:0|0:0,0:0:0:0:
253,85,132995,2,0,P|196:80|155:125,1,121.333327779134,8|0,0:0|0:0,0:0:0:0:
116,267,133424,2,0,P|108:231|92:208,2,60.6666638895672,8|0|8,0:0|0:0|0:0,0:0:0:0:
190,347,133852,2,0,P|210:283|282:337,1,181.999991668702,8|8,0:0|0:0,0:0:0:0:
109,367,134709,5,8,0:0:0:0:
87,360,135138,1,8,0:0:0:0:
72,342,135566,1,8,0:0:0:0:
208,160,135995,6,0,L|344:172,1,121.333327779134,8|0,0:0|0:0,0:0:0:0:
388,76,136424,2,0,B|343:74|343:74|318:90|318:90|266:85,1,121.333327779134,8|0,0:0|0:0,0:0:0:0:
72,0,136852,2,0,P|120:28|143:101,1,121.333327779134,8|0,0:0|0:0,0:0:0:0:
113,162,137281,1,8,0:0:0:0:
263,102,137566,1,0,0:0:0:0:
105,272,137709,6,0,L|89:144,1,121.333327779134,8|0,0:0|0:0,0:0:0:0:
120,16,138138,1,8,0:0:0:0:
144,31,138566,1,8,0:0:0:0:
154,54,138995,1,8,0:0:0:0:
72,108,139281,1,8,0:0:0:0:
319,22,139424,6,0,P|370:23|435:64,1,121.333327779134,8|0,0:0|0:0,0:0:0:0:
193,22,139852,2,0,P|142:23|77:64,1,121.333327779134,8|0,0:0|0:0,0:0:0:0:
356,239,140281,2,0,P|355:290|314:355,1,121.333327779134,8|0,0:0|0:0,0:0:0:0:
156,239,140709,2,0,P|157:290|198:355,1,121.333327779134,8|0,0:0|0:0,0:0:0:0:
378,150,141138,5,8,0:0:0:0:
258,30,141566,1,8,0:0:0:0:
137,150,141995,1,8,0:0:0:0:
258,271,142424,1,8,0:0:0:0:
120,164,142709,1,0,0:0:0:0:
258,271,142852,6,0,B|316:292|316:292|374:270,1,121.333327779134,8|0,0:0|0:0,0:0:0:0:
120,164,143281,2,0,B|62:143|62:143|4:165,1,121.333327779134,8|0,0:0|0:0,0:0:0:0:
144,320,143709,2,0,L|212:335,1,60.6666638895672,8|0,0:0|0:0,0:0:0:0:
85,248,143995,1,0,0:0:0:0:
186,205,144138,2,0,P|198:149|152:94,1,121.333327779134,8|0,0:0|0:0,0:0:0:0:
74,25,144566,6,0,L|250:9,1,158.666669692993,8|0,0:0|0:0,0:0:0:0:
74,359,144995,2,0,L|250:375,1,158.666669692993,8|0,0:0|0:0,0:0:0:0:
304,148,145424,1,8,0:0:0:0:
269,265,145566,1,8,0:0:0:0:
392,192,145709,1,8,0:0:0:0:
228,120,145852,1,8,0:0:0:0:
360,273,145995,1,8,0:0:0:0:
356,40,146138,1,8,0:0:0:0:
85,120,146281,2,0,L|245:136,1,158.666669692993,8|0,0:0|0:0,0:0:0:0:
415,117,146709,6,0,P|396:154|392:209,1,93.3333333333333,8|0,0:0|0:0,0:0:0:0:
456,328,146995,1,0,0:0:0:0:
413,94,147138,2,0,P|373:106|333:147,1,93.3333333333333,8|0,0:0|0:0,0:0:0:0:
228,344,147424,1,0,0:0:0:0:
420,77,147566,2,0,P|382:57|325:54,1,93.3333333333333,8|0,0:0|0:0,0:0:0:0:
83,128,147852,1,0,0:0:0:0:
320,373,147995,6,0,B|308:298|308:298|278:272|278:272|266:192,1,186.666666666667,8|0,0:0|0:0,0:0:0:0:
129,43,148424,2,0,L|100:233,1,186.666666666667,8|0,0:0|0:0,0:0:0:0:
372,192,148852,5,8,0:0:0:0:
340,172,148995,1,8,0:0:0:0:
368,268,149138,1,8,0:0:0:0:
444,144,149281,1,8,0:0:0:0:
248,184,149424,1,8,0:0:0:0:
504,252,149566,1,8,0:0:0:0:
343,56,149709,6,0,P|273:20|164:63,1,186.666666666667,8|0,0:0|0:0,0:0:0:0:
142,216,150138,6,0,P|161:176|157:125,1,93.3333333333333,8|0,0:0|0:0,0:0:0:0:
79,157,150424,1,0,0:0:0:0:
278,308,150566,2,0,P|234:288|180:297,1,93.3333333333333,8|0,0:0|0:0,0:0:0:0:
221,369,150852,1,0,0:0:0:0:
380,162,150995,2,0,P|355:204|354:251,1,93.3333333333333,8|0,0:0|0:0,0:0:0:0:
433,227,151281,1,0,0:0:0:0:
356,0,151424,6,0,B|242:19|328:87|193:99,1,186.666666666667,8|0,0:0|0:0,0:0:0:0:
0,144,151852,2,0,L|188:182,1,186.666666666667,8|0,0:0|0:0,0:0:0:0:
324,232,152281,1,8,0:0:0:0:
269,294,152424,1,8,0:0:0:0:
286,328,152566,1,8,0:0:0:0:
192,216,152709,1,8,0:0:0:0:
340,256,152852,1,8,0:0:0:0:
230,90,152995,1,8,0:0:0:0:
387,327,153138,6,0,P|417:284|341:172,1,186.666666666667,8|0,0:0|0:0,0:0:0:0:
230,90,153566,2,0,L|336:72,1,93.3333333333333,8|0,0:0|0:0,0:0:0:0:
467,141,153852,1,0,0:0:0:0:
230,294,153995,2,0,L|329:311,1,93.3333333333333,8|0,0:0|0:0,0:0:0:0:
467,243,154281,1,0,0:0:0:0:
344,0,154424,2,0,L|331:95,1,93.3333333333333,8|0,0:0|0:0,0:0:0:0:
408,320,154709,1,0,0:0:0:0:
496,112,154852,5,8,0:0:0:0:
348,192,154995,1,0,0:0:0:0:
488,280,155138,1,0,0:0:0:0:
373,112,155281,2,0,P|309:117|277:148,2,93.3333333333333,8|0|0,0:0|0:0|0:0,0:0:0:0:
480,296,155709,5,8,0:0:0:0:
423,340,155852,1,8,0:0:0:0:
317,353,155995,1,8,0:0:0:0:
200,208,156138,1,8,0:0:0:0:
329,194,156281,1,8,0:0:0:0:
410,328,156424,1,8,0:0:0:0:
176,208,156566,5,8,0:0:0:0:
229,129,156709,1,8,0:0:0:0:
283,267,156852,1,8,0:0:0:0:
152,196,156995,1,8,0:0:0:0:
312,117,157138,1,8,0:0:0:0:
223,320,157281,1,8,0:0:0:0:
32,167,157424,5,8,0:0:0:0:
189,244,157567,1,8,0:0:0:0:
124,96,157710,1,8,0:0:0:0:
104,248,157853,1,8,0:0:0:0:
248,184,157996,1,8,0:0:0:0:
104,112,158138,1,8,0:0:0:0:
200,346,158281,2,0,L|186:251,2,93.3333333333333,8|8|8,0:0|0:0|0:0,0:0:0:0:
312,346,158709,2,0,L|324:250,2,93.3333333333333,8|8|8,0:0|0:0|0:0,0:0:0:0:
256,64,159138,6,0,L|253:47,1,17.5,8|0,0:0|0:0,0:0:0:0:
323,253,159566,6,0,P|263:199|368:208,1,242.666655558269,8|0,0:0|0:0,0:0:0:0:
311,343,159995,6,0,L|195:319,1,111.999996582031,12|0,0:0|0:0,0:0:0:0:
52,114,160281,1,0,0:0:0:0:
123,343,160424,1,8,0:0:0:0:
244,148,160566,1,0,0:0:0:0:
20,216,160709,1,0,0:0:0:0:
201,320,160852,2,0,L|311:343,1,111.999996582031,8|0,0:0|0:0,0:0:0:0:
48,127,161138,1,8,0:0:0:0:
229,22,161281,2,0,L|338:0,1,111.999996582031,8|0,0:0|0:0,0:0:0:0:
140,264,161566,1,8,0:0:0:0:
15,42,161709,6,0,P|75:42|122:180,1,223.999993164063,8|0,0:0|0:0,0:0:0:0:
25,307,162138,2,0,B|107:332|107:332|161:313|161:313|254:338,1,223.999993164063,8|0,0:0|0:0,0:0:0:0:
344,104,162566,1,8,0:0:0:0:
200,220,162709,1,8,0:0:0:0:
412,320,162852,1,8,0:0:0:0:
252,56,162995,1,8,0:0:0:0:
344,372,163138,1,8,0:0:0:0:
428,26,163281,1,8,0:0:0:0:
200,220,163424,6,0,L|216:332,1,111.999996582031,12|0,0:0|0:0,0:0:0:0:
348,64,163709,1,0,0:0:0:0:
312,220,163852,2,0,L|296:332,1,111.999996582031,8|0,0:0|0:0,0:0:0:0:
164,64,164137,1,0,0:0:0:0:
337,384,164281,2,0,B|349:299|349:299|386:254|386:254|393:169,1,223.999993164063,8|0,0:0|0:0,0:0:0:0:
255,35,164709,2,0,P|283:79|342:99,1,111.999996582031,8|0,0:0|0:0,0:0:0:0:
496,56,164995,1,0,0:0:0:0:
255,35,165138,6,0,L|135:51,1,111.999996582031,8|0,0:0|0:0,0:0:0:0:
280,252,165424,1,0,0:0:0:0:
333,0,165566,2,0,B|393:28|393:28|419:185,1,223.999993164063,8|0,0:0|0:0,0:0:0:0:
176,140,165995,1,8,0:0:0:0:
301,340,166138,1,8,0:0:0:0:
164,120,166281,6,0,L|52:104,1,111.999996582031,8|8,0:0|0:0,0:0:0:0:
232,284,166566,1,8,0:0:0:0:
274,135,166709,2,0,L|162:119,1,111.999996582031,8|12,0:0|0:0,0:0:0:0:
342,299,166994,1,0,0:0:0:0:
384,150,167138,2,0,L|272:134,1,111.999996582031,8|8,0:0|0:0,0:0:0:0:
452,314,167423,1,0,0:0:0:0:
504,72,167566,1,8,0:0:0:0:
298,149,167709,2,0,P|362:233|469:170,1,223.999993164063,8|8,0:0|0:0,0:0:0:0:
180,11,168138,2,0,P|124:97|122:222,1,223.999993164063,8|8,0:0|0:0,0:0:0:0:
412,254,168566,6,0,P|408:194|381:146,1,111.999996582031,8|0,0:0|0:0,0:0:0:0:
336,365,168852,1,0,0:0:0:0:
128,149,168995,2,0,P|102:198|100:254,1,111.999996582031,8|0,0:0|0:0,0:0:0:0:
176,365,169281,1,0,0:0:0:0:
316,104,169424,5,8,0:0:0:0:
56,192,169566,1,8,0:0:0:0:
260,328,169709,1,8,0:0:0:0:
256,40,169852,1,8,0:0:0:0:
346,354,169995,1,8,0:0:0:0:
134,168,170138,1,8,0:0:0:0:
410,35,170281,6,0,L|425:157,1,111.999996582031,12|0,0:0|0:0,0:0:0:0:
371,216,170566,1,0,0:0:0:0:
227,180,170709,2,0,L|212:302,1,111.999996582031,8|0,0:0|0:0,0:0:0:0:
266,361,170994,1,0,0:0:0:0:
301,140,171138,2,0,P|253:100|189:105,1,111.999996582031,8|0,0:0|0:0,0:0:0:0:
83,236,171424,1,0,0:0:0:0:
9,84,171566,2,0,P|57:44|121:49,1,111.999996582031,8|0,0:0|0:0,0:0:0:0:
227,180,171852,1,0,0:0:0:0:
476,61,171995,6,0,B|399:59|399:59|374:82|374:82|348:57|348:57|255:52,1,223.999993164063,8|0,0:0|0:0,0:0:0:0:
176,268,172424,2,0,L|416:279,1,223.999993164063,8|0,0:0|0:0,0:0:0:0:
247,132,172852,1,8,0:0:0:0:
172,181,172995,1,8,0:0:0:0:
247,217,173138,1,8,0:0:0:0:
88,32,173281,5,8,0:0:0:0:
206,343,173424,1,8,0:0:0:0:
445,98,173566,1,8,0:0:0:0:
111,118,173709,6,0,L|-18:131,1,111.999996582031,12|0,0:0|0:0,0:0:0:0:
206,343,173995,1,0,0:0:0:0:
317,23,174138,2,0,L|435:12,1,111.999996582031,8|0,0:0|0:0,0:0:0:0:
144,198,174424,1,0,0:0:0:0:
344,304,174566,1,8,0:0:0:0:
234,70,174709,1,0,0:0:0:0:
206,343,174852,1,8,0:0:0:0:
427,183,174995,2,0,P|373:153|317:157,2,111.999996582031,8|0|8,0:0|0:0|0:0,0:0:0:0:
507,115,175424,6,0,P|391:51|285:59,1,223.999993164063,8|0,0:0|0:0,0:0:0:0:
95,185,175852,2,0,B|29:245|126:333|215:211,1,223.999993164063,8|0,0:0|0:0,0:0:0:0:
156,32,176281,1,8,0:0:0:0:
80,200,176424,1,8,0:0:0:0:
300,144,176566,1,8,0:0:0:0:
76,68,176709,1,8,0:0:0:0:
180,366,176852,1,8,0:0:0:0:
300,144,176995,1,8,0:0:0:0:
14,286,177138,6,0,P|78:310|132:297,1,111.999996582031,12|0,0:0|0:0,0:0:0:0:
188,88,177424,1,0,0:0:0:0:
480,340,177566,2,0,P|416:364|362:351,1,111.999996582031,8|0,0:0|0:0,0:0:0:0:
307,36,177852,1,0,0:0:0:0:
416,278,177995,1,8,0:0:0:0:
492,8,178138,1,0,0:0:0:0:
416,278,178281,1,0,0:0:0:0:
196,17,178424,2,0,L|316:37,2,111.999996582031,8|0|0,0:0|0:0|0:0,0:0:0:0:
23,105,178852,6,0,B|121:122|82:185|80:244|185:258,1,223.999993164063,8|0,0:0|0:0,0:0:0:0:
347,254,179281,2,0,B|432:244|430:185|391:122|489:105,1,223.999993164063,8|0,0:0|0:0,0:0:0:0:
248,0,179709,1,8,0:0:0:0:
337,173,179852,1,8,0:0:0:0:
152,88,179995,6,0,L|24:76,1,111.999996582031,8|8,0:0|0:0,0:0:0:0:
16,264,180281,1,8,0:0:0:0:
258,183,180424,2,0,L|130:171,1,111.999996582031,8|12,0:0|0:0,0:0:0:0:
122,359,180710,1,0,0:0:0:0:
397,116,180852,2,0,L|269:104,1,111.999996582031,8|8,0:0|0:0,0:0:0:0:
261,292,181138,1,0,0:0:0:0:
496,240,181281,1,8,0:0:0:0:
348,0,181424,6,0,P|274:71|290:191,1,223.999993164063,8|8,0:0|0:0,0:0:0:0:
366,335,181852,2,0,L|134:311,1,223.999993164063,8|8,0:0|0:0,0:0:0:0:
68,112,182281,2,0,L|200:100,1,111.999996582031,8|0,0:0|0:0,0:0:0:0:
248,356,182566,1,0,0:0:0:0:
444,24,182709,2,0,L|312:12,1,111.999996582031,8|0,0:0|0:0,0:0:0:0:
262,337,182994,1,0,0:0:0:0:
144,96,183138,5,8,0:0:0:0:
388,200,183281,1,8,0:0:0:0:
184,288,183424,1,8,0:0:0:0:
364,120,183566,1,8,0:0:0:0:
262,337,183709,1,8,0:0:0:0:
196,12,183852,1,8,0:0:0:0:
447,313,183995,6,0,L|255:337,1,186.666666666667,12|8,0:0|0:0,0:0:0:0:
364,120,184424,2,0,P|460:144|492:228,1,186.666666666667,8|8,0:0|0:0,0:0:0:0:
146,359,184852,2,0,B|151:287|151:287|184:248|184:248|187:166,1,186.666666666667,8|8,0:0|0:0,0:0:0:0:
41,23,185281,2,0,B|69:67|69:67|217:59,1,186.666666666667,8|8,0:0|0:0,0:0:0:0:
473,77,185709,2,0,B|365:81|443:160|292:141,1,186.666666666667,8|8,0:0|0:0,0:0:0:0:
39,175,186138,2,0,B|147:179|69:258|220:239,1,186.666666666667,8|8,0:0|0:0,0:0:0:0:
317,159,186566,5,8,0:0:0:0:
389,226,186709,1,0,0:0:0:0:
358,325,186852,1,8,0:0:0:0:
283,249,186995,1,8,0:0:0:0:
455,302,187138,1,0,0:0:0:0:
253,344,187281,1,8,0:0:0:0:
249,111,187424,6,0,P|330:77|395:140,1,186.666666666667,8|8,0:0|0:0,0:0:0:0:
253,344,187852,2,0,B|176:332|176:332|144:352|144:352|67:338,1,186.666666666667,8|8,0:0|0:0,0:0:0:0:
194,39,188281,2,0,B|216:174|216:174|177:223,1,186.666666666667,8|8,0:0|0:0,0:0:0:0:
4,184,188709,2,0,L|40:-8,1,186.666666666667,8|8,0:0|0:0,0:0:0:0:
271,275,189138,6,0,B|186:313|186:313|94:276,1,186.666666666667,8|8,0:0|0:0,0:0:0:0:
194,39,189566,2,0,B|279:1|279:1|371:38,1,186.666666666667,8|8,0:0|0:0,0:0:0:0:
260,364,189995,2,0,P|183:292|219:200,1,186.666666666667,8|8,0:0|0:0,0:0:0:0:
282,186,190424,2,0,P|359:258|323:350,1,186.666666666667,8|8,0:0|0:0,0:0:0:0:
85,183,190852,6,0,B|67:109|67:109|63:105|63:105|55:59|55:59|51:55|51:55|39:0,1,186.666666666667,8|8,0:0|0:0,0:0:0:0:
129,220,191281,2,0,B|111:146|111:146|107:142|107:142|99:96|99:96|95:92|95:92|83:37,1,186.666666666667,8|8,0:0|0:0,0:0:0:0:
317,253,191709,2,0,B|335:179|335:179|339:175|339:175|347:129|347:129|351:125|351:125|363:70,1,186.666666666667,8|8,0:0|0:0,0:0:0:0:
273,290,192138,2,0,B|291:216|291:216|295:212|295:212|303:166|303:166|307:162|307:162|319:107,1,186.666666666667,8|8,0:0|0:0,0:0:0:0:
512,356,192566,6,0,L|324:384,1,186.666666666667,8|8,0:0|0:0,0:0:0:0:
0,356,192995,2,0,L|188:384,1,186.666666666667,8|8,0:0|0:0,0:0:0:0:
445,233,193424,2,0,P|357:225|323:139,1,186.666666666667,8|8,0:0|0:0,0:0:0:0:
67,233,193852,2,0,P|155:225|189:139,1,186.666666666667,8|8,0:0|0:0,0:0:0:0:
116,32,194281,5,8,0:0:0:0:
288,108,194566,1,8,0:0:0:0:
288,108,194709,1,8,0:0:0:0:
144,200,194995,1,8,0:0:0:0:
144,200,195138,1,8,0:0:0:0:
252,16,195424,1,8,0:0:0:0:
252,16,195566,1,8,0:0:0:0:
284,268,195852,1,8,0:0:0:0:
272,247,195995,5,8,0:0:0:0:
257,222,196138,1,8,0:0:0:0:
221,194,196281,1,8,0:0:0:0:
174,172,196424,1,8,0:0:0:0:
121,156,196566,1,8,0:0:0:0:
35,166,196709,5,8,0:0:0:0:
109,253,196852,1,8,0:0:0:0:
230,290,196995,1,8,0:0:0:0:
366,204,197138,1,8,0:0:0:0:
365,0,197281,6,0,B|324:79|324:79|225:81|225:81|288:156|288:156|248:252|248:252|347:218|347:218|418:280|418:280|423:178|423:178|499:120|499:120|408:90|408:90|368:12,1,957.599988310547,8|2,0:0|0:0,0:0:0:0:
162,73,201566,6,0,L|238:81,1,55.9999982910157,2|0,0:0|0:0,0:0:0:0:
148,208,202852,5,2,0:0:0:0:
183,85,203281,1,2,0:0:0:0:
52,176,203566,1,2,0:0:0:0:
166,219,203709,2,0,L|174:267,2,27.9999991455078,2|2|2,0:0|0:0|0:0,0:0:0:0:
258,275,204138,2,0,L|250:323,2,27.9999991455078,2|2|2,0:0|0:0|0:0,0:0:0:0:
330,353,204566,1,2,0:0:0:0:
242,194,204995,1,2,0:0:0:0:
416,172,205281,5,2,0:0:0:0:
166,219,206281,5,2,0:0:0:0:
264,355,206709,5,2,0:0:0:0:
396,272,206995,5,2,0:0:0:0:
316,189,207138,2,0,L|312:145,2,27.9999991455078,2|2|2,0:0|0:0|0:0,0:0:0:0:
424,135,207566,2,0,L|426:107,2,27.9999991455078,2|2|2,0:0|0:0|0:0,0:0:0:0:
365,50,207995,1,2,0:0:0:0:
120,144,208424,6,0,L|196:136,1,55.9999982910157,2|2,0:0|0:0,0:0:0:0:
175,138,209709,1,2,0:0:0:0:
116,252,210138,1,2,0:0:0:0:
192,144,210424,1,2,0:0:0:0:
264,288,210566,2,0,L|212:296,2,27.9999991455078,2|2|2,0:0|0:0|0:0,0:0:0:0:
166,360,210995,2,0,L|138:355,2,27.9999991455078,2|2|2,0:0|0:0|0:0,0:0:0:0:
36,384,211424,5,2,0:0:0:0:
416,356,211852,1,2,0:0:0:0:
300,319,212138,1,2,0:0:0:0:
512,136,213138,5,2,0:0:0:0:
242,182,213566,1,2,0:0:0:0:
512,136,213852,1,2,0:0:0:0:
324,245,213995,2,0,P|317:225|316:213,2,27.9999991455078,2|2|2,0:0|0:0|0:0,0:0:0:0:
398,137,214424,2,0,P|395:150|390:163,2,27.9999991455078,2|2|2,0:0|0:0|0:0,0:0:0:0:
330,75,214852,1,2,0:0:0:0:
304,312,215281,5,2,0:0:0:0:
256,159,215566,1,2,0:0:0:0:
196,75,216566,5,2,0:0:0:0:
348,172,216995,1,2,0:0:0:0:
120,208,217281,1,2,0:0:0:0:
248,204,217424,2,0,L|240:248,2,27.9999991455078,2|2|2,0:0|0:0|0:0,0:0:0:0:
112,228,217852,2,0,L|120:272,2,27.9999991455078,2|2|2,0:0|0:0|0:0,0:0:0:0:
170,149,218281,1,2,0:0:0:0:
399,221,218709,6,0,L|326:211,1,55.9999982910157,2|2,0:0|0:0,0:0:0:0:
191,384,219995,5,2,0:0:0:0:
124,156,220424,5,2,0:0:0:0:
244,228,220709,1,2,0:0:0:0:
88,84,220852,2,0,P|120:76|134:79,2,27.9999991455078,2|2|2,0:0|0:0|0:0,0:0:0:0:
284,50,221281,2,0,P|252:42|238:45,2,27.9999991455078,2|2|2,0:0|0:0|0:0,0:0:0:0:
223,205,221709,1,2,0:0:0:0:
400,144,222138,5,2,0:0:0:0:
339,251,222424,1,2,0:0:0:0:
352,264,222566,1,0,0:0:0:0:
384,48,223424,1,2,0:0:0:0:
168,160,223852,5,2,0:0:0:0:
352,220,224138,1,2,0:0:0:0:
104,212,224281,2,0,L|108:250,2,27.9999991455078,2|2|2,0:0|0:0|0:0,0:0:0:0:
288,272,224709,2,0,L|284:310,2,27.9999991455078,2|2|2,0:0|0:0|0:0,0:0:0:0:
178,336,225138,1,2,0:0:0:0:
232,116,225566,6,0,P|248:108|264:107,1,27.9999991455078,2|0,0:0|0:0,0:0:0:0:
330,139,225852,1,2,0:0:0:0:
147,156,225995,2,0,P|139:140|138:124,1,27.9999991455078,2|0,0:0|0:0,0:0:0:0:
170,58,226281,1,2,0:0:0:0:
181,238,226424,2,0,P|165:246|149:247,1,27.9999991455078,2|0,0:0|0:0,0:0:0:0:
83,215,226710,1,2,0:0:0:0:
124,364,226852,2,0,P|148:344|181:335,1,55.9999982910157,2|2,0:0|0:0,0:0:0:0:
328,312,227281,6,0,L|320:276,1,27.9999991455078,2|0,0:0|0:0,0:0:0:0:
403,349,227566,1,2,0:0:0:0:
478,312,227709,2,0,L|486:276,1,27.9999991455078,2|0,0:0|0:0,0:0:0:0:
403,349,227994,1,2,0:0:0:0:
332,229,228138,2,0,L|320:293,1,55.9999982910157,2|0,0:0|0:0,0:0:0:0:
145,214,228566,5,8,0:0:0:0:
63,182,228995,1,8,0:0:0:0:
50,97,229424,1,8,0:0:0:0:
117,42,229852,1,8,0:0:0:0:
198,73,230281,1,8,0:0:0:0:
212,159,230709,1,8,0:0:0:0:
145,214,231138,5,8,0:0:0:0:
63,182,231281,1,8,0:0:0:0:
50,97,231424,1,8,0:0:0:0:
117,42,231566,1,8,0:0:0:0:
198,73,231709,1,8,0:0:0:0:
212,159,231852,1,8,0:0:0:0:
145,214,231995,5,8,0:0:0:0:
78,270,232424,1,8,0:0:0:0:
94,354,232853,1,8,0:0:0:0:
177,384,233281,1,8,0:0:0:0:
243,327,233710,1,8,0:0:0:0:
226,241,234138,1,8,0:0:0:0:
145,214,234566,5,8,0:0:0:0:
78,270,234709,1,8,0:0:0:0:
94,354,234852,1,8,0:0:0:0:
177,384,234995,1,8,0:0:0:0:
243,327,235138,1,8,0:0:0:0:
226,241,235281,1,8,0:0:0:0:
400,152,235424,1,8,0:0:0:0:
160,60,235852,6,0,L|88:48,1,70.0000026702882,8|0,0:0|0:0,0:0:0:0:
208,240,236138,1,0,0:0:0:0:
302,0,236281,2,0,L|286:148,1,140.000005340576,8|0,0:0|0:0,0:0:0:0:
244,358,236709,6,0,P|218:331|182:320,1,70.0000026702882,8|0,0:0|0:0,0:0:0:0:
64,368,236995,1,0,0:0:0:0:
106,131,237138,2,0,L|122:275,1,140.000005340576,8|0,0:0|0:0,0:0:0:0:
332,200,237566,6,0,B|348:170|348:170|385:158,1,70.0000026702882,8|0,0:0|0:0,0:0:0:0:
429,271,237852,1,0,0:0:0:0:
367,19,237995,2,0,L|383:167,1,140.000005340576,8|0,0:0|0:0,0:0:0:0:
121,270,238424,6,0,B|146:188|146:188|192:286|192:286|219:198,1,280.000010681153,8|0,0:0|0:0,0:0:0:0:
264,348,238852,1,8,0:0:0:0:
280,159,239281,6,0,P|245:130|218:126,1,70.0000026702882,8|0,0:0|0:0,0:0:0:0:
320,260,239566,1,0,0:0:0:0:
439,0,239709,2,0,L|422:138,1,140.000005340576,8|0,0:0|0:0,0:0:0:0:
280,159,240138,6,0,P|245:130|218:126,1,70.0000026702882,8|0,0:0|0:0,0:0:0:0:
320,260,240423,1,0,0:0:0:0:
439,0,240566,2,0,L|422:138,1,140.000005340576,8|0,0:0|0:0,0:0:0:0:
280,159,240995,6,0,P|245:130|218:126,1,70.0000026702882,8|0,0:0|0:0,0:0:0:0:
320,260,241280,1,0,0:0:0:0:
439,0,241423,2,0,L|422:138,1,140.000005340576,8|0,0:0|0:0,0:0:0:0:
366,346,241852,6,0,P|398:310|487:309,1,140.000005340576,8|0,0:0|0:0,0:0:0:0:
366,346,242281,6,0,P|391:315|440:297,1,93.3333333333333,8|0,0:0|0:0,0:0:0:0:
366,346,242709,6,0,P|385:320|402:307,1,46.6666666666667,8|0,0:0|0:0,0:0:0:0:
272,208,243138,6,0,L|200:192,2,70.0000026702882,8|0|0,0:0|0:0|0:0,0:0:0:0:
403,160,243566,2,0,L|269:208,1,140.000005340576,8|0,0:0|0:0,0:0:0:0:
147,40,243995,6,0,P|161:71|163:108,2,70.0000026702882,8|0|0,0:0|0:0|0:0,0:0:0:0:
66,96,244424,1,8,0:0:0:0:
51,114,244566,1,0,0:0:0:0:
45,137,244709,1,0,0:0:0:0:
208,308,244852,1,8,0:0:0:0:
229,257,244995,1,8,0:0:0:0:
212,208,245138,1,8,0:0:0:0:
20,288,245281,1,8,0:0:0:0:
107,363,245424,1,8,0:0:0:0:
208,308,245566,1,8,0:0:0:0:
144,83,245709,6,0,P|80:135|71:204,1,140.000005340576,8|0,0:0|0:0,0:0:0:0:
290,333,246138,2,0,P|354:281|363:212,1,140.000005340576,8|0,0:0|0:0,0:0:0:0:
92,276,246566,2,0,P|144:340|213:349,1,140.000005340576,8|0,0:0|0:0,0:0:0:0:
342,130,246995,2,0,P|290:66|221:57,1,140.000005340576,8|0,0:0|0:0,0:0:0:0:
290,333,247424,2,0,L|430:321,1,140.000005340576,8|0,0:0|0:0,0:0:0:0:
481,141,247852,2,0,L|341:129,1,140.000005340576,8|0,0:0|0:0,0:0:0:0:
64,256,248281,5,8,0:0:0:0:
161,237,248424,1,8,0:0:0:0:
216,182,248566,1,8,0:0:0:0:
236,134,248709,1,8,0:0:0:0:
232,95,248852,1,8,0:0:0:0:
222,73,248995,1,8,0:0:0:0:
211,66,249138,6,0,L|292:56,2,70.0000026702882,8|0|0,0:0|0:0|0:0,0:0:0:0:
8,82,249566,2,0,P|47:88|80:125,1,70.0000026702882,8|0,0:0|0:0,0:0:0:0:
88,218,249852,1,0,0:0:0:0:
187,52,249995,2,0,L|199:204,1,140.000005340576,8|0,0:0|0:0,0:0:0:0:
504,82,250424,6,0,P|465:88|432:125,1,70.0000026702882,8|0,0:0|0:0,0:0:0:0:
424,218,250710,1,0,0:0:0:0:
325,52,250853,2,0,L|313:204,1,140.000005340576,8|0,0:0|0:0,0:0:0:0:
8,82,251281,6,0,P|47:88|80:125,1,70.0000026702882,8|0,0:0|0:0,0:0:0:0:
88,218,251567,1,0,0:0:0:0:
187,52,251710,2,0,L|199:204,1,140.000005340576,8|0,0:0|0:0,0:0:0:0:
441,274,252138,6,0,B|267:279|364:378|181:370,1,280.000010681153,8|0,0:0|0:0,0:0:0:0:
173,347,252566,1,8,0:0:0:0:
138,161,252995,6,0,P|174:169|203:202,1,70.0000026702882,8|0,0:0|0:0,0:0:0:0:
135,240,253281,1,0,0:0:0:0:
37,0,253424,2,0,L|57:152,1,140.000005340576,8|0,0:0|0:0,0:0:0:0:
374,223,253852,6,0,P|338:215|309:182,1,70.0000026702882,8|0,0:0|0:0,0:0:0:0:
377,144,254138,1,0,0:0:0:0:
475,384,254281,2,0,L|455:232,1,140.000005340576,8|0,0:0|0:0,0:0:0:0:
138,161,254709,6,0,P|174:169|203:202,1,70.0000026702882,8|0,0:0|0:0,0:0:0:0:
135,240,254995,1,0,0:0:0:0:
37,0,255138,2,0,L|57:152,1,140.000005340576,8|0,0:0|0:0,0:0:0:0:
296,340,255566,6,0,B|316:240|316:240|288:184|288:184|320:44,1,280.000010681153,8|0,0:0|0:0,0:0:0:0:
344,57,255995,1,8,0:0:0:0:
107,157,256424,6,0,B|64:200|74:247|74:247|180:276|275:205,1,298.666666666667,8|0,0:0|0:0,0:0:0:0:
429,77,256852,6,0,P|378:42|315:40,1,121.333327779134,12|0,0:0|0:0,0:0:0:0:
302,308,257138,1,0,0:0:0:0:
27,112,257281,2,0,P|78:77|141:75,1,121.333327779134,8|0,0:0|0:0,0:0:0:0:
216,376,257567,1,0,0:0:0:0:
352,124,257709,1,8,0:0:0:0:
384,344,257852,1,0,0:0:0:0:
152,296,257995,1,8,0:0:0:0:
464,260,258138,2,0,L|447:137,1,121.333327779134,8|0,0:0|0:0,0:0:0:0:
372,362,258424,1,8,0:0:0:0:
271,69,258566,6,0,B|326:41|326:41|391:61,1,121.333327779134,8|0,0:0|0:0,0:0:0:0:
240,256,258852,1,0,0:0:0:0:
382,58,258995,2,0,B|410:113|410:113|390:178,1,121.333327779134,8|0,0:0|0:0,0:0:0:0:
195,27,259281,1,0,0:0:0:0:
316,296,259424,5,8,0:0:0:0:
404,64,259566,1,8,0:0:0:0:
472,332,259709,1,8,0:0:0:0:
308,12,259852,1,8,0:0:0:0:
240,348,259995,1,8,0:0:0:0:
99,66,260138,1,8,0:0:0:0:
327,375,260281,6,0,P|315:299|277:266,1,121.333327779134,12|0,0:0|0:0,0:0:0:0:
87,218,260566,1,0,0:0:0:0:
512,131,260709,2,0,P|449:85|399:89,1,121.333327779134,8|0,0:0|0:0,0:0:0:0:
134,144,260994,1,0,0:0:0:0:
313,350,261138,1,8,0:0:0:0:
434,165,261281,1,0,0:0:0:0:
119,295,261424,1,0,0:0:0:0:
475,384,261566,2,0,L|455:260,2,121.333327779134,8|0|0,0:0|0:0|0:0,0:0:0:0:
298,6,261995,6,0,B|254:31|250:74|250:74|246:78|246:78|250:82|250:82|255:129|294:175|368:153,1,242.666655558269,8|0,0:0|0:0,0:0:0:0:
284,275,262424,2,0,B|222:261|179:298|179:298|173:305|173:305|172:293|172:293|132:339|54:320,1,242.666655558269,8|0,0:0|0:0,0:0:0:0:
334,78,262852,1,8,0:0:0:0:
243,358,262995,1,8,0:0:0:0:
76,60,263138,6,0,B|140:68|140:68|180:113,1,121.333327779134,8|8,0:0|0:0,0:0:0:0:
172,320,263424,1,8,0:0:0:0:
264,0,263566,2,0,B|318:34|318:34|335:91,1,121.333327779134,8|12,0:0|0:0,0:0:0:0:
241,276,263852,1,0,0:0:0:0:
457,61,263995,2,0,B|492:115|492:115|483:174,1,121.333327779134,8|8,0:0|0:0,0:0:0:0:
319,301,264281,1,0,0:0:0:0:
399,0,264424,1,8,0:0:0:0:
478,333,264566,6,0,B|338:318|338:318|319:300|319:300|296:315|296:315|244:309,1,242.666655558269,8|8,0:0|0:0,0:0:0:0:
4,53,264995,2,0,B|134:77|28:171|177:206,1,242.666655558269,8|8,0:0|0:0,0:0:0:0:
388,137,265424,2,0,P|336:165|318:226,1,121.333327779134,8|0,0:0|0:0,0:0:0:0:
469,174,265709,1,0,0:0:0:0:
331,70,265852,2,0,P|272:73|229:121,1,121.333327779134,8|0,0:0|0:0,0:0:0:0:
388,137,266137,1,0,0:0:0:0:
236,208,266281,5,8,0:0:0:0:
172,324,266424,1,8,0:0:0:0:
352,288,266566,1,8,0:0:0:0:
148,164,266709,1,8,0:0:0:0:
360,120,266852,1,8,0:0:0:0:
76,68,266995,1,8,0:0:0:0:
386,384,267138,6,0,L|371:246,1,121.333327779134,12|0,0:0|0:0,0:0:0:0:
488,172,267424,1,8,0:0:0:0:
126,384,267566,2,0,L|141:246,1,121.333327779134,8|0,0:0|0:0,0:0:0:0:
24,172,267852,1,8,0:0:0:0:
372,263,267995,6,0,P|296:275|268:327,1,121.333327779134,8|0,0:0|0:0,0:0:0:0:
496,360,268281,1,8,0:0:0:0:
222,229,268424,2,0,P|171:181|165:116,1,121.333327779134,8|0,0:0|0:0,0:0:0:0:
276,0,268709,1,8,0:0:0:0:
476,94,268852,6,0,B|377:98|377:98|332:136|332:136|229:146,1,242.666655558269,8|8,0:0|0:0,0:0:0:0:
40,107,269281,2,0,B|108:123|108:123|119:180|119:180|135:198|135:198|129:218|129:218|148:299,1,242.666655558269,8|8,0:0|0:0,0:0:0:0:
312,164,269709,5,8,0:0:0:0:
360,318,269852,1,8,0:0:0:0:
395,95,269995,1,8,0:0:0:0:
214,269,270138,5,8,0:0:0:0:
512,384,270281,1,8,0:0:0:0:
366,0,270424,1,8,0:0:0:0:
80,282,270566,6,0,L|208:306,1,121.333327779134,12|0,0:0|0:0,0:0:0:0:
303,63,270852,1,0,0:0:0:0:
482,358,270995,2,0,L|358:386,2,121.333327779134,8|0|0,0:0|0:0|0:0,0:0:0:0:
240,116,271424,1,8,0:0:0:0:
364,352,271566,1,0,0:0:0:0:
464,44,271709,1,8,0:0:0:0:
260,192,271852,1,8,0:0:0:0:
504,304,271995,1,0,0:0:0:0:
312,32,272138,1,8,0:0:0:0:
167,277,272281,6,0,P|223:313|287:317,1,121.333327779134,8|0,0:0|0:0,0:0:0:0:
408,136,272566,1,0,0:0:0:0:
126,42,272709,2,0,P|78:86|66:146,1,121.333327779134,8|0,0:0|0:0,0:0:0:0:
198,360,272995,1,0,0:0:0:0:
344,68,273138,5,8,0:0:0:0:
90,223,273281,1,8,0:0:0:0:
347,366,273424,1,8,0:0:0:0:
250,14,273566,1,8,0:0:0:0:
198,360,273709,1,8,0:0:0:0:
453,96,273852,1,8,0:0:0:0:
144,58,273995,6,0,P|176:86|192:166,1,121.333327779134,12|0,0:0|0:0,0:0:0:0:
120,372,274281,1,0,0:0:0:0:
368,58,274424,2,0,P|336:86|320:166,1,121.333327779134,8|0,0:0|0:0,0:0:0:0:
392,372,274710,1,0,0:0:0:0:
88,272,274852,1,8,0:0:0:0:
438,190,274995,1,0,0:0:0:0:
168,148,275138,1,0,0:0:0:0:
438,190,275281,2,0,L|454:314,2,121.333327779134,8|0|0,0:0|0:0|0:0,0:0:0:0:
334,5,275709,6,0,B|265:154|387:103|330:234,1,242.666655558269,8|0,0:0|0:0,0:0:0:0:
178,5,276138,2,0,B|246:154|124:103|181:234,1,242.666655558269,8|0,0:0|0:0,0:0:0:0:
256,384,276566,1,8,0:0:0:0:
366,80,276709,1,8,0:0:0:0:
66,171,276852,6,0,L|86:295,1,121.333327779134,8|8,0:0|0:0,0:0:0:0:
30,2,277138,1,8,0:0:0:0:
236,264,277281,2,0,L|256:388,1,121.333327779134,8|12,0:0|0:0,0:0:0:0:
200,95,277567,1,0,0:0:0:0:
375,169,277709,2,0,L|395:293,1,121.333327779134,8|8,0:0|0:0,0:0:0:0:
339,0,277995,1,0,0:0:0:0:
236,264,278138,1,8,0:0:0:0:
428,170,278281,6,0,P|323:186|415:134,1,298.666666666667,8|8,0:0|0:0,0:0:0:0:
21,62,278709,2,0,B|75:9|147:53|74:133|155:221|237:166,1,298.666666666667,8|8,0:0|0:0,0:0:0:0:
356,0,279138,2,0,B|328:55|328:55|346:118,1,121.333327779134,8|0,0:0|0:0,0:0:0:0:
436,288,279424,1,0,0:0:0:0:
156,0,279566,2,0,B|184:55|184:55|166:118,1,121.333327779134,8|0,0:0|0:0,0:0:0:0:
76,288,279852,1,0,0:0:0:0:
16,88,279995,5,8,0:0:0:0:
120,360,280138,1,8,0:0:0:0:
200,144,280281,1,8,0:0:0:0:
392,360,280424,5,8,0:0:0:0:
496,88,280567,1,8,0:0:0:0:
312,144,280710,1,8,0:0:0:0:
392,360,280852,6,0,B|431:273|431:273|391:187,1,186.666666666667,12|8,0:0|0:0,0:0:0:0:
247,53,281281,2,0,B|208:140|208:140|248:226,1,186.666666666667,8|8,0:0|0:0,0:0:0:0:
477,91,281709,2,0,B|393:103|393:103|377:135|377:135|285:147,1,186.666666666667,8|8,0:0|0:0,0:0:0:0:
74,184,282138,2,0,B|139:179|139:179|194:296,1,186.666666666667,8|8,0:0|0:0,0:0:0:0:
250,384,282566,2,0,P|274:324|390:306,1,186.666666666667,8|8,0:0|0:0,0:0:0:0:
262,0,282995,2,0,P|238:60|122:78,1,186.666666666667,8|8,0:0|0:0,0:0:0:0:
60,10,283424,6,0,P|32:50|32:104,1,93.3333333333333,8|0,0:0|0:0,0:0:0:0:
88,200,283709,1,8,0:0:0:0:
188,127,283852,2,0,P|216:167|216:221,1,93.3333333333333,8|0,0:0|0:0,0:0:0:0:
160,317,284137,1,8,0:0:0:0:
188,127,284281,6,0,L|384:115,1,186.666666666667,8|8,0:0|0:0,0:0:0:0:
197,29,284709,2,0,P|117:57|95:153,1,186.666666666667,8|8,0:0|0:0,0:0:0:0:
228,384,285138,2,0,B|280:340|280:340|264:216,1,186.666666666667,8|8,0:0|0:0,0:0:0:0:
293,88,285566,2,0,L|321:290,1,186.666666666667,8|8,0:0|0:0,0:0:0:0:
9,174,285995,2,0,B|59:158|59:158|119:213|119:213|175:194|175:194,1,186.666666666667,8|8,0:0|0:0,0:0:0:0:
374,47,286424,2,0,B|237:23|237:23|189:66,1,186.666666666667,8|8,0:0|0:0,0:0:0:0:
346,185,286852,2,0,B|455:172|372:259|530:237,1,186.666666666667,8|8,0:0|0:0,0:0:0:0:
172,260,287281,2,0,B|63:247|146:334|-12:312,1,186.666666666667,8|8,0:0|0:0,0:0:0:0:
56,0,287709,6,0,L|84:188,1,186.666666666667,8|8,0:0|0:0,0:0:0:0:
456,0,288138,2,0,L|428:188,1,186.666666666667,8|8,0:0|0:0,0:0:0:0:
83,184,288566,2,0,L|111:372,1,186.666666666667,8|8,0:0|0:0,0:0:0:0:
428,184,288995,2,0,L|400:372,1,186.666666666667,8|8,0:0|0:0,0:0:0:0:
170,258,289424,6,0,L|155:154,1,93.3333333333333,8|0,0:0|0:0,0:0:0:0:
200,32,289709,1,8,0:0:0:0:
342,258,289852,2,0,L|357:154,1,93.3333333333333,8|0,0:0|0:0,0:0:0:0:
312,32,290137,1,8,0:0:0:0:
83,270,290281,2,0,P|143:342|229:324,1,186.666666666667,8|8,0:0|0:0,0:0:0:0:
254,250,290709,2,0,P|194:178|108:196,1,186.666666666667,8|8,0:0|0:0,0:0:0:0:
169,261,291138,5,8,0:0:0:0:
412,176,291424,1,8,0:0:0:0:
412,176,291566,1,8,0:0:0:0:
128,80,291852,1,8,0:0:0:0:
128,80,291995,1,8,0:0:0:0:
432,4,292281,1,8,0:0:0:0:
432,4,292424,1,8,0:0:0:0:
264,72,292709,5,8,0:0:0:0:
240,304,292852,1,8,0:0:0:0:
348,9,292995,1,8,0:0:0:0:
100,96,293138,1,8,0:0:0:0:
325,336,293281,1,8,0:0:0:0:
173,18,293424,1,8,0:0:0:0:
0,384,293566,1,8,0:0:0:0:
328,165,293709,6,0,B|267:190|215:166|215:166|246:250|223:334|223:334|167:278|59:274|59:274|116:311|128:383,1,595,8|0,0:0|0:0,0:0:0:0:
328,165,296459,5,0,0:0:0:0:
293,171,299816,6,0,B|341:128|311:67|311:67|248:88|247:152|247:152|215:96|147:108|147:108|154:170|215:191|215:191|147:195|138:256|138:256|190:287|240:231|240:231|226:293|282:322|282:322|324:277|287:221|287:221|338:258|399:224|399:224|355:162|291:170,1,1155
