osu file format v14

[General]
AudioFilename: audio.mp3
AudioLeadIn: 0
PreviewTime: 722
Countdown: 0
SampleSet: Drum
StackLeniency: 0.7
Mode: 0
LetterboxInBreaks: 0
WidescreenStoryboard: 1

[Editor]
DistanceSpacing: 2.7
BeatDivisor: 4
GridSize: 4
TimelineZoom: 1

[Metadata]
Title:My name is Giovanni Giorgio, but everybody calls me Giorgio
TitleUnicode:My name is Giovanni Giorgio, but everybody calls me Giorgio
Artist:Daft Punk
ArtistUnicode:Daft Punk
Creator:JOOOTY
Version:Giorgio Jr.
Source:
Tags:
BeatmapID:2822639
BeatmapSetID:1358666

[Difficulty]
HPDrainRate:4.6
CircleSize:2
OverallDifficulty:8.6
ApproachRate:9.8
SliderMultiplier:1.68
SliderTickRate:1

[Events]
//Background and Video events
0,0,"976211_10151599408813850_2139088596_o-1024x767.jpg",0,0
//Break Periods
//Storyboard Layer 0 (Background)
//Storyboard Layer 1 (Fail)
//Storyboard Layer 2 (Pass)
//Storyboard Layer 3 (Foreground)
//Storyboard Layer 4 (Overlay)
//Storyboard Sound Samples

[TimingPoints]
722,535.714285714286,4,2,0,25,1,0
5495,529.801324503311,4,3,0,41,1,0
30925,-66.6666666666667,4,2,0,46,0,0

[Colours]
Combo1 : 255,0,0
Combo2 : 0,255,168
Combo3 : 255,255,255
Combo4 : 255,128,64

[HitObjects]
98,168,722,6,0,B|129:154|130:118|158:100,1,84
246,279,1257,2,0,B|257:240|235:210|237:165,1,84
416,96,1793,2,0,B|394:128|402:161|374:199,1,84
212,199,2329,2,0,P|256:188|282:150,1,84
98,106,2864,2,0,P|132:88|180:85,1,84
277,263,3400,2,0,P|231:263|185:235,1,84
281,102,3936,2,0,L|248:187,1,84
256,192,4472,12,0,5275,0:0:0:0:
166,246,5495,5,2,0:0:0:0:
253,44,5627,1,2,0:0:0:0:
321,241,5759,1,2,0:0:0:0:
166,97,5892,1,2,0:0:0:0:
374,114,6024,1,12,0:0:0:0:
229,267,6157,1,2,0:0:0:0:
289,66,6289,1,2,0:0:0:0:
411,237,6422,1,2,0:0:0:0:
212,169,6554,5,2,0:0:0:0:
421,190,6687,1,2,0:0:0:0:
251,312,6819,1,2,0:0:0:0:
206,107,6951,1,2,0:0:0:0:
339,270,7084,1,12,0:0:0:0:
140,204,7216,1,2,0:0:0:0:
345,156,7349,1,2,0:0:0:0:
192,299,7481,1,2,0:0:0:0:
303,120,7614,5,2,0:0:0:0:
296,329,7746,1,2,0:0:0:0:
162,165,7879,1,2,0:0:0:0:
362,224,8011,1,2,0:0:0:0:
181,332,8144,1,12,0:0:0:0:
224,127,8276,1,2,0:0:0:0:
351,293,8408,1,2,0:0:0:0:
147,236,8541,1,2,0:0:0:0:
342,161,8673,5,2,0:0:0:0:
253,352,8806,1,2,0:0:0:0:
144,173,8938,1,2,0:0:0:0:
343,241,9071,1,2,0:0:0:0:
222,70,9203,1,12,0:0:0:0:
185,277,9336,1,2,0:0:0:0:
309,108,9468,1,2,0:0:0:0:
339,315,9600,1,2,0:0:0:0:
195,160,9733,5,2,0:0:0:0:
396,215,9865,1,2,0:0:0:0:
186,213,9997,1,2,0:0:0:0:
360,94,10130,1,2,0:0:0:0:
266,281,10262,1,12,0:0:0:0:
103,146,10395,1,2,0:0:0:0:
322,162,10527,1,2,0:0:0:0:
152,286,10660,1,2,0:0:0:0:
273,115,10792,5,2,0:0:0:0:
277,325,10925,1,2,0:0:0:0:
131,174,11057,1,2,0:0:0:0:
331,235,11189,1,2,0:0:0:0:
122,267,11322,1,12,0:0:0:0:
230,88,11454,1,2,0:0:0:0:
299,287,11587,1,2,0:0:0:0:
155,134,11719,1,2,0:0:0:0:
358,188,11852,5,2,0:0:0:0:
151,221,11984,1,2,0:0:0:0:
308,80,12117,1,2,0:0:0:0:
232,275,12249,1,2,0:0:0:0:
155,78,12382,1,12,0:0:0:0:
308,220,12514,1,2,0:0:0:0:
124,319,12646,1,2,0:0:0:0:
241,144,12779,1,2,0:0:0:0:
331,334,12912,5,2,0:0:0:0:
160,212,13044,1,2,0:0:0:0:
360,150,13176,1,2,0:0:0:0:
232,318,13309,1,2,0:0:0:0:
408,204,13441,1,12,0:0:0:0:
202,158,13574,1,2,0:0:0:0:
361,293,13706,1,2,0:0:0:0:
155,252,13838,1,2,0:0:0:0:
315,115,13971,5,2,0:0:0:0:
243,311,14103,1,2,0:0:0:0:
252,101,14235,1,2,0:0:0:0:
324,299,14368,1,2,0:0:0:0:
165,162,14500,1,12,0:0:0:0:
350,61,14633,1,2,0:0:0:0:
236,236,14765,1,2,0:0:0:0:
199,28,14898,1,2,0:0:0:0:
346,176,15030,5,2,0:0:0:0:
144,237,15163,1,2,0:0:0:0:
274,73,15295,1,2,0:0:0:0:
301,280,15427,1,2,0:0:0:0:
165,118,15560,1,12,0:0:0:0:
344,226,15692,1,2,0:0:0:0:
137,185,15825,1,2,0:0:0:0:
330,106,15957,1,2,0:0:0:0:
235,294,16090,5,2,0:0:0:0:
226,84,16222,1,2,0:0:0:0:
412,182,16355,1,2,0:0:0:0:
204,153,16487,1,2,0:0:0:0:
410,110,16620,1,12,0:0:0:0:
267,260,16752,1,2,0:0:0:0:
157,81,16884,1,2,0:0:0:0:
328,203,17017,1,2,0:0:0:0:
127,262,17149,5,2,0:0:0:0:
227,76,17282,1,2,0:0:0:0:
342,250,17414,1,2,0:0:0:0:
148,165,17547,1,2,0:0:0:0:
306,301,17679,1,12,0:0:0:0:
293,90,17812,1,2,0:0:0:0:
206,280,17944,1,2,0:0:0:0:
166,74,18076,1,2,0:0:0:0:
378,77,18210,5,2,0:0:0:0:
277,260,18342,1,2,0:0:0:0:
232,55,18474,1,2,0:0:0:0:
348,229,18607,1,2,0:0:0:0:
154,149,18739,1,12,0:0:0:0:
336,44,18872,1,2,0:0:0:0:
244,232,19004,1,2,0:0:0:0:
161,37,19137,1,2,0:0:0:0:
319,174,19269,5,2,0:0:0:0:
109,201,19402,1,2,0:0:0:0:
263,59,19534,1,2,0:0:0:0:
281,267,19666,1,2,0:0:0:0:
173,85,19799,1,12,0:0:0:0:
347,200,19931,1,2,0:0:0:0:
136,209,20064,1,2,0:0:0:0:
308,89,20196,1,2,0:0:0:0:
241,289,20329,5,2,0:0:0:0:
180,16,20461,1,2,0:0:0:0:
349,141,20594,1,2,0:0:0:0:
140,155,20726,1,2,0:0:0:0:
327,58,20859,1,12,0:0:0:0:
235,246,20991,1,2,0:0:0:0:
123,68,21123,1,2,0:0:0:0:
304,174,21256,1,2,0:0:0:0:
117,269,21388,5,2,0:0:0:0:
253,108,21521,1,2,0:0:0:0:
353,291,21653,1,2,0:0:0:0:
173,180,21786,1,2,0:0:0:0:
286,355,21918,1,12,0:0:0:0:
344,152,22051,1,2,0:0:0:0:
192,295,22183,1,2,0:0:0:0:
184,85,22315,1,2,0:0:0:0:
392,51,22448,5,2,0:0:0:0:
284,230,22580,1,2,0:0:0:0:
259,22,22712,1,2,0:0:0:0:
386,189,22845,1,2,0:0:0:0:
183,138,22977,1,12,0:0:0:0:
362,26,23110,1,2,0:0:0:0:
244,199,23242,1,2,0:0:0:0:
132,19,23375,1,2,0:0:0:0:
309,129,23507,5,2,0:0:0:0:
112,206,23640,1,2,0:0:0:0:
261,59,23772,1,2,0:0:0:0:
273,267,23904,1,2,0:0:0:0:
165,85,24037,1,12,0:0:0:0:
344,193,24169,1,2,0:0:0:0:
135,163,24302,1,2,0:0:0:0:
322,70,24434,1,2,0:0:0:0:
224,256,24567,5,2,0:0:0:0:
187,49,24699,1,2,0:0:0:0:
370,153,24832,1,2,0:0:0:0:
169,212,24964,1,2,0:0:0:0:
301,47,25097,1,12,0:0:0:0:
284,255,25229,1,2,0:0:0:0:
142,100,25361,1,2,0:0:0:0:
338,177,25494,1,2,0:0:0:0:
137,237,25626,5,2,0:0:0:0:
272,75,25759,1,2,0:0:0:0:
367,261,25891,1,2,0:0:0:0:
177,169,26024,1,2,0:0:0:0:
312,328,26156,1,12,0:0:0:0:
324,117,26289,1,2,0:0:0:0:
202,287,26421,1,2,0:0:0:0:
192,77,26553,1,2,0:0:0:0:
401,43,26687,5,2,0:0:0:0:
274,235,26819,1,2,0:0:0:0:
228,9,26951,1,2,0:0:0:0:
352,204,27084,1,2,0:0:0:0:
133,132,27216,1,12,0:0:0:0:
237,338,27349,1,2,0:0:0:0:
338,131,27481,1,2,0:0:0:0:
154,273,27614,1,2,0:0:0:0:
373,204,27746,5,2,0:0:0:0:
141,204,27879,1,2,0:0:0:0:
308,46,28011,1,2,0:0:0:0:
303,276,28143,1,2,0:0:0:0:
183,77,28276,1,12,0:0:0:0:
400,153,28408,1,2,0:0:0:0:
168,162,28541,1,2,0:0:0:0:
365,43,28673,1,2,0:0:0:0:
257,248,28806,5,2,0:0:0:0:
206,23,28938,1,2,0:0:0:0:
342,210,29071,1,2,0:0:0:0:
125,130,29203,1,2,0:0:0:0:
354,98,29336,1,12,0:0:0:0:
291,319,29468,1,2,0:0:0:0:
179,117,29600,1,2,0:0:0:0:
404,172,29733,1,2,0:0:0:0:
186,253,29865,5,2,0:0:0:0:
272,35,29998,1,2,0:0:0:0:
363,246,30130,1,2,0:0:0:0:
197,83,30263,1,2,0:0:0:0:
322,275,30395,1,12,0:0:0:0:
372,48,30528,1,2,0:0:0:0:
252,245,30660,1,2,0:0:0:0:
180,26,30792,1,2,0:0:0:0:
109,181,30925,6,2,B|157:153|119:93|166:64,1,126.000004806519
471,204,31455,1,0,0:0:0:0:
134,254,31720,2,2,L|102:316,1,63.0000024032594
264,249,31985,1,4,0:0:0:0:
114,168,32117,2,8,L|131:102,1,63.0000024032594
444,240,32514,2,8,L|337:319,1,126.000004806519,4|2,0:0|0:0,0:0:0:0:
64,120,33044,6,2,L|116:241,1,126.000004806519
452,188,33574,1,2,0:0:0:0:
124,284,33839,2,4,L|158:224,1,63.0000024032594
460,76,34236,2,2,L|401:104,1,63.0000024032594
64,144,34634,1,4,0:0:0:0:
368,296,34898,1,2,0:0:0:0:
