osu file format v14

[General]
AudioFilename: audio.mp3
AudioLeadIn: 0
PreviewTime: 27596
Countdown: 0
SampleSet: Soft
StackLeniency: 0.7
Mode: 0
LetterboxInBreaks: 0
WidescreenStoryboard: 1

[Editor]
Bookmarks: 1989
DistanceSpacing: 0.5
BeatDivisor: 4
GridSize: 16
TimelineZoom: 2.4

[Metadata]
Title:Harder Better Faster Stronger (Far Out Remix)
TitleUnicode:Harder Better Faster Stronger (Far Out Remix)
Artist:Daft Punk
ArtistUnicode:Daft Punk
Creator:StormTwister
Version:Harder
Source:
Tags:Future Bass Far Out Daft Punk Harder Better Faster Stronger Remix
BeatmapID:1822955
BeatmapSetID:872309

[Difficulty]
HPDrainRate:6
CircleSize:5.5
OverallDifficulty:5
ApproachRate:9
SliderMultiplier:1.5
SliderTickRate:1

[Events]
//Background and Video events
Video,0,"Audiowaves.avi"
0,0,"Purple Blue.jpg",0,0
//Break Periods
2,56939,62846
2,98081,110996
2,139224,145281
2,166653,172710
2,207795,213853
//Storyboard Layer 0 (Background)
//Storyboard Layer 1 (Fail)
//Storyboard Layer 2 (Pass)
//Storyboard Layer 3 (Foreground)
//Storyboard Sound Samples

[TimingPoints]
167,428.571428571429,4,2,0,100,1,0
43024,-100,4,2,0,100,0,1
56738,-100,4,2,0,100,0,0
70452,-100,4,2,0,100,0,1
84166,-100,4,2,0,100,0,0
152738,-66.6666666666667,4,2,0,100,0,1
166452,-100,4,2,0,100,0,0
181666,-100,4,2,0,100,0,1
200738,-100,4,2,0,100,0,0

[Colours]
Combo1 : 193,0,140
Combo2 : 183,183,255
Combo3 : 128,0,255
Combo4 : 0,255,255
Combo5 : 255,255,0
Combo6 : 155,255,218
Combo7 : 255,47,140
Combo8 : 255,128,0

[HitObjects]
128,320,1882,6,2,L|192:256,1,74.9999999999999,2|2,2:2|2:2,2:2:0:0:
128,64,2739,2,2,L|192:128,1,74.9999999999999,2|2,2:2|2:2,2:2:0:0:
384,192,3596,6,2,L|288:192,1,74.9999999999999,2|2,2:2|2:2,2:2:0:0:
96,192,4453,2,2,L|192:192,1,74.9999999999999,2|2,2:2|2:2,2:2:0:0:
80,304,5310,6,0,B|112:256|64:208|16:176|16:176|32:96|112:80|192:144|192:144|224:208,1,450
432,304,7024,2,0,B|400:256|448:208|496:176|496:176|480:96|400:80|336:128|336:128|288:208,1,450
256,32,8739,85,0,0:0:0:0:
96,112,9167,2,2,L|96:192,1,74.9999999999999,2|2,2:2|2:2,2:2:0:0:
256,352,10024,2,2,L|256:272,1,74.9999999999999,2|2,2:2|2:2,2:2:0:0:
272,160,10453,2,0,P|288:112|368:80,1,112.5
416,112,10882,2,2,L|416:192,1,74.9999999999999,2|2,2:2|2:2,2:2:0:0:
192,80,11739,2,2,B|224:32|256:32,1,74.9999999999999,2|2,2:2|2:2,2:2:0:0:
368,128,12167,6,0,B|448:96|496:208|416:272|368:192|368:192|416:272,1,300
288,304,13882,2,0,B|144:304|144:240|320:240|320:176|160:176,1,300
96,304,15596,6,2,L|192:304,1,74.9999999999999,2|2,2:2|2:2,2:2:0:0:
176,80,16453,2,2,L|96:80,1,74.9999999999999,2|2,2:2|2:2,2:2:0:0:
256,144,17096,1,0,3:3:0:0:
320,80,17310,2,2,L|400:80,1,74.9999999999999,2|2,2:2|2:2,2:2:0:0:
464,144,17739,1,0,3:3:0:0:
400,304,18167,2,2,L|320:304,1,74.9999999999999,2|2,2:2|2:2,2:2:0:0:
16,240,19024,85,0,3:3:0:0:
48,176,19239,1,0,0:0:0:0:
96,128,19453,1,0,0:0:0:0:
144,80,19667,2,0,P|192:48|224:48,1,74.9999999999999
272,32,20096,1,0,0:0:0:0:
336,48,20310,2,0,P|368:48|416:96,1,74.9999999999999
415,143,20739,5,0,0:0:0:0:
416,224,20953,2,2,L|416:272,3,37.5,2|2|2|2,2:2|2:2|2:2|2:2,2:2:0:0:
352,304,21382,1,0,0:0:0:0:
320,224,21596,2,0,L|240:224,1,74.9999999999999
240,128,22024,2,0,L|336:128,1,74.9999999999999
240,224,22453,1,0,3:3:0:0:
112,336,22882,6,2,L|112:240,1,74.9999999999999,2|2,2:2|2:2,2:2:0:0:
208,192,23310,1,0,3:3:0:0:
112,32,23739,2,2,L|192:32,1,74.9999999999999,2|2,2:2|2:2,2:2:0:0:
208,192,24382,1,0,3:3:0:0:
96,240,24596,2,2,L|16:192,1,74.9999999999999,2|2,2:2|2:2,2:2:0:0:
80,320,25024,1,0,3:3:0:0:
256,256,25453,2,2,L|320:192,1,74.9999999999999,2|2,2:2|2:2,2:2:0:0:
288,80,25882,85,0,3:3:0:0:
208,96,26096,1,0,0:0:0:0:
144,128,26310,1,0,0:0:0:0:
80,176,26524,2,0,P|64:224|80:256,1,74.9999999999999
144,272,26953,2,0,L|224:304,1,74.9999999999999
288,304,27382,1,0,0:0:0:0:
400,304,27596,6,2,P|432:272|448:240,1,74.9999999999999,2|2,2:2|2:2,2:2:0:0:
448,112,28024,2,2,P|416:80|384:64,1,74.9999999999999,2|2,2:2|2:2,2:2:0:0:
272,64,28453,2,2,P|240:96|224:128,1,74.9999999999999,2|2,2:2|2:2,2:2:0:0:
224,256,28882,2,2,P|256:288|288:304,1,74.9999999999999,2|2,2:2|2:2,2:2:0:0:
368,208,29310,6,0,P|368:160|336:144,1,74.9999999999999
272,208,29739,1,2,2:2:0:0:
272,80,29953,1,2,2:2:0:0:
128,144,30167,86,0,P|96:144|64:176,1,74.9999999999999
128,256,30596,1,2,2:2:0:0:
16,224,30810,1,2,2:2:0:0:
96,352,31024,6,0,P|144:336|160:320,1,74.9999999999999
208,240,31453,1,2,2:2:0:0:
304,304,31667,1,2,2:2:0:0:
240,160,31882,6,0,P|272:112|304:96,1,74.9999999999999
384,64,32310,1,2,2:2:0:0:
368,192,32524,1,2,2:2:0:0:
208,208,32739,86,0,P|144:208|128:192,1,74.9999999999999
80,176,33167,1,0,0:0:0:0:
64,112,33382,1,0,0:0:0:0:
80,48,33596,2,0,P|112:16|144:16,1,74.9999999999999
208,48,34024,2,0,L|304:48,1,74.9999999999999
384,128,34453,6,2,L|320:192,1,74.9999999999999,2|2,2:2|2:2,2:2:0:0:
336,320,34882,2,2,L|400:256,1,74.9999999999999,2|2,2:2|2:2,2:2:0:0:
288,224,35310,2,2,L|272:304,1,74.9999999999999,2|2,2:2|2:2,2:2:0:0:
384,208,35739,2,2,L|448:144,1,74.9999999999999,2|2,2:2|2:2,2:2:0:0:
448,32,36167,6,0,P|400:32|368:48,1,74.9999999999999,0|2,0:0|2:2,0:0:0:0:
320,112,36595,1,0,0:0:0:0:
240,96,36810,2,0,L|240:176,1,74.9999999999999,2|0,2:2|0:0,0:0:0:0:
176,224,37239,1,0,0:0:0:0:
240,272,37453,1,2,2:2:0:0:
304,224,37667,1,2,2:2:0:0:
240,160,37882,86,0,P|240:112|208:80,1,74.9999999999999
144,96,38310,2,2,P|144:144|176:176,1,74.9999999999999,2|2,2:2|2:2,2:2:0:0:
208,224,38739,1,0,0:0:0:0:
208,304,38953,1,0,0:0:0:0:
128,288,39167,2,2,L|64:240,1,74.9999999999999,2|2,2:2|2:2,2:2:0:0:
48,160,39596,6,0,L|112:208,1,74.9999999999999
192,144,40024,2,0,L|272:192,1,74.9999999999999
272,96,40453,2,0,L|192:48,1,74.9999999999999
128,96,40882,2,0,L|192:144,1,74.9999999999999
96,176,41310,6,2,L|160:224,1,74.9999999999999,2|2,2:2|2:2,2:2:0:0:
192,320,41739,1,2,2:2:0:0:
272,304,41953,1,2,2:2:0:0:
256,208,42167,2,2,P|256:160|288:128,1,75,2|2,2:2|2:2,2:2:0:0:
336,48,42596,2,2,L|416:48,1,74.9999999999999,2|2,2:2|2:2,2:2:0:0:
496,96,43024,21,0,0:0:0:0:
432,160,43239,1,0,0:0:0:0:
480,272,43453,2,2,B|448:256|432:288|400:240,1,75,2|2,2:2|2:2,2:2:0:0:
304,176,43881,101,0,0:0:0:0:
224,208,44095,1,0,0:0:0:0:
272,320,44310,2,2,P|240:336|192:336,1,75,2|2,2:2|2:2,2:2:0:0:
48,336,44739,101,0,0:0:0:0:
32,256,44953,1,0,0:0:0:0:
48,144,45167,2,2,P|64:96|96:64,1,75,2|2,2:2|2:2,2:2:0:0:
224,16,45596,21,0,0:0:0:0:
256,112,45810,1,0,0:0:0:0:
384,112,46024,2,2,P|432:112|464:144,1,75,2|2,2:2|2:2,2:2:0:0:
512,272,46453,101,2,0:0:0:0:
432,320,46667,1,2,0:0:0:0:
384,208,46882,2,2,P|416:224|448:208,1,75
432,128,47310,2,2,L|352:128,1,75,2|2,2:2|2:2,2:2:0:0:
288,48,47739,2,2,L|384:48,1,75,2|2,2:2|2:2,2:2:0:0:
432,128,48167,102,2,L|352:128,1,75,2|2,2:2|2:2,2:2:0:0:
416,240,48595,1,2,2:2:0:0:
384,320,48809,1,2,2:2:0:0:
208,336,49024,22,2,P|176:336|176:288,1,75,2|2,2:2|2:2,2:2:0:0:
272,224,49453,1,2,2:2:0:0:
304,144,49667,1,2,2:2:0:0:
224,64,49881,101,0,0:0:0:0:
128,32,50095,1,0,0:0:0:0:
64,144,50309,2,2,P|48:192|48:224,1,75
144,336,50738,101,0,0:0:0:0:
240,304,50952,1,0,0:0:0:0:
304,208,51167,2,2,P|320:144|304:128,1,75
160,80,51595,21,0,2:2:0:0:
224,16,51809,1,0,2:2:0:0:
336,64,52024,2,2,P|320:112|320:160,1,75
384,272,52452,101,0,0:0:0:0:
320,352,52667,1,0,0:0:0:0:
224,288,52882,2,2,P|256:256|288:256,2,75,2|2|0,2:2|2:2|2:2,2:2:0:0:
128,320,53524,101,0,0:0:0:0:
112,224,53739,1,0,0:0:0:0:
144,128,53953,1,0,0:0:0:0:
240,128,54167,2,0,P|240:176|208:208,1,75
160,272,54596,2,0,L|80:272,1,75
80,160,55024,22,2,L|160:128,1,75,2|2,2:2|2:2,2:2:0:0:
224,32,55452,1,2,0:0:0:0:
288,96,55667,1,2,0:0:0:0:
224,240,55881,102,2,P|256:288|288:288,1,75
384,304,56309,1,2,0:0:0:0:
464,240,56524,1,2,0:0:0:0:
480,144,56739,1,4,2:2:0:0:
320,176,63596,5,0,2:2:0:0:
320,128,63703,1,0,2:2:0:0:
288,96,63810,1,0,2:2:0:0:
240,96,63917,1,0,2:2:0:0:
192,112,64024,2,2,P|192:160|208:192,1,75,2|2,2:2|2:2,2:2:0:0:
304,304,64453,85,0,2:2:0:0:
256,320,64560,1,0,2:2:0:0:
208,320,64667,1,0,2:2:0:0:
160,320,64774,1,0,2:2:0:0:
112,304,64882,2,2,B|80:256|96:224,1,75,2|2,2:2|2:2,2:2:0:0:
128,80,65310,86,0,L|208:32,1,75,0|0,2:2|2:2,2:2:0:0:
336,64,65739,1,2,2:2:0:0:
368,96,65846,1,0,2:2:0:0:
384,144,65953,1,2,2:2:0:0:
384,192,66060,1,0,2:2:0:0:
384,240,66167,2,0,P|384:288|352:320,1,75,0|0,2:2|2:2,2:2:0:0:
464,352,66596,2,2,P|496:320|496:272,1,75,2|2,2:2|2:2,2:2:0:0:
496,144,67024,5,8,3:3:0:0:
480,96,67132,1,0,2:2:0:0:
448,64,67239,1,8,3:3:0:0:
400,48,67346,1,0,2:2:0:0:
352,48,67453,1,8,3:3:0:0:
304,48,67560,1,0,2:2:0:0:
256,64,67667,1,8,3:3:0:0:
224,96,67774,1,0,2:2:0:0:
192,128,67882,85,8,3:3:0:0:
176,176,67989,1,0,2:2:0:0:
176,224,68096,1,8,3:3:0:0:
192,272,68203,1,0,2:2:0:0:
224,304,68310,1,8,3:3:0:0:
272,320,68417,1,0,2:2:0:0:
320,320,68524,1,8,3:3:0:0:
368,320,68632,1,0,2:2:0:0:
256,192,68739,12,4,70453,2:2:0:0:
448,64,70882,86,2,L|368:128,1,75,2|2,2:2|2:2,2:2:0:0:
256,192,71310,2,2,L|256:224,7,25,2|2|2|2|2|2|2|2,2:2|2:2|2:2|2:2|2:2|2:2|2:2|2:2,2:2:0:0:
192,48,71953,5,0,3:3:0:0:
144,64,72060,1,0,3:3:0:0:
112,96,72167,1,0,3:3:0:0:
80,128,72274,1,0,3:3:0:0:
64,176,72382,1,0,3:3:0:0:
64,224,72489,1,0,3:3:0:0:
80,272,72596,1,0,3:3:0:0:
112,304,72702,1,0,3:3:0:0:
144,336,72810,6,0,P|192:352|240:336,1,75,0|0,3:3|3:3,3:3:0:0:
256,352,73132,1,0,3:3:0:0:
304,336,73239,1,0,3:3:0:0:
336,304,73346,1,0,3:3:0:0:
368,272,73453,1,0,3:3:0:0:
384,224,73560,1,0,3:3:0:0:
400,176,73667,1,0,3:3:0:0:
400,128,73774,1,0,3:3:0:0:
384,80,73882,1,0,3:3:0:0:
208,96,74096,85,2,2:2:0:0:
208,96,74310,1,2,2:2:0:0:
288,208,74524,2,0,L|208:208,1,75,0|0,3:3|3:3,3:3:0:0:
256,96,74882,2,2,L|288:96,7,25,2|2|2|2|2|2|2|2,2:2|2:2|2:2|2:2|2:2|2:2|2:2|2:2,2:2:0:0:
96,144,75489,5,0,3:3:0:0:
80,192,75596,1,0,3:3:0:0:
96,240,75703,1,0,3:3:0:0:
128,272,75810,1,0,3:3:0:0:
176,288,75917,1,0,3:3:0:0:
224,288,76024,1,0,3:3:0:0:
272,272,76132,1,0,3:3:0:0:
304,240,76239,1,0,3:3:0:0:
320,192,76346,1,0,3:3:0:0:
368,64,76453,6,2,L|288:112,1,75,2|2,2:2|2:2,2:2:0:0:
224,208,76882,2,2,B|192:144|160:192|160:192,2,75,2|2|6,2:2|2:2|2:2,2:2:0:0:
240,96,77524,85,0,3:3:0:0:
336,32,77739,1,0,3:3:0:0:
224,16,77953,2,0,P|176:16|128:48,1,75,0|0,3:3|3:3,3:3:0:0:
64,128,78382,2,2,L|32:160,4,25,2|2|2|2|2,2:2|2:2|2:2|2:2|2:2,2:2:0:0:
32,272,78810,6,0,P|32:320|80:352,1,75,0|0,3:3|3:3,3:3:0:0:
96,352,79131,1,0,3:3:0:0:
144,352,79239,1,0,3:3:0:0:
192,336,79346,1,0,3:3:0:0:
224,304,79453,1,0,3:3:0:0:
240,256,79560,1,0,3:3:0:0:
240,208,79667,1,0,3:3:0:0:
240,160,79774,1,0,3:3:0:0:
256,112,79881,1,0,3:3:0:0:
288,80,79989,5,0,3:3:0:0:
336,80,80096,2,0,L|384:96,1,37.5,0|0,3:3|3:3,3:3:0:0:
416,112,80310,2,0,L|432:160,1,37.5,0|0,3:3|3:3,3:3:0:0:
432,192,80524,2,0,L|384:240,1,37.5,0|0,3:3|3:3,3:3:0:0:
368,256,80739,1,0,3:3:0:0:
240,160,80953,85,2,2:2:0:0:
240,160,81167,1,2,2:2:0:0:
176,64,81381,1,0,3:3:0:0:
288,48,81596,2,0,L|368:48,1,75,0|0,3:3|3:3,3:3:0:0:
496,96,82024,2,0,L|496:176,1,75,0|0,3:3|3:3,3:3:0:0:
352,192,82453,5,2,2:2:0:0:
304,112,82667,1,2,2:2:0:0:
304,224,82881,1,2,2:2:0:0:
256,144,83096,1,2,2:2:0:0:
256,256,83310,1,2,2:2:0:0:
208,176,83524,1,2,2:2:0:0:
208,288,83739,1,2,2:2:0:0:
160,208,83953,1,2,2:2:0:0:
208,288,84274,6,2,L|256:288,3,37.5,2|2|2|2,1:1|1:1|1:1|1:1,1:1:0:0:
160,272,84703,1,0,3:3:0:0:
112,256,84810,1,0,3:3:0:0:
80,224,84917,1,0,3:3:0:0:
64,176,85024,2,0,P|112:160|160:96,1,112.5,0|0,3:3|3:3,3:3:0:0:
192,80,85453,2,0,L|272:80,1,75,0|0,3:3|3:3,3:3:0:0:
320,80,85774,85,0,3:3:0:0:
352,112,85881,1,0,3:3:0:0:
368,160,85989,1,0,3:3:0:0:
368,208,86096,1,0,3:3:0:0:
352,256,86203,1,0,3:3:0:0:
320,288,86310,1,0,3:3:0:0:
272,304,86417,1,0,3:3:0:0:
224,320,86524,6,0,L|160:256,1,75
144,224,86846,1,0,3:3:0:0:
144,176,86953,1,0,3:3:0:0:
160,128,87060,1,0,3:3:0:0:
192,96,87167,1,0,3:3:0:0:
240,80,87274,1,0,3:3:0:0:
288,80,87381,1,0,3:3:0:0:
336,96,87489,1,0,3:3:0:0:
368,128,87596,1,0,3:3:0:0:
512,48,87810,5,2,2:2:0:0:
512,48,88024,1,2,2:2:0:0:
416,144,88239,2,0,P|384:176|368:224,1,75,0|0,3:3|3:3,3:3:0:0:
256,176,88667,2,2,L|208:176,6,25,2|2|2|2|2|2|0,2:2|2:2|2:2|2:2|2:2|2:2|3:3,2:2:0:0:
128,272,89203,85,0,3:3:0:0:
176,272,89310,1,0,3:3:0:0:
224,272,89417,1,0,3:3:0:0:
272,256,89524,1,0,3:3:0:0:
304,224,89631,1,0,3:3:0:0:
320,176,89739,1,0,3:3:0:0:
320,128,89846,1,0,3:3:0:0:
304,80,89953,1,0,3:3:0:0:
272,48,90060,5,2,2:2:0:0:
224,32,90167,2,2,L|144:80,1,75,2|2,2:2|2:2,2:2:0:0:
192,192,90596,2,2,P|224:224|272:224,1,75,2|2,2:2|2:2,2:2:0:0:
336,320,91024,1,4,2:2:0:0:
208,320,91239,5,2,2:2:0:0:
192,192,91453,1,2,2:2:0:0:
64,256,91667,2,2,P|80:304|96:336,1,75,2|2,2:2|2:2,2:2:0:0:
208,320,92096,2,2,L|256:304,3,37.5,2|2|2|2,2:2|2:2|2:2|2:2,2:2:0:0:
256,160,92524,85,0,3:3:0:0:
208,160,92631,1,0,3:3:0:0:
160,176,92739,1,0,3:3:0:0:
128,208,92846,1,0,3:3:0:0:
112,256,92953,1,0,3:3:0:0:
80,288,93060,1,0,3:3:0:0:
32,288,93167,1,0,3:3:0:0:
0,256,93274,1,0,3:3:0:0:
0,208,93381,1,0,3:3:0:0:
16,160,93489,1,0,3:3:0:0:
48,128,93596,6,0,L|80:160,1,37.5,0|0,3:3|3:3,3:3:0:0:
96,112,93810,2,0,L|144:160,1,37.5,0|0,3:3|3:3,3:3:0:0:
144,96,94024,2,0,L|176:128,1,37.5,0|0,3:3|3:3,3:3:0:0:
192,80,94239,2,0,L|240:128,1,37.5,0|0,3:3|3:3,3:3:0:0:
256,144,94453,1,0,3:3:0:0:
400,208,94667,5,2,2:2:0:0:
400,208,94881,1,2,2:2:0:0:
304,288,95096,1,2,2:2:0:0:
192,224,95310,1,2,2:2:0:0:
304,160,95524,2,2,L|304:80,2,75,2|2|2,2:2|2:2|2:2,2:2:0:0:
192,224,96167,86,2,P|160:256|128:224,1,75,2|2,2:2|2:2,2:2:0:0:
128,128,96596,2,2,P|128:80|160:48,1,75,2|2,2:2|2:2,2:2:0:0:
256,96,97024,53,2,2:2:0:0:
352,176,97239,1,2,2:2:0:0:
256,272,97453,2,2,P|192:288|176:272,1,75,2|2,2:2|2:2,2:2:0:0:
96,192,97881,1,4,2:2:0:0:
256,192,111596,101,2,2:2:0:0:
160,112,111810,1,2,2:2:0:0:
256,16,112024,2,0,L|256:96,1,75
256,192,112453,5,2,2:2:0:0:
352,112,112667,1,2,2:2:0:0:
464,192,112881,2,0,L|384:192,1,75
256,192,113310,5,2,2:2:0:0:
352,272,113524,1,2,2:2:0:0:
256,368,113739,2,0,L|256:288,1,75
256,192,114167,21,2,2:2:0:0:
160,272,114381,1,2,2:2:0:0:
48,192,114596,2,0,L|128:192,1,75
256,192,115024,101,0,0:0:0:0:
192,128,115239,2,0,L|128:80,1,75
48,80,115667,1,0,0:0:0:0:
64,160,115881,2,0,L|128:224,1,75
208,256,116310,2,0,P|240:224|288:224,1,75
352,160,116739,102,0,L|368:80,1,75
448,128,117060,2,2,L|480:160,3,37.5,2|2|2|2,2:2|2:2|2:2|2:2,2:2:0:0:
432,256,117596,1,0,0:0:0:0:
320,256,117810,1,0,0:0:0:0:
368,176,118024,1,0,0:0:0:0:
432,256,118239,1,0,0:0:0:0:
320,256,118453,2,0,L|224:256,1,75
160,176,118881,21,2,2:2:0:0:
32,176,119096,1,2,2:2:0:0:
96,272,119310,2,0,L|176:320,1,75
287,319,119739,101,2,2:2:0:0:
240,192,119953,1,2,2:2:0:0:
352,240,120167,2,0,L|416:304,1,75
496,223,120596,101,2,2:2:0:0:
400,144,120810,1,2,2:2:0:0:
368,32,121024,2,0,L|288:64,1,75
256,80,121453,21,4,3:3:0:0:
256,96,121524,1,4,3:3:0:0:
256,112,121596,1,4,3:3:0:0:
256,128,121667,1,4,3:3:0:0:
256,144,121739,1,4,3:3:0:0:
256,224,121881,1,8,3:3:0:0:
256,320,122096,101,2,2:2:0:0:
336,304,122310,1,2,2:2:0:0:
416,256,122524,2,2,P|464:240|464:208,1,75,2|2,2:2|2:2,2:2:0:0:
448,128,122953,1,2,2:2:0:0:
368,96,123167,2,2,L|288:96,1,75,2|2,2:2|2:2,2:2:0:0:
176,48,123596,102,2,P|128:48|96:80,1,75,2|2,2:2|2:2,2:2:0:0:
48,176,124024,2,2,P|48:224|64:256,1,75,2|2,2:2|2:2,2:2:0:0:
128,352,124453,2,2,P|176:352|208:320,1,75,2|2,2:2|2:2,2:2:0:0:
272,240,124881,2,2,P|272:176|256:144,1,75,2|2,2:2|2:2,2:2:0:0:
240,64,125310,22,0,P|288:48|304:64,1,75
400,64,125739,1,2,2:2:0:0:
352,176,125953,1,2,2:2:0:0:
272,304,126167,102,0,P|224:272|240:256,1,75
256,192,126596,1,2,2:2:0:0:
144,176,126810,1,2,2:2:0:0:
48,304,127024,102,0,P|112:336|128:320,1,75
208,336,127453,1,2,2:2:0:0:
192,208,127667,1,2,2:2:0:0:
320,128,127881,22,0,P|368:96|400:96,1,75
304,32,128310,1,2,2:2:0:0:
176,48,128524,1,2,2:2:0:0:
96,144,128739,2,0,P|64:192|64:224,1,75
64,288,129167,1,0,0:0:0:0:
128,336,129381,1,0,0:0:0:0:
208,336,129596,2,0,P|256:336|288:320,1,75
272,240,130024,2,0,P|240:256|192:240,1,75
144,144,130453,102,2,P|96:192|96:224,1,75,2|2,2:2|2:2,2:2:0:0:
144,304,130881,2,2,P|192:256|224:256,1,75,2|2,2:2|2:2,2:2:0:0:
240,128,131310,2,2,P|240:176|256:208,1,75,2|2,2:2|2:2,2:2:0:0:
320,96,131739,2,2,P|352:128|368:176,1,75,2|2,2:2|2:2,2:2:0:0:
368,256,132167,102,0,P|320:288|304:288,1,75
208,288,132596,1,2,2:2:0:0:
128,240,132810,1,2,2:2:0:0:
144,144,133024,2,0,P|176:176|208:208,1,75
288,160,133453,2,2,P|336:144|384:160,1,75,2|2,2:2|2:2,2:2:0:0:
448,112,133881,21,0,0:0:0:0:
368,64,134096,2,0,P|320:48|288:80,1,75,0|2,0:0|2:2,0:0:0:0:
288,160,134524,1,2,2:2:0:0:
368,144,134739,2,0,P|432:144|448:112,1,75
368,64,135167,1,2,2:2:0:0:
256,64,135381,1,2,2:2:0:0:
256,192,135596,101,2,2:2:0:0:
256,320,135810,1,2,2:2:0:0:
160,240,136024,101,2,2:2:0:0:
192,112,136239,1,2,2:2:0:0:
320,112,136453,21,2,2:2:0:0:
352,240,136667,1,2,2:2:0:0:
256,320,136881,101,2,2:2:0:0:
256,192,137096,1,2,2:2:0:0:
288,320,137310,102,2,L|208:320,1,75,2|2,2:2|2:2,2:2:0:0:
144,240,137739,2,2,L|208:192,1,75,2|2,2:2|2:2,2:2:0:0:
304,192,138167,2,2,L|368:256,1,75,2|2,2:2|2:2,2:2:0:0:
256,288,138596,2,2,L|256:208,1,75,2|2,2:2|2:2,2:2:0:0:
256,112,139024,1,4,2:2:0:0:
416,272,145881,86,0,P|384:304|352:320,1,75
304,240,146310,2,2,P|352:208|368:176,1,75,2|2,2:2|2:2,2:2:0:0:
304,128,146739,2,0,P|272:160|240:176,1,75
160,144,147167,1,2,2:2:0:0:
208,240,147381,1,2,2:2:0:0:
96,272,147596,6,0,P|128:304|160:320,1,75
208,240,148025,2,2,P|160:208|144:176,1,75,2|2,2:2|2:2,2:2:0:0:
240,144,148452,2,0,P|272:176|304:192,1,75
352,128,148881,1,2,2:2:0:0:
304,224,149095,1,2,2:2:0:0:
256,304,149310,85,0,0:0:0:0:
192,224,149524,1,0,0:0:0:0:
304,224,149739,1,0,0:0:0:0:
256,144,149953,1,0,0:0:0:0:
192,208,150167,2,0,L|192:288,1,75
304,288,150596,2,0,L|304:208,1,75
256,80,151024,86,2,L|256:160,1,75,2|2,2:2|2:2,2:2:0:0:
256,256,151453,2,2,L|256:336,1,75,2|2,2:2|2:2,2:2:0:0:
192,256,151881,1,2,2:2:0:0:
208,160,152096,1,2,2:2:0:0:
304,160,152310,1,2,2:2:0:0:
320,256,152524,1,2,2:2:0:0:
256,192,152739,12,0,153596,0:0:0:0:
288,160,153810,5,0,3:3:0:0:
224,224,154024,1,8,3:3:0:0:
256,192,154239,12,0,155310,0:0:0:0:
144,112,155739,101,8,3:3:0:0:
192,160,155881,1,8,3:3:0:0:
208,176,155953,1,8,3:3:0:0:
224,192,156024,1,8,3:3:0:0:
272,240,156167,2,0,B|304:272|336:240|336:240|336:192|384:192|400:160|400:160|368:96|336:128|336:48|336:48|288:48|304:176,1,450.000017166138
192,176,157239,5,8,3:3:0:0:
96,256,157453,1,8,3:3:0:0:
192,320,157667,2,0,L|288:320,1,56.2500021457672
352,272,157989,1,0,0:0:0:0:
256,192,158203,1,0,0:0:0:0:
256,64,158417,1,0,0:0:0:0:
256,64,158524,1,0,0:0:0:0:
256,192,158739,2,2,B|208:224|192:272|192:272|176:224|96:192,2,225.000008583069,2|2|4,2:2|2:2|2:2,2:2:0:0:
288,160,159703,5,0,2:2:0:0:
336,160,159810,1,0,0:0:0:0:
384,176,159917,1,0,0:0:0:0:
416,208,160024,1,2,2:2:0:0:
432,256,160131,1,0,0:0:0:0:
432,304,160239,1,2,2:2:0:0:
272,320,160453,86,0,L|144:304,1,112.500004291534
176,160,160881,2,2,L|304:176,1,112.500004291534,2|2,2:2|2:2,2:2:0:0:
400,272,161310,6,0,L|272:256,1,112.500004291534
192,256,161739,1,2,2:2:0:0:
144,240,161846,1,0,0:0:0:0:
112,208,161953,1,2,2:2:0:0:
96,160,162060,1,0,0:0:0:0:
96,112,162167,2,0,P|128:64|192:48,1,112.500004291534
272,48,162596,2,2,P|224:80|208:144,1,112.500004291534,2|2,2:2|2:2,2:2:0:0:
160,272,163024,5,0,0:0:0:0:
192,304,163131,1,0,0:0:0:0:
240,320,163239,1,0,0:0:0:0:
288,320,163346,1,0,0:0:0:0:
336,304,163453,1,0,0:0:0:0:
368,272,163560,1,0,0:0:0:0:
384,224,163667,1,0,0:0:0:0:
384,176,163774,1,0,0:0:0:0:
368,128,163881,85,0,0:0:0:0:
336,96,163989,1,0,0:0:0:0:
288,80,164096,1,0,0:0:0:0:
240,80,164203,1,0,0:0:0:0:
192,96,164310,1,0,0:0:0:0:
160,128,164417,1,0,0:0:0:0:
144,176,164524,1,0,0:0:0:0:
144,224,164631,1,2,2:2:0:0:
288,240,164739,6,2,L|400:176,1,112.500004291534,2|2,2:2|2:2,2:2:0:0:
384,64,165167,2,2,L|240:128,1,112.500004291534,2|2,2:2|2:2,2:2:0:0:
224,256,165596,2,2,L|96:320,1,112.500004291534,2|2,2:2|2:2,2:2:0:0:
128,176,166024,2,2,L|272:112,1,112.500004291534,2|2,2:2|2:2,2:2:0:0:
368,192,166453,1,4,2:2:0:0:
256,192,173310,12,0,176739,3:3:0:0:
128,304,177167,5,0,3:3:0:0:
224,304,177381,1,0,3:3:0:0:
288,240,177596,1,0,3:3:0:0:
288,144,177810,1,0,3:3:0:0:
224,64,178024,1,0,3:3:0:0:
128,64,178239,1,0,3:3:0:0:
16,64,178453,86,0,L|80:64,1,37.5,0|0,3:3|3:3,3:3:0:0:
16,112,178667,2,0,L|64:112,1,37.5,0|0,3:3|3:3,3:3:0:0:
16,160,178881,2,0,L|64:160,1,37.5,0|0,3:3|3:3,3:3:0:0:
16,208,179096,2,0,L|64:208,1,37.5,0|0,3:3|3:3,3:3:0:0:
16,256,179310,2,0,L|64:256,1,37.5,0|0,3:3|3:3,3:3:0:0:
16,304,179524,2,0,L|64:304,1,37.5,0|0,3:3|3:3,3:3:0:0:
16,352,179739,1,4,2:2:0:0:
144,256,180167,6,2,L|80:320,2,75,2|2|2,2:2|2:2|2:2,2:2:0:0:
240,160,180810,1,2,2:2:0:0:
336,240,181024,2,2,L|368:240,6,25,2|2|2|2|2|2|4,2:2|2:2|2:2|2:2|2:2|2:2|2:2,2:2:0:0:
336,112,181667,5,0,3:3:0:0:
384,128,181774,1,0,3:3:0:0:
416,160,181881,1,0,3:3:0:0:
432,208,181989,1,0,3:3:0:0:
432,256,182096,1,0,3:3:0:0:
416,304,182203,1,0,3:3:0:0:
384,336,182310,1,0,3:3:0:0:
336,352,182417,1,0,3:3:0:0:
288,352,182524,86,0,P|256:352|240:352,1,37.5,0|0,3:3|3:3,3:3:0:0:
192,336,182738,2,0,L|240:288,1,37.5,0|0,3:3|3:3,3:3:0:0:
160,288,182952,2,0,L|208:240,1,37.5,0|0,3:3|3:3,3:3:0:0:
144,240,183167,2,0,L|176:208,1,37.5,0|0,3:3|3:3,3:3:0:0:
128,176,183381,1,0,3:3:0:0:
224,128,183596,1,0,3:3:0:0:
320,176,183810,5,2,2:2:0:0:
320,176,184024,1,2,2:2:0:0:
336,80,184239,2,0,L|288:16,1,75
224,128,184667,2,2,L|224:192,4,37.5,2|2|2|2|2,2:2|2:2|2:2|2:2|2:2,2:2:0:0:
64,160,185310,6,2,L|16:192,2,37.5
96,208,185631,1,0,3:3:0:0:
128,240,185739,1,0,3:3:0:0:
176,256,185846,1,0,3:3:0:0:
224,256,185953,2,0,P|240:208|272:192,1,75,0|2,3:3|3:3,3:3:0:0:
256,80,186381,101,2,2:2:0:0:
368,32,186596,1,2,2:2:0:0:
432,160,186810,1,2,2:2:0:0:
320,208,187024,1,4,2:2:0:0:
192,128,187239,102,0,L|224:80,1,37.5,0|0,3:3|3:3,3:3:0:0:
112,112,187453,2,0,L|144:64,1,37.5,0|0,3:3|3:3,3:3:0:0:
32,96,187667,2,0,L|80:32,1,75,0|0,3:3|3:3,3:3:0:0:
64,192,188096,2,2,L|64:240,2,37.5,2|2|2,2:2|2:2|2:2,2:2:0:0:
224,128,188524,5,0,3:3:0:0:
256,160,188631,1,0,3:3:0:0:
272,208,188739,1,0,3:3:0:0:
272,256,188846,1,0,3:3:0:0:
288,304,188953,1,0,3:3:0:0:
320,336,189060,1,0,3:3:0:0:
368,336,189167,1,0,3:3:0:0:
416,320,189274,1,0,3:3:0:0:
448,288,189381,6,0,P|480:256|480:224,1,75,0|0,3:3|3:3,3:3:0:0:
480,176,189703,2,0,L|432:176,1,37.5,0|0,3:3|3:3,3:3:0:0:
400,176,189917,2,0,L|352:128,1,37.5,0|0,3:3|3:3,3:3:0:0:
336,112,190131,2,0,L|304:144,1,37.5,0|0,3:3|3:3,3:3:0:0:
256,128,190346,2,0,L|208:96,1,37.5,0|0,3:3|3:3,3:3:0:0:
80,96,190667,85,2,2:2:0:0:
80,96,190881,1,2,2:2:0:0:
160,208,191096,2,0,L|176:272,1,50
240,224,191310,2,0,L|208:192,1,37.5,0|0,3:3|0:0,0:0:0:0:
208,80,191524,2,0,L|256:128,1,37.5,4|0,3:3|0:0,0:0:0:0:
352,64,191739,2,0,L|336:128,1,50,8|0,3:3|0:0,0:0:0:0:
336,160,192060,6,2,L|320:208,2,37.5
288,240,192381,1,0,3:3:0:0:
256,272,192489,1,0,3:3:0:0:
208,288,192596,1,0,3:3:0:0:
160,288,192703,1,0,3:3:0:0:
112,272,192810,1,0,3:3:0:0:
80,240,192917,1,0,3:3:0:0:
48,128,193024,6,2,L|112:128,1,37.5,2|2,0:0|0:0,0:0:0:0:
144,48,193239,1,2,0:0:0:0:
208,128,193346,2,2,P|256:96|288:96,2,75,2|2|2,0:0|0:0|0:0,0:0:0:0:
240,240,193881,86,2,L|288:240,1,37.5,2|2,2:2|2:2,2:2:0:0:
368,160,194096,2,2,L|368:208,1,37.5,2|2,2:2|2:2,2:2:0:0:
368,320,194310,2,2,L|416:288,1,37.5,2|2,2:2|2:2,2:2:0:0:
480,192,194524,2,2,L|432:224,1,37.5,2|2,2:2|2:2,2:2:0:0:
336,272,194739,2,2,L|304:304,6,25,2|2|2|2|2|2|2,1:1|1:1|1:1|1:1|1:1|1:1|1:1,1:1:0:0:
400,128,195381,5,0,3:3:0:0:
368,96,195489,1,0,3:3:0:0:
336,64,195596,1,0,3:3:0:0:
288,48,195703,1,0,3:3:0:0:
240,48,195810,1,0,3:3:0:0:
192,64,195917,1,0,3:3:0:0:
160,96,196024,2,0,L|112:144,1,37.5,0|0,3:3|3:3,3:3:0:0:
96,160,196239,2,0,L|64:192,1,37.5,0|0,3:3|3:3,3:3:0:0:
48,224,196453,5,0,0:0:0:0:
96,352,196667,1,0,0:0:0:0:
176,256,196881,2,0,L|240:224,2,37.5
48,224,197310,85,0,0:0:0:0:
96,112,197524,2,0,L|144:144,1,37.5
176,160,197739,2,0,B|224:128|224:96|224:96,2,75
160,176,198274,2,0,L|128:208,1,37.5
80,256,198489,2,0,B|128:288|128:256|176:272|208:304,1,112.5
272,208,199024,6,0,P|320:192|368:208,1,75
448,256,199453,1,0,0:0:0:0:
320,304,199667,2,0,L|272:320,3,37.5
208,224,200203,2,0,B|224:176|224:176|240:224|304:192|288:176,1,112.5
384,96,200739,5,0,0:0:0:0:
304,64,200953,1,0,0:0:0:0:
352,144,201167,1,2,2:2:0:0:
272,112,201381,1,2,2:2:0:0:
320,224,201596,86,0,P|256:256|240:288,1,75
128,208,202024,1,2,2:2:0:0:
208,288,202239,1,2,2:2:0:0:
320,320,202453,6,0,P|368:288|384:256,1,75
288,192,202881,2,2,P|288:256|256:272,1,75,2|2,2:2|2:2,2:2:0:0:
176,304,203310,5,0,0:0:0:0:
112,240,203524,1,0,0:0:0:0:
208,256,203739,1,2,2:2:0:0:
144,192,203953,1,2,2:2:0:0:
144,64,204167,86,0,P|176:32|208:32,1,75
272,128,204596,2,0,P|224:160|208:176,1,75
288,272,205024,5,0,0:0:0:0:
400,240,205239,1,0,0:0:0:0:
336,128,205453,2,0,L|272:192,1,75
208,272,205881,5,2,2:2:0:0:
96,288,206096,2,2,P|48:272|48:224,1,75,2|2,2:2|2:2,2:2:0:0:
64,128,206524,1,2,2:2:0:0:
160,192,206739,1,2,2:2:0:0:
128,80,206953,1,2,2:2:0:0:
240,112,207167,2,2,B|303:174|303:174,2,75,2|2|6,2:2|2:2|2:2,2:2:0:0:
80,32,214453,6,0,P|80:80|112:96,1,75
192,96,214881,1,2,2:2:0:0:
320,96,215096,1,2,2:2:0:0:
448,96,215310,6,0,P|448:128|416:176,1,75
320,160,215739,1,2,2:2:0:0:
192,160,215953,1,2,2:2:0:0:
64,160,216167,6,0,P|64:208|112:224,1,75
192,224,216596,1,2,2:2:0:0:
320,224,216810,1,2,2:2:0:0:
448,224,217024,86,0,P|448:272|416:288,1,75
320,288,217453,1,2,2:2:0:0:
192,288,217667,1,2,2:2:0:0:
64,288,217881,6,0,L|112:224,1,75
176,160,218310,1,2,2:2:0:0:
256,64,218524,1,2,2:2:0:0:
336,160,218739,6,0,L|384:224,1,75
448,288,219167,1,2,2:2:0:0:
320,320,219381,1,2,2:2:0:0:
192,320,219596,86,2,P|160:288|144:256,1,75,2|2,2:2|2:2,2:2:0:0:
144,128,220024,2,2,P|176:96|208:80,1,75,2|2,2:2|2:2,2:2:0:0:
320,80,220453,2,2,P|352:112|368:144,1,75,2|2,2:2|2:2,2:2:0:0:
368,272,220882,2,2,P|336:304|304:320,1,75,2|2,2:2|2:2,2:2:0:0:
192,320,221310,1,4,0:0:0:0:
