osu file format v14

[General]
AudioFilename: audio.mp3
AudioLeadIn: 0
PreviewTime: 164584
Countdown: 0
SampleSet: Normal
StackLeniency: 0.7
Mode: 1
LetterboxInBreaks: 0
WidescreenStoryboard: 1

[Editor]
Bookmarks: 56279,87232,102709,110447,118185,125923,133661,164614,172350,180092,187820,195576,203305,211043,218782,226520,234258,241996,249734,257472,265211,272949,280687,288425
DistanceSpacing: 1.5
BeatDivisor: 4
GridSize: 32
TimelineZoom: 2.340001

[Metadata]
Title:Contact (Cut Ver.)
TitleUnicode:Contact (Cut Ver.)
Artist:Daft Punk
ArtistUnicode:Daft Punk
Creator:Blackener
Version:Oni
Source:
Tags:RAM Random Access Memory Memories Thomas Bangalter Guy-Manuel de Homem-Christo The Sherbs Sherbet We Ride Tonight Defying Gravity electronic instrumental
BeatmapID:2706949
BeatmapSetID:1287218

[Difficulty]
HPDrainRate:5.5
CircleSize:5
OverallDifficulty:5.5
ApproachRate:5
SliderMultiplier:1.4
SliderTickRate:1

[Events]
//Background and Video events
0,0,"BG.png",0,0
//Break Periods
//Storyboard Layer 0 (Background)
//Storyboard Layer 1 (Fail)
//Storyboard Layer 2 (Pass)
//Storyboard Layer 3 (Foreground)
//Storyboard Layer 4 (Overlay)
//Storyboard Sound Samples

[TimingPoints]
56405,483.63694986297,4,1,0,55,1,0
87357,-100,4,1,0,50,0,0
102803,-95.2380952380952,4,1,0,55,0,0
102834,-95.2380952380952,4,1,0,60,0,0
117796,-94.3396226415094,4,1,0,60,0,0
117917,-93.4579439252336,4,1,0,60,0,0
118038,-92.5925925925926,4,1,0,60,0,0
118310,-90.9090909090909,4,1,0,60,0,0
133786,-95.2380952380952,4,1,0,55,0,0
135691,-100,4,1,0,55,0,0
164709,-90.9090909090909,4,1,0,55,0,0
164739,-90.9090909090909,4,1,0,60,0,0
195662,-90.8876019383052,4,1,0,60,0,0
195692,-90.9090909090909,4,1,0,65,0,1
195782,-90.8661231241876,4,1,0,65,0,1
195903,-90.8446544595393,4,1,0,65,0,1
196024,-90.8231959371678,4,1,0,65,0,1
196145,-90.8017475498878,4,1,0,65,0,1
196266,-90.7803092905206,4,1,0,65,0,1
196387,-90.7588811518942,4,1,0,65,0,1
196508,-90.7374631268437,4,1,0,65,0,1
196629,-90.7160552082104,4,1,0,65,0,1
196750,-90.694657388843,4,1,0,65,0,1
196871,-90.6732696615965,4,1,0,65,0,1
196992,-90.6518920193328,4,1,0,65,0,1
197112,-90.6305244549204,4,1,0,65,0,1
197233,-90.6091669612348,4,1,0,65,0,1
197354,-90.5878195311579,4,1,0,65,0,1
197475,-90.5664821575786,4,1,0,65,0,1
197596,-90.5451548333922,4,1,0,65,0,1
197717,-90.5238375515009,4,1,0,65,0,1
197838,-90.5025303048135,4,1,0,65,0,1
197959,-90.4812330862454,4,1,0,65,0,1
198080,-90.459945888719,4,1,0,65,0,1
198201,-90.4386687051629,4,1,0,65,0,1
198322,-90.4174015285126,4,1,0,65,0,1
198442,-90.3961443517103,4,1,0,65,0,1
198563,-90.3748971677048,4,1,0,65,0,1
198684,-90.3536599694513,4,1,0,65,0,1
198805,-90.3324327499119,4,1,0,65,0,1
198926,-90.3112155020552,4,1,0,65,0,1
199047,-90.2900082188564,4,1,0,65,0,1
199168,-90.2688108932973,4,1,0,65,0,1
199289,-90.2476235183664,4,1,0,65,0,1
199410,-90.2264460870585,4,1,0,65,0,1
199531,-90.2052785923754,4,1,0,65,0,1
199652,-90.184121027325,4,1,0,65,0,1
199772,-90.162973384922,4,1,0,65,0,1
199893,-90.1418356581878,4,1,0,65,0,1
200014,-90.12070784015,4,1,0,65,0,1
200135,-90.099589923843,4,1,0,65,0,1
200256,-90.0784819023076,4,1,0,65,0,1
200377,-90.0573837685912,4,1,0,65,0,1
200498,-90.0362955157476,4,1,0,65,0,1
200619,-90.0152171368372,4,1,0,65,0,1
200740,-89.9941486249269,4,1,0,65,0,1
200861,-89.97308997309,4,1,0,65,0,1
200982,-89.9520411744064,4,1,0,65,0,1
201102,-89.9310022219623,4,1,0,65,0,1
201223,-89.9099731088507,4,1,0,65,0,1
201344,-89.8889538281706,4,1,0,65,0,1
201465,-89.8679443730279,4,1,0,65,0,1
201586,-89.8469447365346,4,1,0,65,0,1
201707,-89.8259549118094,4,1,0,65,0,1
201828,-89.8049748919771,4,1,0,65,0,1
201949,-89.7840046701693,4,1,0,65,0,1
202070,-89.7630442395238,4,1,0,65,0,1
202191,-89.7420935931847,4,1,0,65,0,1
202312,-89.7211527243029,4,1,0,65,0,1
202432,-89.7002216260352,4,1,0,65,0,1
202553,-89.6793002915452,4,1,0,65,0,1
202674,-89.6583887140026,4,1,0,65,0,1
202795,-89.6374868865835,4,1,0,65,0,1
202916,-89.6165948024706,4,1,0,65,0,1
203037,-89.5957124548526,4,1,0,65,0,1
203158,-89.5748398369249,4,1,0,65,0,1
203279,-89.5539769418889,4,1,0,65,0,1
203400,-89.5331237629526,4,1,0,65,0,1
203521,-89.5122802933302,4,1,0,65,0,1
203642,-89.4914465262423,4,1,0,65,0,1
203762,-89.4706224549157,4,1,0,65,0,1
203883,-89.4498080725835,4,1,0,65,0,1
204004,-89.4290033724852,4,1,0,65,0,1
204125,-89.4082083478665,4,1,0,65,0,1
204246,-89.3874229919795,4,1,0,65,0,1
204367,-89.3666472980825,4,1,0,65,0,1
204488,-89.34588125944,4,1,0,65,0,1
204609,-89.3251248693228,4,1,0,65,0,1
204730,-89.304378121008,4,1,0,65,0,1
204851,-89.2836410077789,4,1,0,65,0,1
204972,-89.2629135229251,4,1,0,65,0,1
205092,-89.2421956597424,4,1,0,65,0,1
205213,-89.2214874115326,4,1,0,65,0,1
205334,-89.2007887716042,4,1,0,65,0,1
205455,-89.1800997332715,4,1,0,65,0,1
205576,-89.1594202898551,4,1,0,65,0,1
205697,-89.1387504346818,4,1,0,65,0,1
205818,-89.1180901610847,4,1,0,65,0,1
205939,-89.097439462403,4,1,0,65,0,1
206060,-89.0767983319819,4,1,0,65,0,1
206181,-89.0561667631731,4,1,0,65,0,1
206302,-89.0355447493343,4,1,0,65,0,1
206422,-89.0149322838291,4,1,0,65,0,1
206543,-88.9943293600278,4,1,0,65,0,1
206664,-88.9737359713063,4,1,0,65,0,1
206785,-88.9531521110468,4,1,0,65,0,1
206906,-88.9325777726379,4,1,0,65,0,1
207027,-88.9120129494739,4,1,0,65,0,1
207148,-88.8914576349555,4,1,0,65,0,1
207269,-88.8709118224893,4,1,0,65,0,1
207390,-88.8503755054881,4,1,0,65,0,1
207511,-88.8298486773709,4,1,0,65,0,1
207632,-88.8093313315625,4,1,0,65,0,1
207752,-88.788823461494,4,1,0,65,0,1
207873,-88.7683250606026,4,1,0,65,0,1
207994,-88.7478361223312,4,1,0,65,0,1
208115,-88.7273566401292,4,1,0,65,0,1
208236,-88.7068866074518,4,1,0,65,0,1
208357,-88.6864260177603,4,1,0,65,0,1
208478,-88.6659748645221,4,1,0,65,0,1
208599,-88.6455331412104,4,1,0,65,0,1
208720,-88.6251008413046,4,1,0,65,0,1
208841,-88.6046779582901,4,1,0,65,0,1
208962,-88.5842644856583,4,1,0,65,0,1
209082,-88.5638604169066,4,1,0,65,0,1
209203,-88.5434657455383,4,1,0,65,0,1
209324,-88.5230804650627,4,1,0,65,0,1
209445,-88.5027045689953,4,1,0,65,0,1
209566,-88.4823380508572,4,1,0,65,0,1
209687,-88.4619809041758,4,1,0,65,0,1
209808,-88.4416331224842,4,1,0,65,0,1
209929,-88.4212946993216,4,1,0,65,0,1
210050,-88.4009656282331,4,1,0,65,0,1
210171,-88.3806459027698,4,1,0,65,0,1
210292,-88.3603355164885,4,1,0,65,0,1
210412,-88.3400344629523,4,1,0,65,0,1
210533,-88.3197427357299,4,1,0,65,0,1
210654,-88.2994603283959,4,1,0,65,0,1
210775,-88.279187234531,4,1,0,65,0,1
210896,-88.2589234477218,4,1,0,65,0,1
211017,-88.2386689615605,4,1,0,65,0,1
211138,-88.2184237696455,4,1,0,65,0,1
211259,-88.1981878655809,4,1,0,65,0,1
211380,-88.1779612429767,4,1,0,65,0,1
211501,-88.1577438954488,4,1,0,65,0,1
211622,-88.1375358166189,4,1,0,65,0,1
211742,-88.1173370001146,4,1,0,65,0,1
211863,-88.0971474395692,4,1,0,65,0,1
211984,-88.0769671286222,4,1,0,65,0,1
212105,-88.0567960609184,4,1,0,65,0,1
212226,-88.0366342301088,4,1,0,65,0,1
212347,-88.01648162985,4,1,0,65,0,1
212468,-87.9963382538048,4,1,0,65,0,1
212589,-87.9762040956412,4,1,0,65,0,1
212710,-87.9560791490335,4,1,0,65,0,1
212831,-87.9359634076615,4,1,0,65,0,1
212952,-87.9158568652109,4,1,0,65,0,1
213072,-87.8957595153732,4,1,0,65,0,1
213193,-87.8756713518455,4,1,0,65,0,1
213314,-87.8555923683308,4,1,0,65,0,1
213435,-87.835522558538,4,1,0,65,0,1
213556,-87.8154619161813,4,1,0,65,0,1
213677,-87.7954104349812,4,1,0,65,0,1
213798,-87.7753681086634,4,1,0,65,0,1
213919,-87.7553349309597,4,1,0,65,0,1
214040,-87.7353108956075,4,1,0,65,0,1
214161,-87.71529599635,4,1,0,65,0,1
214282,-87.6952902269358,4,1,0,65,0,1
214402,-87.6752935811196,4,1,0,65,0,1
214523,-87.6553060526616,4,1,0,65,0,1
214644,-87.6353276353276,4,1,0,65,0,1
214765,-87.6153583228894,4,1,0,65,0,1
214886,-87.595398109124,4,1,0,65,0,1
215007,-87.5754469878146,4,1,0,65,0,1
215128,-87.5555049527496,4,1,0,65,0,1
215249,-87.5355719977234,4,1,0,65,0,1
215370,-87.5156481165358,4,1,0,65,0,1
215491,-87.4957333029924,4,1,0,65,0,1
215612,-87.4758275509043,4,1,0,65,0,1
215732,-87.4559308540885,4,1,0,65,0,1
215853,-87.4360432063673,4,1,0,65,0,1
215974,-87.4161646015687,4,1,0,65,0,1
216095,-87.3962950335265,4,1,0,65,0,1
216216,-87.37643449608,4,1,0,65,0,1
216337,-87.3565829830739,4,1,0,65,0,1
216458,-87.3367404883589,4,1,0,65,0,1
216579,-87.3169070057908,4,1,0,65,0,1
216700,-87.2970825292315,4,1,0,65,0,1
216821,-87.2772670525479,4,1,0,65,0,1
216942,-87.2574605696131,4,1,0,65,0,1
217062,-87.2376630743052,4,1,0,65,0,1
217183,-87.2178745605081,4,1,0,65,0,1
217304,-87.1980950221113,4,1,0,65,0,1
217425,-87.1783244530099,4,1,0,65,0,1
217546,-87.1585628471042,4,1,0,65,0,1
217667,-87.1388101983003,4,1,0,65,0,1
217788,-87.1190665005098,4,1,0,65,0,1
217909,-87.0993317476498,4,1,0,65,0,1
218030,-87.0796059336428,4,1,0,65,0,1
218151,-87.0598890524171,4,1,0,65,0,1
218272,-87.0401810979061,4,1,0,65,0,1
218392,-87.0204820640489,4,1,0,65,0,1
218513,-87.0007919447901,4,1,0,65,0,1
218634,-86.9811107340798,4,1,0,65,0,1
218755,-86.9614384258736,4,1,0,65,0,1
218876,-86.9417750141323,4,1,0,65,0,1
218997,-86.9221204928224,4,1,0,65,0,1
219118,-86.9024748559159,4,1,0,65,0,1
219239,-86.8828380973901,4,1,0,65,0,1
219360,-86.8632102112278,4,1,0,65,0,1
219481,-86.8435911914173,4,1,0,65,0,1
219602,-86.8239810319521,4,1,0,65,0,1
219722,-86.8043797268315,4,1,0,65,0,1
219843,-86.7847872700598,4,1,0,65,0,1
219964,-86.7652036556471,4,1,0,65,0,1
220085,-86.7456288776086,4,1,0,65,0,1
220206,-86.726062929965,4,1,0,65,0,1
220327,-86.7065058067426,4,1,0,65,0,1
220448,-86.6869575019727,4,1,0,65,0,1
220569,-86.6674180096923,4,1,0,65,0,1
220690,-86.6478873239437,4,1,0,65,0,1
220811,-86.6283654387744,4,1,0,65,0,1
220932,-86.6088523482374,4,1,0,65,0,1
221052,-86.5893480463912,4,1,0,65,0,1
221173,-86.5698525272993,4,1,0,65,0,1
221294,-86.550365785031,4,1,0,65,0,1
221415,-86.5308878136604,4,1,0,65,0,1
221536,-86.5114186072674,4,1,0,65,0,1
221657,-86.491958159937,4,1,0,65,0,1
221778,-86.4725064657596,4,1,0,65,0,1
221899,-86.4530635188308,4,1,0,65,0,1
222020,-86.4336293132517,4,1,0,65,0,1
222141,-86.4142038431284,4,1,0,65,0,1
222262,-86.3947871025727,4,1,0,65,0,1
222382,-86.3753790857014,4,1,0,65,0,1
222503,-86.3559797866367,4,1,0,65,0,1
222624,-86.336589199506,4,1,0,65,0,1
222745,-86.317207318442,4,1,0,65,0,1
222866,-86.2978341375828,4,1,0,65,0,1
222987,-86.2784696510715,4,1,0,65,0,1
223108,-86.2591138530566,4,1,0,65,0,1
223229,-86.2397667376921,4,1,0,65,0,1
223350,-86.2204282991367,4,1,0,65,0,1
223471,-86.2010985315547,4,1,0,65,0,1
223592,-86.1817774291158,4,1,0,65,0,1
223712,-86.1624649859944,4,1,0,65,0,1
223833,-86.1431611963706,4,1,0,65,0,1
223954,-86.1238660544294,4,1,0,65,0,1
224075,-86.1045795543612,4,1,0,65,0,1
224196,-86.0853016903616,4,1,0,65,0,1
224317,-86.0660324566312,4,1,0,65,0,1
224438,-86.0467718473761,4,1,0,65,0,1
224559,-86.0275198568072,4,1,0,65,0,1
224680,-86.008276479141,4,1,0,65,0,1
224801,-85.9890417085989,4,1,0,65,0,1
224922,-85.9698155394075,4,1,0,65,0,1
225042,-85.9505979657986,4,1,0,65,0,1
225163,-85.9313889820092,4,1,0,65,0,1
225284,-85.9121885822813,4,1,0,65,0,1
225405,-85.8929967608623,4,1,0,65,0,1
225526,-85.8738135120045,4,1,0,65,0,1
225647,-85.8546388299654,4,1,0,65,0,1
225768,-85.8354727090077,4,1,0,65,0,1
225889,-85.8163151433992,4,1,0,65,0,1
226010,-85.7971661274127,4,1,0,65,0,1
226131,-85.7780256553263,4,1,0,65,0,1
226252,-85.758893721423,4,1,0,65,0,1
226372,-85.7397703199911,4,1,0,65,0,1
226493,-85.7206554453238,4,1,0,65,0,1
226614,-85.7015490917196,4,1,0,65,0,1
226735,-85.6824512534819,4,1,0,65,0,1
226856,-85.6633619249192,4,1,0,65,0,1
226977,-85.6442811003452,4,1,0,65,0,1
227098,-85.6252087740786,4,1,0,65,0,1
227219,-85.6061449404431,4,1,0,65,0,1
227340,-85.5870895937674,4,1,0,65,0,1
227461,-85.5680427283854,4,1,0,65,0,1
227582,-85.5490043386361,4,1,0,65,0,1
227702,-85.5299744188633,4,1,0,65,0,1
227823,-85.510952963416,4,1,0,65,0,1
227944,-85.4919399666481,4,1,0,65,0,1
228065,-85.4729354229188,4,1,0,65,0,1
228186,-85.4539393265918,4,1,0,65,0,1
228307,-85.4349516720364,4,1,0,65,0,1
228428,-85.4159724536266,4,1,0,65,0,1
228549,-85.3970016657412,4,1,0,65,0,1
228670,-85.3780393027645,4,1,0,65,0,1
228791,-85.3590853590854,4,1,0,65,0,1
228912,-85.3401398290978,4,1,0,65,0,1
229032,-85.3212027072007,4,1,0,65,0,1
229153,-85.3022739877981,4,1,0,65,0,1
229274,-85.2833536652989,4,1,0,65,0,1
229395,-85.2644417341168,4,1,0,65,0,1
229516,-85.2455381886709,4,1,0,65,0,1
229637,-85.2266430233847,4,1,0,65,0,1
229758,-85.207756232687,4,1,0,65,0,1
229879,-85.1888778110114,4,1,0,65,0,1
230000,-85.1700077527965,4,1,0,65,0,1
230121,-85.1511460524859,4,1,0,65,0,1
230242,-85.1322927045278,4,1,0,65,0,1
230362,-85.1134477033758,4,1,0,65,0,1
230483,-85.0946110434879,4,1,0,65,0,1
230604,-85.0757827193274,4,1,0,65,0,1
230725,-85.0569627253622,4,1,0,65,0,1
230846,-85.0381510560655,4,1,0,65,0,1
230967,-85.0193477059149,4,1,0,65,0,1
231088,-85.0005526693932,4,1,0,65,0,1
231209,-84.981765940988,4,1,0,65,0,1
231330,-84.9629875151917,4,1,0,65,0,1
231451,-84.9442173865017,4,1,0,65,0,1
231572,-84.9254555494202,4,1,0,65,0,1
231692,-84.9067019984542,4,1,0,65,0,1
231813,-84.8879567281157,4,1,0,65,0,1
231934,-84.8692197329213,4,1,0,65,0,1
232055,-84.8504910073927,4,1,0,65,0,1
232176,-84.8317705460563,4,1,0,65,0,1
232297,-84.8130583434433,4,1,0,65,0,1
232418,-84.7943543940897,4,1,0,65,0,1
232539,-84.7756586925367,4,1,0,65,0,1
232660,-84.7569712333297,4,1,0,65,0,1
232781,-84.7382920110193,4,1,0,65,0,1
232902,-84.7196210201608,4,1,0,65,0,1
233022,-84.7009582553145,4,1,0,65,0,1
233143,-84.682303711045,4,1,0,65,0,1
233264,-84.6636573819223,4,1,0,65,0,1
233385,-84.6450192625206,4,1,0,65,0,1
233506,-84.6263893474194,4,1,0,65,0,1
233627,-84.6077676312025,4,1,0,65,0,1
233748,-84.5891541084589,4,1,0,65,0,1
233869,-84.570548773782,4,1,0,65,0,1
233990,-84.5519516217702,4,1,0,65,0,1
234111,-84.5333626470265,4,1,0,65,0,1
234232,-84.5147818441587,4,1,0,65,0,1
234352,-84.4962092077794,4,1,0,65,0,1
234473,-84.4776447325058,4,1,0,65,0,1
234594,-84.4590884129599,4,1,0,65,0,1
234715,-84.4405402437685,4,1,0,65,0,1
234836,-84.4220002195631,4,1,0,65,0,1
234957,-84.4034683349797,4,1,0,65,0,1
235078,-84.3849445846593,4,1,0,65,0,1
235199,-84.3664289632474,4,1,0,65,0,1
235320,-84.3479214653943,4,1,0,65,0,1
235441,-84.329422085755,4,1,0,65,0,1
235562,-84.3109308189891,4,1,0,65,0,1
235682,-84.292447659761,4,1,0,65,0,1
235803,-84.2739726027397,4,1,0,65,0,1
235924,-84.2555056425989,4,1,0,65,0,1
236045,-84.2370467740169,4,1,0,65,0,1
236166,-84.2185959916767,4,1,0,65,0,1
236287,-84.2001532902661,4,1,0,65,0,1
236408,-84.1817186644773,4,1,0,65,0,1
236529,-84.1632921090073,4,1,0,65,0,1
236650,-84.1448736185578,4,1,0,65,0,1
236771,-84.126463187835,4,1,0,65,0,1
236892,-84.1080608115498,4,1,0,65,0,1
237012,-84.0896664844177,4,1,0,65,0,1
237133,-84.0712802011588,4,1,0,65,0,1
237254,-84.052901956498,4,1,0,65,0,1
237375,-84.0345317451645,4,1,0,65,0,1
237496,-84.0161695618923,4,1,0,65,0,1
237617,-83.99781540142,4,1,0,65,0,1
237738,-83.9794692584908,4,1,0,65,0,1
237859,-83.9611311278524,4,1,0,65,0,1
237980,-83.9428010042572,4,1,0,65,0,1
238101,-83.9244788824621,4,1,0,65,0,1
238222,-83.9061647572286,4,1,0,65,0,1
238342,-83.8878586233228,4,1,0,65,0,1
238463,-83.8695604755153,4,1,0,65,0,1
238584,-83.8512703085814,4,1,0,65,0,1
238705,-83.8329881173008,4,1,0,65,0,1
238826,-83.8147138964578,4,1,0,65,0,1
238947,-83.7964476408412,4,1,0,65,0,1
239068,-83.7781893452446,4,1,0,65,0,1
239189,-83.7599390044658,4,1,0,65,0,1
239310,-83.7416966133072,4,1,0,65,0,1
239431,-83.7234621665759,4,1,0,65,0,1
239552,-83.7052356590835,4,1,0,65,0,1
239672,-83.6870170856459,4,1,0,65,0,1
239793,-83.6688064410837,4,1,0,65,0,1
239914,-83.6506037202219,4,1,0,65,0,1
240035,-83.6324089178902,4,1,0,65,0,1
240156,-83.6142220289225,4,1,0,65,0,1
240277,-83.5960430481574,4,1,0,65,0,1
240398,-83.577871970438,4,1,0,65,0,1
240519,-83.5597087906118,4,1,0,65,0,1
240640,-83.5415535035307,4,1,0,65,0,1
240761,-83.5234061040513,4,1,0,65,0,1
240882,-83.5052665870344,4,1,0,65,0,1
241002,-83.4871349473456,4,1,0,65,0,1
241123,-83.4690111798545,4,1,0,65,0,1
241244,-83.4508952794357,4,1,0,65,0,1
241365,-83.4327872409678,4,1,0,65,0,1
241486,-83.414687059334,4,1,0,65,0,1
241607,-83.396594729422,4,1,0,65,0,1
241728,-83.3785102461238,4,1,0,65,0,1
241849,-83.360433604336,4,1,0,65,0,1
241970,-83.3423647989596,4,1,0,65,0,1
242091,-83.3243038248998,4,1,0,65,0,1
242212,-83.3062506770664,4,1,0,65,0,1
242332,-83.2882053503737,4,1,0,65,0,1
242453,-83.2701678397401,4,1,0,65,0,1
242574,-83.2521381400888,4,1,0,65,0,1
242695,-83.234116246347,4,1,0,65,0,1
242816,-83.2161021534466,4,1,0,65,0,1
242937,-83.1980958563237,4,1,0,65,0,1
243058,-83.1800973499189,4,1,0,65,0,1
243179,-83.162106629177,4,1,0,65,0,1
243300,-83.1441236890475,4,1,0,65,0,1
243421,-83.1261485244838,4,1,0,65,0,1
243542,-83.1081811304442,4,1,0,65,0,1
243662,-83.0902215018909,4,1,0,65,0,1
243783,-83.0722696337906,4,1,0,65,0,1
243904,-83.0543255211146,4,1,0,65,0,1
244025,-83.0363891588381,4,1,0,65,0,1
244146,-83.0184605419411,4,1,0,65,0,1
244267,-83.0005396654074,4,1,0,65,0,1
244388,-82.9826265242258,4,1,0,65,0,1
244509,-82.9647211133887,4,1,0,65,0,1
244630,-82.9468234278934,4,1,0,65,0,1
244751,-82.9289334627413,4,1,0,65,0,1
244872,-82.911051212938,4,1,0,65,0,1
244992,-82.8931766734936,4,1,0,65,0,1
245113,-82.8753098394224,4,1,0,65,0,1
245234,-82.8574507057429,4,1,0,65,0,1
245355,-82.8395992674782,4,1,0,65,0,1
245476,-82.8217555196554,4,1,0,65,0,1
245597,-82.8039194573059,4,1,0,65,0,1
245718,-82.7860910754656,4,1,0,65,0,1
245839,-82.7682703691745,4,1,0,65,0,1
245960,-82.7504573334768,4,1,0,65,0,1
246081,-82.7326519634212,4,1,0,65,0,1
246202,-82.7148542540604,4,1,0,65,0,1
246322,-82.6970642004517,4,1,0,65,0,1
246443,-82.6792817976562,4,1,0,65,0,1
246564,-82.6615070407396,4,1,0,65,0,1
246685,-82.6437399247716,4,1,0,65,0,1
246806,-82.6259804448265,4,1,0,65,0,1
246927,-82.6082285959824,4,1,0,65,0,1
247048,-82.5904843733219,4,1,0,65,0,1
247169,-82.5727477719317,4,1,0,65,0,1
247290,-82.5550187869028,4,1,0,65,0,1
247411,-82.5372974133305,4,1,0,65,0,1
247532,-82.519583646314,4,1,0,65,0,1
247652,-82.501877480957,4,1,0,65,0,1
247773,-82.4841789123673,4,1,0,65,0,1
247894,-82.4664879356568,4,1,0,65,0,1
248015,-82.4488045459419,4,1,0,65,0,1
248136,-82.4311287383428,4,1,0,65,0,1
248257,-82.4134605079841,4,1,0,65,0,1
248378,-82.3957998499946,4,1,0,65,0,1
248499,-82.3781467595072,4,1,0,65,0,1
248620,-82.360501231659,4,1,0,65,0,1
248741,-82.3428632615912,4,1,0,65,0,1
248862,-82.3252328444492,4,1,0,65,0,1
248982,-82.3076099753826,4,1,0,65,0,1
249103,-82.2899946495452,4,1,0,65,0,1
249224,-82.2723868620948,4,1,0,65,0,1
249345,-82.2547866081934,4,1,0,65,0,1
249466,-82.2371938830072,4,1,0,65,0,1
249587,-82.2196086817064,4,1,0,65,0,1
249708,-82.2020309994655,4,1,0,65,0,1
249829,-82.1844608314631,4,1,0,65,0,1
249950,-82.1668981728817,4,1,0,65,0,1
250071,-82.1493430189082,4,1,0,65,0,1
250192,-82.1317953647335,4,1,0,65,0,1
250312,-82.1142552055526,4,1,0,65,0,1
250433,-82.0967225365645,4,1,0,65,0,1
250554,-82.0791973529726,4,1,0,65,0,1
250675,-82.061679649984,4,1,0,65,0,1
250796,-82.0441694228102,4,1,0,65,0,1
250917,-82.0266666666667,4,1,0,65,0,1
251038,-82.009171376773,4,1,0,65,0,1
251159,-81.9916835483527,4,1,0,65,0,1
251280,-81.9742031766336,4,1,0,65,0,1
251401,-81.9567302568475,4,1,0,65,0,1
251522,-81.9392647842302,4,1,0,65,0,1
251642,-81.9218067540215,4,1,0,65,0,1
251763,-81.9043561614655,4,1,0,65,0,1
251884,-81.8869130018102,4,1,0,65,0,1
252005,-81.8694772703077,4,1,0,65,0,1
252126,-81.8520489622139,4,1,0,65,0,1
252247,-81.8346280727892,4,1,0,65,0,1
252368,-81.8172145972976,4,1,0,65,0,1
252489,-81.7998085310073,4,1,0,65,0,1
252610,-81.7824098691907,4,1,0,65,0,1
252731,-81.7650186071239,4,1,0,65,0,1
252852,-81.7476347400872,4,1,0,65,0,1
252972,-81.7302582633648,4,1,0,65,0,1
253093,-81.7128891722452,4,1,0,65,0,1
253214,-81.6955274620206,4,1,0,65,0,1
253335,-81.6781731279873,4,1,0,65,0,1
253456,-81.6608261654455,4,1,0,65,0,1
253577,-81.6434865696995,4,1,0,65,0,1
253698,-81.6261543360577,4,1,0,65,0,1
253819,-81.6088294598323,4,1,0,65,0,1
253940,-81.5915119363395,4,1,0,65,0,1
254061,-81.5742017608995,4,1,0,65,0,1
254182,-81.5568989288366,4,1,0,65,0,1
254302,-81.5396034354787,4,1,0,65,0,1
254423,-81.5223152761582,4,1,0,65,0,1
254544,-81.5050344462109,4,1,0,65,0,1
254665,-81.487760940977,4,1,0,65,0,1
254786,-81.4704947558004,4,1,0,65,0,1
254907,-81.453235886029,4,1,0,65,0,1
255028,-81.4359843270147,4,1,0,65,0,1
255149,-81.4187400741133,4,1,0,65,0,1
255270,-81.4015031226844,4,1,0,65,0,1
255391,-81.3842734680919,4,1,0,65,0,1
255512,-81.3670511057031,4,1,0,65,0,1
255632,-81.3498360308897,4,1,0,65,0,1
255753,-81.332628239027,4,1,0,65,0,1
255874,-81.3154277254943,4,1,0,65,0,1
255995,-81.298234485675,4,1,0,65,0,1
256116,-81.2810485149561,4,1,0,65,0,1
256237,-81.2638698087287,4,1,0,65,0,1
256358,-81.2466983623877,4,1,0,65,0,1
256479,-81.229534171332,4,1,0,65,0,1
256600,-81.2123772309642,4,1,0,65,0,1
256721,-81.195227536691,4,1,0,65,0,1
256842,-81.1780850839227,4,1,0,65,0,1
256962,-81.1609498680739,4,1,0,65,0,1
257083,-81.1438218845626,4,1,0,65,0,1
257204,-81.1267011288111,4,1,0,65,0,1
257325,-81.1095875962451,4,1,0,65,0,1
257446,-81.0924812822946,4,1,0,65,0,1
257567,-81.0753821823933,4,1,0,65,0,1
257688,-81.0582902919785,4,1,0,65,0,1
257809,-81.0412056064917,4,1,0,65,0,1
257930,-81.0241281213781,4,1,0,65,0,1
258051,-81.0070578320868,4,1,0,65,0,1
258172,-80.9899947340706,4,1,0,65,0,1
258292,-80.9729388227861,4,1,0,65,0,1
258413,-80.9558900936941,4,1,0,65,0,1
258534,-80.9388485422587,4,1,0,65,0,1
258655,-80.9218141639482,4,1,0,65,0,1
258776,-80.9047869542346,4,1,0,65,0,1
258897,-80.8877669085937,4,1,0,65,0,1
259018,-80.870754022505,4,1,0,65,0,1
259139,-80.853748291452,4,1,0,65,0,1
259260,-80.8367497109219,4,1,0,65,0,1
259381,-80.8197582764057,4,1,0,65,0,1
259502,-80.8027739833981,4,1,0,65,0,1
259622,-80.7857968273978,4,1,0,65,0,1
259743,-80.7688268039072,4,1,0,65,0,1
259864,-80.7518639084322,4,1,0,65,0,1
259985,-80.7349081364829,4,1,0,65,0,1
260106,-80.717959483573,4,1,0,65,0,1
260227,-80.7010179452199,4,1,0,65,0,1
260348,-80.6840835169447,4,1,0,65,0,1
260469,-80.6671561942725,4,1,0,65,0,1
260590,-80.650235972732,4,1,0,65,0,1
260711,-80.6333228478557,4,1,0,65,0,1
260832,-80.6164168151798,4,1,0,65,0,1
260952,-80.5995178702442,4,1,0,65,0,1
261073,-80.5826260085927,4,1,0,65,0,1
261194,-80.5657412257726,4,1,0,65,0,1
261315,-80.5488635173353,4,1,0,65,0,1
261436,-80.5319928788355,4,1,0,65,0,1
261557,-80.5151293058319,4,1,0,65,0,1
261678,-80.4982727938867,4,1,0,65,0,1
261799,-80.4814233385662,4,1,0,65,0,1
261920,-80.46458093544,4,1,0,65,0,1
262041,-80.4477455800816,4,1,0,65,0,1
262162,-80.4309172680682,4,1,0,65,0,1
262282,-80.4140959949807,4,1,0,65,0,1
262403,-80.3972817564035,4,1,0,65,0,1
262524,-80.3804745479252,4,1,0,65,0,1
262645,-80.3636743651374,4,1,0,65,0,1
262766,-80.346881203636,4,1,0,65,0,1
262887,-80.3300950590202,4,1,0,65,0,1
263008,-80.313315926893,4,1,0,65,0,1
263129,-80.296543802861,4,1,0,65,0,1
263250,-80.2797786825347,4,1,0,65,0,1
263371,-80.263020561528,4,1,0,65,0,1
263492,-80.2462694354586,4,1,0,65,0,1
263612,-80.2295252999478,4,1,0,65,0,1
263733,-80.2127881506206,4,1,0,65,0,1
263854,-80.1960579831056,4,1,0,65,0,1
263975,-80.1793347930351,4,1,0,65,0,1
264096,-80.162618576045,4,1,0,65,0,1
264217,-80.1459093277749,4,1,0,65,0,1
264338,-80.1292070438679,4,1,0,65,0,1
264459,-80.1125117199708,4,1,0,65,0,1
264580,-80.0958233517342,4,1,0,65,0,1
264701,-80.079141934812,4,1,0,65,0,1
264822,-80.062467464862,4,1,0,65,0,1
264942,-80.0457999375455,4,1,0,65,0,1
265063,-80.0291393485274,4,1,0,65,0,1
265184,-80.0124856934762,4,1,0,65,0,1
265305,-79.9958389680641,4,1,0,65,0,1
265426,-79.9791991679667,4,1,0,65,0,1
265547,-79.9625662888635,4,1,0,65,0,1
265668,-79.9459403264373,4,1,0,65,0,1
265789,-79.9293212763746,4,1,0,65,0,1
265910,-79.9127091343656,4,1,0,65,0,1
266031,-79.8961038961039,4,1,0,65,0,1
266152,-79.8795055572868,4,1,0,65,0,1
266272,-79.8629141136151,4,1,0,65,0,1
266393,-79.8463295607933,4,1,0,65,0,1
266514,-79.8297518945292,4,1,0,65,0,1
266635,-79.8131811105345,4,1,0,65,0,1
266756,-79.7966172045242,4,1,0,65,0,1
266877,-79.780060172217,4,1,0,65,0,1
266998,-79.7635100093351,4,1,0,65,0,1
267119,-79.7469667116043,4,1,0,65,0,1
267240,-79.7304302747537,4,1,0,65,0,1
267361,-79.7139006945164,4,1,0,65,0,1
267482,-79.6973779666287,4,1,0,65,0,1
267602,-79.6808620868304,4,1,0,65,0,1
267723,-79.664353050865,4,1,0,65,0,1
267844,-79.6478508544795,4,1,0,65,0,1
267965,-79.6313554934245,4,1,0,65,0,1
268086,-79.6148669634538,4,1,0,65,0,1
268207,-79.598385260325,4,1,0,65,0,1
268328,-79.5819103797992,4,1,0,65,0,1
268449,-79.565442317641,4,1,0,65,0,1
268570,-79.5489810696183,4,1,0,65,0,1
268691,-79.5325266315027,4,1,0,65,0,1
268812,-79.5160789990694,4,1,0,65,0,1
268932,-79.4996381680968,4,1,0,65,0,1
269053,-79.4832041343669,4,1,0,65,0,1
269174,-79.4667768936654,4,1,0,65,0,1
269295,-79.4503564417812,4,1,0,65,0,1
269416,-79.4339427745068,4,1,0,65,0,1
269537,-79.4175358876381,4,1,0,65,0,1
269658,-79.4011357769747,4,1,0,65,0,1
269779,-79.3847424383194,4,1,0,65,0,1
269900,-79.3683558674786,4,1,0,65,0,1
270021,-79.3519760602621,4,1,0,65,0,1
270142,-79.3356030124832,4,1,0,65,0,1
270262,-79.3192367199587,4,1,0,65,0,1
270383,-79.3028771785088,4,1,0,65,0,1
270504,-79.2865243839571,4,1,0,65,0,1
270625,-79.2701783321307,4,1,0,65,0,1
270746,-79.2538390188601,4,1,0,65,0,1
270867,-79.2375064399794,4,1,0,65,0,1
270988,-79.2211805913258,4,1,0,65,0,1
271109,-79.2048614687403,4,1,0,65,0,1
271230,-79.1885490680671,4,1,0,65,0,1
271351,-79.1722433851539,4,1,0,65,0,1
271472,-79.1559444158518,4,1,0,65,0,1
271593,-79.1396521560152,4,1,0,65,0,1
271713,-79.1233666015022,4,1,0,65,0,1
271834,-79.1070877481741,4,1,0,65,0,1
271955,-79.0908155918955,4,1,0,65,0,1
272076,-79.0745501285347,4,1,0,65,0,1
272197,-79.0582913539632,4,1,0,65,0,1
272318,-79.0420392640559,4,1,0,65,0,1
272439,-79.0257938546912,4,1,0,65,0,1
272560,-79.0095551217507,4,1,0,65,0,1
272681,-78.9933230611197,4,1,0,65,0,1
272802,-78.9770976686864,4,1,0,65,0,1
272923,-78.960878940343,4,1,0,65,0,1
273043,-78.9446668719844,4,1,0,65,0,1
273164,-78.9284614595094,4,1,0,65,0,1
273285,-78.9122626988199,4,1,0,65,0,1
273406,-78.8960705858213,4,1,0,65,0,1
273527,-78.8798851164222,4,1,0,65,0,1
273648,-78.8637062865347,4,1,0,65,0,1
273769,-78.8475340920742,4,1,0,65,0,1
273890,-78.8313685289595,4,1,0,65,0,1
274011,-78.8152095931126,4,1,0,65,0,1
274132,-78.7990572804591,4,1,0,65,0,1
274253,-78.7829115869276,4,1,0,65,0,1
274373,-78.7667725084503,4,1,0,65,0,1
274494,-78.7506400409626,4,1,0,65,0,1
274615,-78.7345141804034,4,1,0,65,0,1
274736,-78.7183949227147,4,1,0,65,0,1
274857,-78.702282263842,4,1,0,65,0,1
274978,-78.686176199734,4,1,0,65,0,1
275099,-78.6700767263427,4,1,0,65,0,1
275220,-78.6539838396236,4,1,0,65,0,1
275341,-78.6378975355353,4,1,0,65,0,1
275462,-78.6218178100399,4,1,0,65,0,1
275583,-78.6057446591025,4,1,0,65,0,1
275703,-78.5896780786919,4,1,0,65,0,1
275824,-78.5736180647798,4,1,0,65,0,1
275945,-78.5575646133415,4,1,0,65,0,1
276066,-78.5415177203554,4,1,0,65,0,1
276187,-78.5254773818033,4,1,0,65,0,1
276308,-78.5094435936702,4,1,0,65,0,1
276429,-78.4934163519445,4,1,0,65,0,1
276550,-78.4773956526176,4,1,0,65,0,1
276671,-78.4613814916845,4,1,0,65,0,1
276792,-78.4453738651433,4,1,0,65,0,1
276913,-78.4293727689954,4,1,0,65,0,1
277033,-78.4133781992454,4,1,0,65,0,1
277154,-78.3973901519013,4,1,0,65,0,1
277275,-78.3814086229742,4,1,0,65,0,1
277396,-78.3654336084785,4,1,0,65,0,1
277517,-78.349465104432,4,1,0,65,0,1
277638,-78.3335031068554,4,1,0,65,0,1
277759,-78.3175476117731,4,1,0,65,0,1
277880,-78.3015986152123,4,1,0,65,0,1
278001,-78.2856561132037,4,1,0,65,0,1
278122,-78.2697201017812,4,1,0,65,0,1
278243,-78.2537905769818,4,1,0,65,0,1
278363,-78.2378675348459,4,1,0,65,0,1
278484,-78.2219509714169,4,1,0,65,0,1
278605,-78.2060408827418,4,1,0,65,0,1
278726,-78.1901372648704,4,1,0,65,0,1
278847,-78.1742401138559,4,1,0,65,0,1
278968,-78.1583494257547,4,1,0,65,0,1
279089,-78.1424651966263,4,1,0,65,0,1
279210,-78.1265874225338,4,1,0,65,0,1
279331,-78.1107160995429,4,1,0,65,0,1
279452,-78.094851223723,4,1,0,65,0,1
279573,-78.0789927911463,4,1,0,65,0,1
279693,-78.0631407978885,4,1,0,65,0,1
279814,-78.0472952400284,4,1,0,65,0,1
279935,-78.0314561136479,4,1,0,65,0,1
280056,-78.0156234148321,4,1,0,65,0,1
280177,-77.9997971396693,4,1,0,65,0,1
280298,-77.9839772842511,4,1,0,65,0,1
280419,-77.968163844672,4,1,0,65,0,1
280540,-77.9523568170299,4,1,0,65,0,1
280661,-77.9365561974258,4,1,0,65,0,1
280782,-77.9207619819637,4,1,0,65,0,1
280903,-77.9049741667511,4,1,0,65,0,1
281023,-77.8891927478983,4,1,0,65,0,1
281144,-77.873417721519,4,1,0,65,0,1
281265,-77.8576490837299,4,1,0,65,0,1
281386,-77.8418868306509,4,1,0,65,0,1
281507,-77.826130958405,4,1,0,65,0,1
281628,-77.8103814631185,4,1,0,65,0,1
281749,-77.7946383409206,4,1,0,65,0,1
281870,-77.7789015879438,4,1,0,65,0,1
281991,-77.7631712003236,4,1,0,65,0,1
282112,-77.7474471741988,4,1,0,65,0,1
282233,-77.7317295057111,4,1,0,65,0,1
282353,-77.7160181910056,4,1,0,65,0,1
282474,-77.7003132262302,4,1,0,65,0,1
282595,-77.6846146075361,4,1,0,65,0,1
282716,-77.6689223310777,4,1,0,65,0,1
282837,-77.6532363930122,4,1,0,65,0,1
282958,-77.6375567895002,4,1,0,65,0,1
283079,-77.6218835167054,4,1,0,65,0,1
283200,-77.6062165707942,4,1,0,65,0,1
283321,-77.5905559479366,4,1,0,65,0,1
283442,-77.5749016443055,4,1,0,65,0,1
283563,-77.5592536560766,4,1,0,65,0,1
283683,-77.5436119794293,4,1,0,65,0,1
283804,-77.5279766105454,4,1,0,65,0,1
283925,-77.5123475456103,4,1,0,65,0,1
284046,-77.4967247808122,4,1,0,65,0,1
284167,-77.4811083123426,4,1,0,65,0,1
284288,-77.4654981363957,4,1,0,65,0,1
284409,-77.4498942491691,4,1,0,65,0,1
284530,-77.4342966468634,4,1,0,65,0,1
284651,-77.4187053256821,4,1,0,65,0,1
284772,-77.4031202818319,4,1,0,65,0,1
284893,-77.3875415115226,4,1,0,65,0,1
285013,-77.3719690109669,4,1,0,65,0,1
285134,-77.3564027763806,4,1,0,65,0,1
285255,-77.3408428039827,4,1,0,65,0,1
285376,-77.325289089995,4,1,0,65,0,1
285497,-77.3097416306424,4,1,0,65,0,1
285618,-77.294200422153,4,1,0,65,0,1
285739,-77.2786654607577,4,1,0,65,0,1
285860,-77.2631367426906,4,1,0,65,0,1
285981,-77.2476142641888,4,1,0,65,0,1
286102,-77.2320980214924,4,1,0,65,0,1
286223,-77.2165880108445,4,1,0,65,0,1
286343,-77.2010842284911,4,1,0,65,0,1
286464,-77.1855866706815,4,1,0,65,0,1
286585,-77.1700953336678,4,1,0,65,0,1
286706,-77.1546102137052,4,1,0,65,0,1
286827,-77.1391313070519,4,1,0,65,0,1
286948,-77.1236586099689,4,1,0,65,0,1
287069,-77.1081921187205,4,1,0,65,0,1
287190,-77.0927318295739,4,1,0,65,0,1
287311,-77.0772777387992,4,1,0,65,0,1
287432,-77.0618298426696,4,1,0,65,0,1
287553,-77.0463881374612,4,1,0,65,0,1
287673,-77.0309526194531,4,1,0,65,0,1
287794,-77.0155232849274,4,1,0,65,0,1
287915,-77.0001001301692,4,1,0,65,0,1
288036,-76.9846831514666,4,1,0,65,0,1
288157,-76.9692723451106,4,1,0,65,0,1
288278,-76.9538677073952,4,1,0,65,0,1
288399,-76.9384692346173,4,1,0,65,0,1
288520,-76.9230769230769,4,1,0,65,0,1
288550,-62.5,4,1,0,65,0,0

[HitObjects]
256,192,55921,5,8,0:0:0:0:
256,192,56042,1,0,0:0:0:0:
256,192,56163,1,8,0:0:0:0:
256,192,56284,1,8,0:0:0:0:
256,192,56404,1,0,0:0:0:0:
256,192,58339,1,8,0:0:0:0:
256,192,60274,1,0,0:0:0:0:
256,192,62208,1,8,0:0:0:0:
256,192,63659,1,0,0:0:0:0:
256,192,63780,1,0,0:0:0:0:
256,192,63901,1,8,0:0:0:0:
256,192,64022,1,8,0:0:0:0:
256,192,64143,1,0,0:0:0:0:
256,192,66077,1,8,0:0:0:0:
256,192,68012,1,0,0:0:0:0:
256,192,69946,1,8,0:0:0:0:
256,192,71397,1,8,0:0:0:0:
256,192,71518,1,0,0:0:0:0:
256,192,71639,1,8,0:0:0:0:
256,192,71760,1,8,0:0:0:0:
256,192,71881,1,0,0:0:0:0:
256,192,73815,1,8,0:0:0:0:
256,192,75750,1,0,0:0:0:0:
256,192,77685,1,8,0:0:0:0:
256,192,79135,1,0,0:0:0:0:
256,192,79256,1,0,0:0:0:0:
256,192,79377,1,8,0:0:0:0:
256,192,79498,1,8,0:0:0:0:
256,192,79619,1,0,0:0:0:0:
256,192,81554,1,8,0:0:0:0:
256,192,83488,1,0,0:0:0:0:
256,192,85423,1,8,0:0:0:0:
256,192,87357,1,0,0:0:0:0:
256,192,87841,1,0,0:0:0:0:
256,192,88083,1,8,0:0:0:0:
256,192,88325,1,0,0:0:0:0:
256,192,88566,1,8,0:0:0:0:
256,192,88687,1,8,0:0:0:0:
256,192,88808,1,0,0:0:0:0:
256,192,89050,1,8,0:0:0:0:
256,192,89292,1,0,0:0:0:0:
256,192,89534,1,0,0:0:0:0:
256,192,89655,1,8,0:0:0:0:
256,192,89775,1,0,0:0:0:0:
256,192,90017,1,8,0:0:0:0:
256,192,90259,1,0,0:0:0:0:
256,192,90501,1,8,0:0:0:0:
256,192,90622,1,8,0:0:0:0:
256,192,90743,1,0,0:0:0:0:
256,192,90985,1,8,0:0:0:0:
256,192,91226,1,0,0:0:0:0:
256,192,91710,1,0,0:0:0:0:
256,192,91952,1,8,0:0:0:0:
256,192,92194,1,0,0:0:0:0:
256,192,92435,1,8,0:0:0:0:
256,192,92556,1,8,0:0:0:0:
256,192,92677,1,0,0:0:0:0:
256,192,92919,1,8,0:0:0:0:
256,192,93161,1,0,0:0:0:0:
256,192,93403,1,0,0:0:0:0:
256,192,93524,1,8,0:0:0:0:
256,192,93645,1,0,0:0:0:0:
256,192,93886,1,8,0:0:0:0:
256,192,94128,1,0,0:0:0:0:
256,192,94370,1,0,0:0:0:0:
256,192,94491,1,8,0:0:0:0:
256,192,94612,1,0,0:0:0:0:
256,192,94854,1,8,0:0:0:0:
256,192,95095,1,0,0:0:0:0:
256,192,95579,1,0,0:0:0:0:
256,192,95821,1,8,0:0:0:0:
256,192,96063,1,0,0:0:0:0:
256,192,96304,1,8,0:0:0:0:
256,192,96425,1,8,0:0:0:0:
256,192,96546,1,0,0:0:0:0:
256,192,96788,1,8,0:0:0:0:
256,192,97030,1,0,0:0:0:0:
256,192,97272,1,0,0:0:0:0:
256,192,97393,1,8,0:0:0:0:
256,192,97513,1,0,0:0:0:0:
256,192,97755,1,8,0:0:0:0:
256,192,97997,1,0,0:0:0:0:
256,192,98239,1,8,0:0:0:0:
256,192,98360,1,8,0:0:0:0:
256,192,98481,1,0,0:0:0:0:
256,192,98723,1,8,0:0:0:0:
256,192,98964,1,0,0:0:0:0:
256,192,99448,1,0,0:0:0:0:
256,192,99690,1,8,0:0:0:0:
256,192,99932,1,0,0:0:0:0:
256,192,100173,1,8,0:0:0:0:
256,192,100294,1,8,0:0:0:0:
256,192,100415,1,0,0:0:0:0:
256,192,100657,1,8,0:0:0:0:
256,192,100899,1,0,0:0:0:0:
256,192,101141,1,0,0:0:0:0:
256,192,101262,1,8,0:0:0:0:
256,192,101383,1,0,0:0:0:0:
256,192,101624,1,8,0:0:0:0:
256,192,101866,1,0,0:0:0:0:
256,192,102108,1,0,0:0:0:0:
256,192,102229,1,8,0:0:0:0:
256,192,102350,1,0,0:0:0:0:
256,192,102592,1,8,0:0:0:0:
256,192,102834,1,4,0:0:0:0:
256,192,103317,1,8,0:0:0:0:
256,192,103559,1,0,0:0:0:0:
256,192,103680,1,8,0:0:0:0:
256,192,103922,1,0,0:0:0:0:
256,192,104043,1,8,0:0:0:0:
256,192,104285,1,0,0:0:0:0:
256,192,104365,1,0,0:0:0:0:
256,192,104446,1,0,0:0:0:0:
256,192,104526,1,0,0:0:0:0:
256,192,104768,1,12,0:0:0:0:
256,192,105010,1,0,0:0:0:0:
256,192,105252,1,8,0:0:0:0:
256,192,105373,1,0,0:0:0:0:
256,192,105494,1,0,0:0:0:0:
256,192,105615,1,8,0:0:0:0:
256,192,105856,1,0,0:0:0:0:
256,192,105977,1,8,0:0:0:0:
256,192,106219,1,0,0:0:0:0:
256,192,106340,1,0,0:0:0:0:
256,192,106461,1,0,0:0:0:0:
256,192,106703,1,12,0:0:0:0:
256,192,107186,1,8,0:0:0:0:
256,192,107428,1,0,0:0:0:0:
256,192,107549,1,8,0:0:0:0:
256,192,107791,1,0,0:0:0:0:
256,192,107912,1,8,0:0:0:0:
256,192,108154,1,0,0:0:0:0:
256,192,108395,1,8,0:0:0:0:
256,192,108516,1,8,0:0:0:0:
256,192,108637,1,4,0:0:0:0:
256,192,108879,1,0,0:0:0:0:
256,192,109121,1,8,0:0:0:0:
256,192,109242,1,0,0:0:0:0:
256,192,109363,1,0,0:0:0:0:
256,192,109484,1,8,0:0:0:0:
256,192,109725,1,0,0:0:0:0:
256,192,109846,1,8,0:0:0:0:
256,192,110088,1,0,0:0:0:0:
256,192,110209,1,0,0:0:0:0:
256,192,110330,1,0,0:0:0:0:
256,192,110572,1,12,0:0:0:0:
256,192,111055,1,8,0:0:0:0:
256,192,111297,1,0,0:0:0:0:
256,192,111418,1,8,0:0:0:0:
256,192,111660,1,0,0:0:0:0:
256,192,111781,1,8,0:0:0:0:
256,192,112023,1,0,0:0:0:0:
256,192,112265,1,8,0:0:0:0:
256,192,112385,1,8,0:0:0:0:
256,192,112506,1,0,0:0:0:0:
256,192,112748,1,0,0:0:0:0:
256,192,112990,1,8,0:0:0:0:
256,192,113232,1,0,0:0:0:0:
256,192,113353,1,8,0:0:0:0:
256,192,113595,1,0,0:0:0:0:
256,192,113715,1,8,0:0:0:0:
256,192,113957,1,0,0:0:0:0:
256,192,114078,1,8,0:0:0:0:
256,192,114199,1,0,0:0:0:0:
256,192,114441,1,4,0:0:0:0:
256,192,114925,1,8,0:0:0:0:
256,192,115166,1,0,0:0:0:0:
256,192,115287,1,8,0:0:0:0:
256,192,115529,1,0,0:0:0:0:
256,192,115650,1,8,0:0:0:0:
256,192,115892,1,0,0:0:0:0:
256,192,116134,1,0,0:0:0:0:
256,192,116255,1,0,0:0:0:0:
256,192,116375,1,0,0:0:0:0:
256,192,116617,1,0,0:0:0:0:
256,192,116859,1,8,0:0:0:0:
256,192,117101,1,0,0:0:0:0:
256,192,117222,1,8,0:0:0:0:
256,192,117464,1,0,0:0:0:0:
256,192,117585,1,8,0:0:0:0:
256,192,117826,1,8,0:0:0:0:
256,192,117947,1,8,0:0:0:0:
256,192,118068,1,0,0:0:0:0:
256,192,118310,1,4,0:0:0:0:
256,192,118794,1,8,0:0:0:0:
256,192,119035,1,0,0:0:0:0:
256,192,119156,1,8,0:0:0:0:
270,182,119398,1,0,0:0:0:0:
256,192,119519,1,8,0:0:0:0:
256,192,119761,1,8,0:0:0:0:
256,192,119882,1,8,0:0:0:0:
256,192,120003,1,0,0:0:0:0:
256,192,120245,1,0,0:0:0:0:
256,192,120486,1,0,0:0:0:0:
256,192,120728,1,8,0:0:0:0:
256,192,120849,1,0,0:0:0:0:
251,194,120970,1,0,0:0:0:0:
256,192,121091,1,8,0:0:0:0:
266,195,121333,1,0,0:0:0:0:
256,192,121454,1,8,0:0:0:0:
256,192,121695,1,8,0:0:0:0:
256,192,121937,1,0,0:0:0:0:
256,192,122058,1,8,0:0:0:0:
256,192,122179,1,0,0:0:0:0:
256,192,122663,1,8,0:0:0:0:
256,192,122905,1,0,0:0:0:0:
256,192,123025,1,8,0:0:0:0:
256,192,123267,1,0,0:0:0:0:
256,192,123388,1,8,0:0:0:0:
256,192,123630,1,8,0:0:0:0:
256,192,123751,1,0,0:0:0:0:
256,192,123872,1,0,0:0:0:0:
256,192,124114,1,4,0:0:0:0:
256,192,124355,1,0,0:0:0:0:
256,192,124597,1,8,0:0:0:0:
256,192,124718,1,0,0:0:0:0:
256,192,124839,1,0,0:0:0:0:
256,192,124960,1,8,0:0:0:0:
256,192,125202,1,0,0:0:0:0:
256,192,125323,1,8,0:0:0:0:
256,192,125565,1,8,0:0:0:0:
256,192,125685,1,8,0:0:0:0:
256,192,125806,1,0,0:0:0:0:
256,192,126048,1,12,0:0:0:0:
256,192,126532,1,8,0:0:0:0:
256,192,126774,1,0,0:0:0:0:
256,192,126895,1,8,0:0:0:0:
256,192,127136,1,0,0:0:0:0:
256,192,127257,1,8,0:0:0:0:
256,192,127499,1,0,0:0:0:0:
256,192,127741,1,8,0:0:0:0:
256,192,127862,1,8,0:0:0:0:
256,192,127983,1,0,0:0:0:0:
256,192,128225,1,0,0:0:0:0:
256,192,128466,1,8,0:0:0:0:
256,192,128587,1,0,0:0:0:0:
256,192,128708,1,0,0:0:0:0:
256,192,128829,1,8,0:0:0:0:
256,192,129071,1,0,0:0:0:0:
256,192,129192,1,8,0:0:0:0:
256,192,129434,1,8,0:0:0:0:
256,192,129675,1,0,0:0:0:0:
256,192,129796,1,8,0:0:0:0:
256,192,129917,1,0,0:0:0:0:
256,192,130401,1,8,0:0:0:0:
256,192,130643,1,0,0:0:0:0:
256,192,130764,1,8,0:0:0:0:
256,192,131005,1,0,0:0:0:0:
256,192,131126,1,8,0:0:0:0:
256,192,131368,1,0,0:0:0:0:
256,192,131610,1,8,0:0:0:0:
256,192,131731,1,8,0:0:0:0:
256,192,131852,1,4,0:0:0:0:
256,192,132094,1,0,0:0:0:0:
256,192,132336,1,8,0:0:0:0:
256,192,132456,1,0,0:0:0:0:
256,192,132577,1,0,0:0:0:0:
256,192,132698,1,8,0:0:0:0:
256,192,133061,1,8,0:0:0:0:
256,192,133182,1,8,0:0:0:0:
256,192,133303,1,8,0:0:0:0:
256,192,133424,1,8,0:0:0:0:
256,192,133545,1,8,0:0:0:0:
256,192,133786,1,4,0:0:0:0:
256,192,135721,1,0,0:0:0:0:
256,192,137656,1,8,0:0:0:0:
256,192,139590,1,8,0:0:0:0:
256,192,141041,1,0,0:0:0:0:
256,192,141162,1,0,0:0:0:0:
256,192,141283,1,8,0:0:0:0:
256,192,141404,1,8,0:0:0:0:
256,192,141525,1,0,0:0:0:0:
256,192,143459,1,0,0:0:0:0:
256,192,145394,1,8,0:0:0:0:
256,192,147328,1,8,0:0:0:0:
256,192,148779,1,8,0:0:0:0:
256,192,148900,1,0,0:0:0:0:
256,192,149021,1,8,0:0:0:0:
256,192,149142,1,8,0:0:0:0:
256,192,149263,1,0,0:0:0:0:
256,192,151197,1,8,0:0:0:0:
256,192,153132,1,0,0:0:0:0:
256,192,155066,1,8,0:0:0:0:
256,192,156517,1,0,0:0:0:0:
256,192,156638,1,0,0:0:0:0:
256,192,156759,1,8,0:0:0:0:
256,192,156880,1,8,0:0:0:0:
256,192,157001,1,0,0:0:0:0:
256,192,158936,1,8,0:0:0:0:
256,192,160870,1,0,0:0:0:0:
256,192,162805,1,8,0:0:0:0:
256,192,164256,1,8,0:0:0:0:
256,192,164376,1,0,0:0:0:0:
256,192,164497,1,8,0:0:0:0:
256,192,164739,1,4,0:0:0:0:
256,192,164981,1,0,0:0:0:0:
256,192,165223,1,8,0:0:0:0:
256,192,165465,1,0,0:0:0:0:
256,192,165586,1,8,0:0:0:0:
256,192,165706,1,0,0:0:0:0:
256,192,165948,1,12,0:0:0:0:
256,192,166311,1,8,0:0:0:0:
256,192,166432,1,0,0:0:0:0:
256,192,166674,1,0,0:0:0:0:
256,192,166916,1,0,0:0:0:0:
256,192,167157,1,8,0:0:0:0:
256,192,167278,1,0,0:0:0:0:
256,192,167399,1,0,0:0:0:0:
256,192,167520,1,8,0:0:0:0:
256,192,167762,1,0,0:0:0:0:
256,192,167883,1,8,0:0:0:0:
256,192,168125,1,8,0:0:0:0:
256,192,168246,1,8,0:0:0:0:
256,192,168366,1,0,0:0:0:0:
256,192,168487,1,0,0:0:0:0:
256,192,168608,1,0,0:0:0:0:
256,192,169092,1,8,0:0:0:0:
256,192,169334,1,0,0:0:0:0:
256,192,169455,1,8,0:0:0:0:
256,192,169576,1,0,0:0:0:0:
256,192,169817,1,12,0:0:0:0:
256,192,170180,1,8,0:0:0:0:
256,192,170301,1,0,0:0:0:0:
256,192,170543,1,0,0:0:0:0:
256,192,170785,1,0,0:0:0:0:
256,192,170906,1,0,0:0:0:0:
256,192,171026,1,8,0:0:0:0:
256,192,171268,1,0,0:0:0:0:
256,192,171510,5,8,0:0:0:0:
256,192,171631,1,0,0:0:0:0:
288,192,171752,1,0,0:0:0:0:
256,192,171873,1,8,0:0:0:0:
256,192,172115,1,0,0:0:0:0:
256,192,172236,1,8,0:0:0:0:
256,192,172477,1,4,0:0:0:0:
256,192,172961,1,8,0:0:0:0:
256,192,173203,1,0,0:0:0:0:
256,192,173324,1,8,0:0:0:0:
256,192,173445,1,0,0:0:0:0:
256,192,173686,1,12,0:0:0:0:
256,192,174049,1,0,0:0:0:0:
256,192,174170,1,8,0:0:0:0:
256,192,174291,1,8,0:0:0:0:
256,192,174412,1,0,0:0:0:0:
256,192,174654,1,0,0:0:0:0:
256,192,174896,1,8,0:0:0:0:
256,192,175137,1,0,0:0:0:0:
256,192,175258,1,8,0:0:0:0:
256,192,175500,1,0,0:0:0:0:
256,192,175621,1,8,0:0:0:0:
256,192,175863,1,0,0:0:0:0:
256,192,175984,1,0,0:0:0:0:
256,192,176105,1,0,0:0:0:0:
256,192,176226,1,0,0:0:0:0:
256,192,176346,1,0,0:0:0:0:
256,192,176830,1,12,0:0:0:0:
256,192,177072,1,0,0:0:0:0:
256,192,177193,1,8,0:0:0:0:
256,192,177435,1,0,0:0:0:0:
256,192,177556,1,8,0:0:0:0:
256,192,177918,1,8,0:0:0:0:
256,192,178039,1,0,0:0:0:0:
256,192,178281,1,8,0:0:0:0:
256,192,178402,1,8,0:0:0:0:
256,192,178644,1,8,0:0:0:0:
256,192,178765,1,8,0:0:0:0:
256,192,179006,1,0,0:0:0:0:
256,192,179127,1,0,0:0:0:0:
256,192,179369,1,8,0:0:0:0:
256,192,179490,1,0,0:0:0:0:
256,192,179611,1,0,0:0:0:0:
256,192,179732,1,8,0:0:0:0:
256,192,179853,1,8,0:0:0:0:
256,192,179974,1,0,0:0:0:0:
256,192,180216,1,4,0:0:0:0:
256,192,180699,1,8,0:0:0:0:
256,192,180941,1,0,0:0:0:0:
256,192,181062,1,8,0:0:0:0:
256,192,181183,1,0,0:0:0:0:
256,192,181425,1,12,0:0:0:0:
256,192,181787,1,0,0:0:0:0:
256,192,181908,1,8,0:0:0:0:
256,192,182029,1,8,0:0:0:0:
256,192,182150,1,0,0:0:0:0:
256,192,182392,1,0,0:0:0:0:
256,192,182634,1,8,0:0:0:0:
256,192,182755,1,0,0:0:0:0:
256,192,182996,1,8,0:0:0:0:
256,192,183238,1,0,0:0:0:0:
256,192,183359,1,8,0:0:0:0:
256,192,183601,1,8,0:0:0:0:
256,192,183722,1,8,0:0:0:0:
256,192,183843,1,0,0:0:0:0:
256,192,183964,1,8,0:0:0:0:
256,192,184085,1,0,0:0:0:0:
256,192,184568,1,8,0:0:0:0:
256,192,184810,1,0,0:0:0:0:
256,192,184931,1,8,0:0:0:0:
256,192,185052,1,0,0:0:0:0:
256,192,185294,1,12,0:0:0:0:
256,192,185656,1,8,0:0:0:0:
256,192,185777,1,0,0:0:0:0:
256,192,186019,1,0,0:0:0:0:
256,192,186261,1,0,0:0:0:0:
256,192,186382,1,0,0:0:0:0:
256,192,186503,1,8,0:0:0:0:
256,192,186745,1,0,0:0:0:0:
256,192,186986,1,8,0:0:0:0:
256,192,187107,1,8,0:0:0:0:
256,192,187228,1,0,0:0:0:0:
256,192,187349,1,8,0:0:0:0:
256,192,187591,1,0,0:0:0:0:
256,192,187712,1,8,0:0:0:0:
256,192,187954,1,4,0:0:0:0:
256,192,188437,1,8,0:0:0:0:
256,192,188679,1,0,0:0:0:0:
256,192,188800,1,8,0:0:0:0:
256,192,188921,1,0,0:0:0:0:
256,192,189163,1,12,0:0:0:0:
256,192,189526,1,8,0:0:0:0:
256,192,189646,1,0,0:0:0:0:
256,192,189888,1,0,0:0:0:0:
256,192,190130,1,0,0:0:0:0:
256,192,190251,1,0,0:0:0:0:
256,192,190372,1,8,0:0:0:0:
256,192,190614,1,0,0:0:0:0:
256,192,190735,1,8,0:0:0:0:
256,192,190976,1,0,0:0:0:0:
256,192,191097,1,8,0:0:0:0:
256,192,191339,1,0,0:0:0:0:
256,192,191460,1,0,0:0:0:0:
256,192,191581,1,0,0:0:0:0:
224,192,191702,1,0,0:0:0:0:
256,192,191823,1,0,0:0:0:0:
256,192,192306,1,12,0:0:0:0:
256,192,192548,1,0,0:0:0:0:
256,192,192669,1,8,0:0:0:0:
256,192,192911,1,0,0:0:0:0:
256,192,193032,1,8,0:0:0:0:
256,192,193395,1,8,0:0:0:0:
256,192,193516,1,0,0:0:0:0:
256,192,193757,1,8,0:0:0:0:
256,192,193878,1,8,0:0:0:0:
256,192,194120,1,8,0:0:0:0:
256,192,194241,1,8,0:0:0:0:
256,192,194483,1,0,0:0:0:0:
256,192,194604,1,0,0:0:0:0:
256,192,194846,1,8,0:0:0:0:
256,192,194966,1,0,0:0:0:0:
256,192,195087,1,0,0:0:0:0:
256,192,195208,1,8,0:0:0:0:
256,192,195329,1,8,0:0:0:0:
256,192,195450,1,0,0:0:0:0:
256,192,195692,5,4,0:0:0:0:
256,192,196176,1,8,0:0:0:0:
256,192,196417,1,0,0:0:0:0:
256,192,196659,1,8,0:0:0:0:
256,192,196780,1,0,0:0:0:0:
256,192,197022,1,0,0:0:0:0:
256,192,197143,1,8,0:0:0:0:
256,192,197385,1,0,0:0:0:0:
256,192,197506,1,8,0:0:0:0:
256,192,197626,1,0,0:0:0:0:
256,192,197868,1,0,0:0:0:0:
256,192,197989,1,0,0:0:0:0:
256,192,198110,1,8,0:0:0:0:
256,192,198352,1,0,0:0:0:0:
256,192,198594,1,8,0:0:0:0:
256,192,198715,1,0,0:0:0:0:
256,192,198957,1,0,0:0:0:0:
256,192,199077,1,8,0:0:0:0:
256,192,199319,1,8,0:0:0:0:
256,192,199440,1,8,0:0:0:0:
256,192,199561,1,0,0:0:0:0:
256,192,200045,1,8,0:0:0:0:
256,192,200286,1,0,0:0:0:0:
256,192,200528,1,8,0:0:0:0:
256,192,200649,1,8,0:0:0:0:
256,192,200891,1,0,0:0:0:0:
256,192,201012,1,8,0:0:0:0:
256,192,201254,1,8,0:0:0:0:
256,192,201375,1,8,0:0:0:0:
256,192,201496,1,0,0:0:0:0:
256,192,201737,1,0,0:0:0:0:
256,192,201858,1,0,0:0:0:0:
256,192,201979,1,8,0:0:0:0:
256,192,202221,1,0,0:0:0:0:
256,192,202463,1,8,0:0:0:0:
288,192,202584,1,8,0:0:0:0:
256,192,202826,1,0,0:0:0:0:
256,192,202946,1,8,0:0:0:0:
256,192,203188,1,8,0:0:0:0:
256,192,203309,1,8,0:0:0:0:
256,192,203430,1,0,0:0:0:0:
256,192,203914,1,8,0:0:0:0:
256,192,204156,1,0,0:0:0:0:
256,192,204397,1,8,0:0:0:0:
256,192,204518,1,0,0:0:0:0:
256,192,204760,1,0,0:0:0:0:
256,192,204881,1,8,0:0:0:0:
256,192,205123,1,0,0:0:0:0:
256,192,205244,1,8,0:0:0:0:
256,192,205365,1,0,0:0:0:0:
256,192,205606,1,0,0:0:0:0:
256,192,205727,1,0,0:0:0:0:
256,192,205848,1,8,0:0:0:0:
256,192,206090,1,0,0:0:0:0:
256,192,206332,1,8,0:0:0:0:
256,192,206453,1,0,0:0:0:0:
256,192,206695,1,0,0:0:0:0:
256,192,206816,1,8,0:0:0:0:
256,192,207057,1,8,0:0:0:0:
256,192,207178,1,8,0:0:0:0:
256,192,207299,1,0,0:0:0:0:
256,192,207783,1,8,0:0:0:0:
256,192,208025,1,0,0:0:0:0:
256,192,208267,1,8,0:0:0:0:
256,192,208388,1,8,0:0:0:0:
256,192,208629,1,0,0:0:0:0:
256,192,208750,1,8,0:0:0:0:
256,192,208992,1,8,0:0:0:0:
256,192,209113,1,8,0:0:0:0:
256,192,209234,1,0,0:0:0:0:
256,192,209476,1,8,0:0:0:0:
256,192,209597,1,0,0:0:0:0:
256,192,209717,1,8,0:0:0:0:
256,192,209959,1,0,0:0:0:0:
256,192,210201,1,8,0:0:0:0:
256,192,210322,1,8,0:0:0:0:
256,192,210443,1,8,0:0:0:0:
256,192,210564,1,8,0:0:0:0:
256,192,210685,1,8,0:0:0:0:
256,192,210806,1,8,0:0:0:0:
256,192,210927,1,8,0:0:0:0:
256,192,211047,1,8,0:0:0:0:
256,192,211168,1,4,0:0:0:0:
256,192,211652,1,8,0:0:0:0:
256,192,211894,1,0,0:0:0:0:
256,192,212015,1,0,0:0:0:0:
256,192,212136,1,8,0:0:0:0:
256,192,212257,1,0,0:0:0:0:
256,192,212498,1,0,0:0:0:0:
224,192,212619,1,8,0:0:0:0:
256,192,212861,1,0,0:0:0:0:
256,192,212982,1,8,0:0:0:0:
256,192,213103,1,0,0:0:0:0:
256,192,213345,1,0,0:0:0:0:
256,192,213466,1,0,0:0:0:0:
256,192,213587,1,8,0:0:0:0:
256,192,213828,1,0,0:0:0:0:
256,192,214070,1,8,0:0:0:0:
256,192,214191,1,0,0:0:0:0:
256,192,214433,1,0,0:0:0:0:
256,192,214554,1,8,0:0:0:0:
256,192,214796,1,8,0:0:0:0:
256,192,214917,1,8,0:0:0:0:
256,192,215037,1,0,0:0:0:0:
256,192,215521,1,8,0:0:0:0:
256,192,215763,1,0,0:0:0:0:
256,192,215884,1,0,0:0:0:0:
256,192,216005,1,8,0:0:0:0:
256,192,216126,1,8,0:0:0:0:
256,192,216368,1,0,0:0:0:0:
256,192,216488,1,8,0:0:0:0:
256,192,216730,1,8,0:0:0:0:
256,192,216851,1,8,0:0:0:0:
256,192,216972,1,0,0:0:0:0:
256,192,217214,1,8,0:0:0:0:
256,192,217335,1,0,0:0:0:0:
256,192,217456,1,8,0:0:0:0:
256,192,217697,1,0,0:0:0:0:
256,192,217939,1,8,0:0:0:0:
256,192,218060,1,0,0:0:0:0:
256,192,218302,1,0,0:0:0:0:
256,192,218423,1,8,0:0:0:0:
256,192,218665,1,8,0:0:0:0:
256,192,218907,1,4,0:0:0:0:
256,192,219390,1,8,0:0:0:0:
256,192,219632,1,0,0:0:0:0:
256,192,219753,1,0,0:0:0:0:
256,192,219874,1,8,0:0:0:0:
256,192,219995,1,0,0:0:0:0:
256,192,220237,1,0,0:0:0:0:
256,192,220357,1,8,0:0:0:0:
256,192,220599,1,0,0:0:0:0:
256,192,220720,1,8,0:0:0:0:
256,192,220841,1,0,0:0:0:0:
256,192,221083,1,0,0:0:0:0:
256,192,221204,1,0,0:0:0:0:
256,192,221325,1,8,0:0:0:0:
256,192,221567,1,0,0:0:0:0:
256,192,221808,1,8,0:0:0:0:
256,192,221929,1,0,0:0:0:0:
256,192,222171,1,0,0:0:0:0:
256,192,222292,1,8,0:0:0:0:
256,192,222534,1,0,0:0:0:0:
256,192,222655,1,0,0:0:0:0:
256,192,222776,1,0,0:0:0:0:
256,192,223017,1,12,0:0:0:0:
256,192,223380,1,0,0:0:0:0:
256,192,223501,1,8,0:0:0:0:
256,192,223743,1,8,0:0:0:0:
256,224,223985,1,8,0:0:0:0:
256,192,224227,1,8,0:0:0:0:
256,192,224347,1,8,0:0:0:0:
256,192,224468,1,0,0:0:0:0:
256,192,224589,1,8,0:0:0:0:
256,192,224710,1,0,0:0:0:0:
256,192,224952,1,8,0:0:0:0:
256,192,225073,1,8,0:0:0:0:
256,192,225315,1,8,0:0:0:0:
256,192,225436,1,0,0:0:0:0:
256,192,225677,1,0,0:0:0:0:
256,192,225798,1,0,0:0:0:0:
256,192,226040,1,0,0:0:0:0:
256,192,226161,1,8,0:0:0:0:
256,192,226282,1,8,0:0:0:0:
256,192,226403,1,0,0:0:0:0:
256,192,226645,1,12,0:0:0:0:
256,192,227128,1,8,0:0:0:0:
256,192,227370,1,0,0:0:0:0:
256,192,227491,1,0,0:0:0:0:
256,192,227612,1,8,0:0:0:0:
256,192,227733,1,0,0:0:0:0:
256,192,227975,1,0,0:0:0:0:
256,192,228096,1,8,0:0:0:0:
256,192,228337,1,0,0:0:0:0:
256,192,228458,1,8,0:0:0:0:
256,192,228579,1,0,0:0:0:0:
256,192,228821,1,0,0:0:0:0:
256,192,228942,1,0,0:0:0:0:
256,192,229063,1,8,0:0:0:0:
256,192,229305,1,0,0:0:0:0:
256,192,229426,1,0,0:0:0:0:
256,192,229547,1,8,0:0:0:0:
256,192,229667,1,0,0:0:0:0:
256,192,229909,1,0,0:0:0:0:
256,192,230030,1,8,0:0:0:0:
256,192,230272,1,8,0:0:0:0:
256,192,230393,1,8,0:0:0:0:
256,192,230514,1,0,0:0:0:0:
256,192,230997,1,8,0:0:0:0:
256,192,231239,1,0,0:0:0:0:
256,192,231360,1,0,0:0:0:0:
256,192,231481,1,8,0:0:0:0:
256,192,231602,1,8,0:0:0:0:
256,192,231844,1,0,0:0:0:0:
256,192,231965,1,8,0:0:0:0:
256,192,232207,1,8,0:0:0:0:
288,192,232327,1,8,0:0:0:0:
256,192,232448,1,0,0:0:0:0:
256,192,232690,1,0,0:0:0:0:
256,192,232811,1,0,0:0:0:0:
256,192,232932,1,8,0:0:0:0:
256,192,233174,1,0,0:0:0:0:
256,192,233295,1,8,0:0:0:0:
256,192,233416,1,0,0:0:0:0:
256,192,233537,1,0,0:0:0:0:
256,192,233778,1,0,0:0:0:0:
256,192,233899,1,8,0:0:0:0:
256,192,234141,1,8,0:0:0:0:
256,192,234262,1,8,0:0:0:0:
256,192,234383,1,0,0:0:0:0:
256,192,234867,1,8,0:0:0:0:
256,192,235108,1,0,0:0:0:0:
256,192,235229,1,0,0:0:0:0:
256,224,235350,1,8,0:0:0:0:
256,192,235471,1,0,0:0:0:0:
256,192,235713,1,0,0:0:0:0:
256,224,235834,1,8,0:0:0:0:
256,224,236076,1,0,0:0:0:0:
256,224,236197,1,8,0:0:0:0:
256,192,236317,1,0,0:0:0:0:
256,224,236559,1,0,0:0:0:0:
256,192,236680,1,0,0:0:0:0:
256,224,236801,1,8,0:0:0:0:
256,192,237043,1,0,0:0:0:0:
256,224,237164,1,0,0:0:0:0:
256,192,237285,1,8,0:0:0:0:
256,224,237406,1,0,0:0:0:0:
256,192,237648,1,0,0:0:0:0:
256,224,237768,1,8,0:0:0:0:
256,224,238010,1,8,0:0:0:0:
256,224,238131,1,8,0:0:0:0:
256,192,238252,1,0,0:0:0:0:
256,224,238736,1,8,0:0:0:0:
256,192,238977,1,0,0:0:0:0:
256,192,239098,1,0,0:0:0:0:
256,224,239219,1,8,0:0:0:0:
256,224,239340,1,8,0:0:0:0:
256,192,239582,1,0,0:0:0:0:
256,224,239703,1,8,0:0:0:0:
256,224,239945,1,8,0:0:0:0:
256,224,240066,1,8,0:0:0:0:
256,192,240187,1,0,0:0:0:0:
256,224,240428,1,8,0:0:0:0:
256,192,240549,1,0,0:0:0:0:
256,224,240670,1,8,0:0:0:0:
256,192,240912,1,0,0:0:0:0:
256,224,241154,1,8,0:0:0:0:
256,224,241275,1,8,0:0:0:0:
256,192,241396,1,8,0:0:0:0:
256,224,241517,1,8,0:0:0:0:
256,224,241637,1,8,0:0:0:0:
256,224,241758,1,8,0:0:0:0:
256,224,241879,1,8,0:0:0:0:
256,192,242000,1,8,0:0:0:0:
256,192,242121,1,4,0:0:0:0:
256,192,242605,1,8,0:0:0:0:
256,192,242847,1,0,0:0:0:0:
256,192,242967,1,0,0:0:0:0:
256,192,243088,1,8,0:0:0:0:
256,192,243209,1,0,0:0:0:0:
256,192,243451,1,0,0:0:0:0:
256,192,243572,1,8,0:0:0:0:
256,192,243814,1,0,0:0:0:0:
256,192,243935,1,8,0:0:0:0:
256,192,244056,1,0,0:0:0:0:
256,192,244297,1,0,0:0:0:0:
256,192,244418,1,0,0:0:0:0:
256,192,244539,1,8,0:0:0:0:
256,224,244781,1,0,0:0:0:0:
256,192,245023,1,8,0:0:0:0:
256,192,245144,1,8,0:0:0:0:
256,192,245265,1,0,0:0:0:0:
256,192,245386,1,0,0:0:0:0:
256,192,245507,1,8,0:0:0:0:
256,192,245748,1,8,0:0:0:0:
256,192,245869,1,8,0:0:0:0:
256,192,245990,1,0,0:0:0:0:
256,192,246474,1,8,0:0:0:0:
256,192,246716,1,0,0:0:0:0:
256,192,246837,1,0,0:0:0:0:
256,192,246957,1,8,0:0:0:0:
256,192,247078,1,8,0:0:0:0:
256,192,247320,1,0,0:0:0:0:
256,192,247441,1,8,0:0:0:0:
256,192,247683,1,8,0:0:0:0:
256,192,247804,1,8,0:0:0:0:
256,192,247925,1,0,0:0:0:0:
256,192,248167,1,8,0:0:0:0:
256,192,248288,1,0,0:0:0:0:
256,192,248408,1,8,0:0:0:0:
256,192,248650,1,0,0:0:0:0:
256,192,248892,1,8,0:0:0:0:
256,192,249013,1,0,0:0:0:0:
256,192,249134,1,0,0:0:0:0:
256,192,249255,1,0,0:0:0:0:
288,192,249376,1,8,0:0:0:0:
256,224,249617,1,8,0:0:0:0:
256,224,249738,1,8,0:0:0:0:
256,192,249859,1,4,0:0:0:0:
256,192,250343,1,8,0:0:0:0:
256,192,250585,1,0,0:0:0:0:
256,192,250706,1,0,0:0:0:0:
256,192,250827,1,8,0:0:0:0:
256,192,250948,1,0,0:0:0:0:
256,192,251189,1,0,0:0:0:0:
256,192,251310,1,8,0:0:0:0:
256,192,251552,1,0,0:0:0:0:
256,192,251673,1,8,0:0:0:0:
256,192,251794,1,0,0:0:0:0:
256,192,252036,1,0,0:0:0:0:
256,192,252157,1,0,0:0:0:0:
256,192,252277,1,8,0:0:0:0:
256,192,252519,1,0,0:0:0:0:
256,192,252761,1,8,0:0:0:0:
256,192,252882,1,8,0:0:0:0:
256,192,253003,1,0,0:0:0:0:
256,192,253124,1,0,0:0:0:0:
256,192,253245,1,8,0:0:0:0:
256,192,253487,1,8,0:0:0:0:
256,192,253608,1,8,0:0:0:0:
256,192,253728,1,0,0:0:0:0:
256,192,254212,1,8,0:0:0:0:
256,192,254454,1,0,0:0:0:0:
256,192,254575,1,0,0:0:0:0:
256,192,254696,1,8,0:0:0:0:
256,192,254817,1,8,0:0:0:0:
256,192,255058,1,0,0:0:0:0:
256,192,255179,1,8,0:0:0:0:
256,192,255421,1,8,0:0:0:0:
256,192,255542,1,8,0:0:0:0:
256,192,255663,1,0,0:0:0:0:
256,192,255905,1,8,0:0:0:0:
256,192,256026,1,0,0:0:0:0:
256,192,256147,1,8,0:0:0:0:
256,192,256388,1,0,0:0:0:0:
256,192,256630,1,8,0:0:0:0:
256,192,256751,1,8,0:0:0:0:
256,192,256872,1,8,0:0:0:0:
256,192,256993,1,8,0:0:0:0:
256,192,257114,1,8,0:0:0:0:
256,192,257235,1,8,0:0:0:0:
256,192,257356,1,8,0:0:0:0:
256,192,257477,1,8,0:0:0:0:
256,192,257597,1,4,0:0:0:0:
256,192,258081,1,8,0:0:0:0:
256,192,258323,1,0,0:0:0:0:
256,192,258444,1,0,0:0:0:0:
256,192,258565,1,8,0:0:0:0:
256,192,258686,1,8,0:0:0:0:
256,192,258807,1,0,0:0:0:0:
256,192,259048,1,8,0:0:0:0:
256,192,259290,1,0,0:0:0:0:
256,224,259411,1,8,0:0:0:0:
256,224,259532,1,0,0:0:0:0:
256,224,259774,1,0,0:0:0:0:
256,192,259895,1,0,0:0:0:0:
256,192,260016,1,8,0:0:0:0:
256,192,260257,1,0,0:0:0:0:
256,192,260378,1,0,0:0:0:0:
256,224,260499,1,8,0:0:0:0:
256,192,260620,1,0,0:0:0:0:
256,192,260862,1,0,0:0:0:0:
256,192,260983,1,8,0:0:0:0:
256,192,261225,1,8,0:0:0:0:
256,192,261346,1,8,0:0:0:0:
256,192,261467,1,0,0:0:0:0:
256,192,261950,1,8,0:0:0:0:
256,192,262192,1,0,0:0:0:0:
256,192,262313,1,8,0:0:0:0:
256,192,262434,1,8,0:0:0:0:
256,192,262555,1,8,0:0:0:0:
256,192,262676,1,0,0:0:0:0:
256,192,262917,1,8,0:0:0:0:
256,192,263159,1,8,0:0:0:0:
256,192,263280,1,8,0:0:0:0:
256,192,263401,1,0,0:0:0:0:
256,192,263643,1,8,0:0:0:0:
256,192,263764,1,0,0:0:0:0:
256,192,263885,1,8,0:0:0:0:
256,192,264127,1,0,0:0:0:0:
256,192,264247,1,8,0:0:0:0:
256,192,264368,1,0,0:0:0:0:
256,192,264489,1,0,0:0:0:0:
256,192,264731,1,0,0:0:0:0:
256,192,264852,1,8,0:0:0:0:
256,192,265094,1,8,0:0:0:0:
256,192,265215,1,8,0:0:0:0:
256,192,265336,1,0,0:0:0:0:
256,192,265819,1,8,0:0:0:0:
256,192,266061,1,0,0:0:0:0:
256,192,266182,1,0,0:0:0:0:
256,192,266303,1,8,0:0:0:0:
256,192,266424,1,8,0:0:0:0:
256,192,266545,1,0,0:0:0:0:
256,192,266787,1,8,0:0:0:0:
256,192,267028,1,0,0:0:0:0:
256,192,267149,1,8,0:0:0:0:
256,192,267270,1,0,0:0:0:0:
256,192,267512,1,0,0:0:0:0:
256,192,267633,1,0,0:0:0:0:
256,192,267754,1,8,0:0:0:0:
256,192,267996,1,0,0:0:0:0:
256,192,268117,1,0,0:0:0:0:
256,192,268237,1,8,0:0:0:0:
256,192,268358,1,0,0:0:0:0:
256,192,268600,1,0,0:0:0:0:
256,192,268721,1,8,0:0:0:0:
256,192,268963,1,8,0:0:0:0:
256,192,269084,1,8,0:0:0:0:
256,192,269205,1,0,0:0:0:0:
256,192,269688,1,8,0:0:0:0:
256,192,269930,1,0,0:0:0:0:
256,192,270051,1,8,0:0:0:0:
256,192,270172,1,8,0:0:0:0:
256,192,270293,1,8,0:0:0:0:
256,192,270414,1,0,0:0:0:0:
256,192,270656,1,8,0:0:0:0:
256,192,270897,1,8,0:0:0:0:
256,192,271018,1,8,0:0:0:0:
256,192,271139,1,0,0:0:0:0:
256,192,271381,1,8,0:0:0:0:
256,192,271502,1,0,0:0:0:0:
256,192,271623,1,8,0:0:0:0:
256,192,271865,1,0,0:0:0:0:
256,192,272107,1,8,0:0:0:0:
256,192,272228,1,8,0:0:0:0:
256,192,272348,1,8,0:0:0:0:
256,192,272469,1,8,0:0:0:0:
256,192,272590,1,8,0:0:0:0:
256,192,272711,1,8,0:0:0:0:
256,192,272832,1,8,0:0:0:0:
256,192,272953,1,8,0:0:0:0:
256,192,273074,1,4,0:0:0:0:
256,192,273557,1,8,0:0:0:0:
256,192,273799,1,0,0:0:0:0:
256,192,273920,1,0,0:0:0:0:
256,192,274041,1,8,0:0:0:0:
256,192,274162,1,0,0:0:0:0:
256,192,274404,1,0,0:0:0:0:
256,192,274525,1,8,0:0:0:0:
256,192,274767,1,0,0:0:0:0:
256,192,274887,1,8,0:0:0:0:
256,192,275008,1,0,0:0:0:0:
256,192,275250,1,0,0:0:0:0:
256,192,275371,1,0,0:0:0:0:
256,192,275492,1,8,0:0:0:0:
256,192,275734,1,8,0:0:0:0:
256,192,275855,1,8,0:0:0:0:
256,192,275976,1,0,0:0:0:0:
256,192,276097,1,8,0:0:0:0:
256,192,276217,1,0,0:0:0:0:
256,192,276338,1,0,0:0:0:0:
256,192,276459,1,8,0:0:0:0:
256,192,276701,1,8,0:0:0:0:
256,192,276822,1,8,0:0:0:0:
256,192,276943,1,0,0:0:0:0:
256,192,277427,1,8,0:0:0:0:
256,192,277668,1,0,0:0:0:0:
256,192,277789,1,0,0:0:0:0:
256,192,277910,1,8,0:0:0:0:
256,192,278031,1,8,0:0:0:0:
256,192,278273,1,0,0:0:0:0:
256,192,278394,1,8,0:0:0:0:
256,192,278636,1,8,0:0:0:0:
256,192,278757,1,8,0:0:0:0:
256,192,278877,1,0,0:0:0:0:
256,192,279119,1,8,0:0:0:0:
256,192,279240,1,0,0:0:0:0:
256,192,279361,1,8,0:0:0:0:
256,192,279603,1,0,0:0:0:0:
256,192,279724,1,8,0:0:0:0:
256,192,279845,1,0,0:0:0:0:
256,192,279966,1,8,0:0:0:0:
256,192,280087,1,0,0:0:0:0:
256,192,280207,1,0,0:0:0:0:
256,192,280328,1,8,0:0:0:0:
256,192,280570,1,8,0:0:0:0:
256,192,280691,1,8,0:0:0:0:
256,192,280812,1,4,0:0:0:0:
256,192,281296,1,8,0:0:0:0:
256,192,281538,1,0,0:0:0:0:
256,192,281658,1,0,0:0:0:0:
256,192,281779,1,8,0:0:0:0:
256,192,281900,1,0,0:0:0:0:
256,192,282142,1,0,0:0:0:0:
256,192,282263,1,8,0:0:0:0:
256,192,282505,1,0,0:0:0:0:
256,192,282626,1,8,0:0:0:0:
256,192,282747,1,0,0:0:0:0:
256,192,282988,1,0,0:0:0:0:
256,192,283109,1,0,0:0:0:0:
256,192,283230,1,8,0:0:0:0:
256,192,283472,1,8,0:0:0:0:
256,192,283593,1,8,0:0:0:0:
256,192,283714,1,0,0:0:0:0:
256,192,283835,1,8,0:0:0:0:
256,192,283956,1,0,0:0:0:0:
256,192,284077,1,0,0:0:0:0:
256,192,284198,1,8,0:0:0:0:
256,192,284439,1,8,0:0:0:0:
256,192,284560,1,8,0:0:0:0:
256,192,284681,1,0,0:0:0:0:
256,192,284923,1,12,0:0:0:0:
256,192,285286,1,0,0:0:0:0:
256,192,285407,1,8,0:0:0:0:
256,192,285648,1,8,0:0:0:0:
256,192,285890,1,8,0:0:0:0:
256,192,286132,1,8,0:0:0:0:
256,192,286253,1,8,0:0:0:0:
256,192,286374,1,0,0:0:0:0:
256,192,286495,1,8,0:0:0:0:
256,192,286616,1,0,0:0:0:0:
256,192,286858,1,8,0:0:0:0:
256,192,286979,1,8,0:0:0:0:
256,192,287220,1,8,0:0:0:0:
256,192,287341,1,0,0:0:0:0:
256,192,287583,1,0,0:0:0:0:
256,192,287704,1,0,0:0:0:0:
256,192,287946,1,0,0:0:0:0:
256,192,288067,1,8,0:0:0:0:
256,192,288188,1,8,0:0:0:0:
256,192,288308,1,0,0:0:0:0:
256,192,288550,1,12,0:0:0:0:
