osu file format v14

[General]
AudioFilename: audio.mp3
AudioLeadIn: 0
PreviewTime: 164584
Countdown: 0
SampleSet: Normal
StackLeniency: 0.7
Mode: 1
LetterboxInBreaks: 0
WidescreenStoryboard: 1

[Editor]
Bookmarks: 56279,87232,102709,110447,118185,125923,133661,164614,172350,180092,187820,195576,203305,211043,218782,226520,234258,241996,249734,257472,265211,272949,280687,288425
DistanceSpacing: 1.5
BeatDivisor: 6
GridSize: 32
TimelineZoom: 3.300004

[Metadata]
Title:Contact (Cut Ver.)
TitleUnicode:Contact (Cut Ver.)
Artist:Daft Punk
ArtistUnicode:Daft Punk
Creator:Blackener
Version:Muzukashii
Source:
Tags:RAM Random Access Memory Memories Thomas Bangalter Guy-Manuel de Homem-Christo The Sherbs Sherbet We Ride Tonight Defying Gravity electronic instrumental
BeatmapID:2706948
BeatmapSetID:1287218

[Difficulty]
HPDrainRate:5
CircleSize:5
OverallDifficulty:5
ApproachRate:5
SliderMultiplier:1.4
SliderTickRate:1

[Events]
//Background and Video events
0,0,"BG.png",0,0
//Break Periods
//Storyboard Layer 0 (Background)
//Storyboard Layer 1 (Fail)
//Storyboard Layer 2 (Pass)
//Storyboard Layer 3 (Foreground)
//Storyboard Layer 4 (Overlay)
//Storyboard Sound Samples

[TimingPoints]
56405,483.63694986297,4,1,0,55,1,0
87357,-100,4,1,0,50,0,0
102803,-100,4,1,0,55,0,0
102834,-100,4,1,0,60,0,0
133786,-100,4,1,0,55,0,0
164739,-100,4,1,0,60,0,0
195662,-99.9480789200415,4,1,0,60,0,0
195692,-99.9349381912817,4,1,0,65,0,1
195903,-99.8962117280747,4,1,0,65,0,1
196145,-99.844398340249,4,1,0,65,0,1
196387,-99.7926386728875,4,1,0,65,0,1
196629,-99.7409326424871,4,1,0,65,0,1
196871,-99.6892801657173,4,1,0,65,0,1
197112,-99.6376811594203,4,1,0,65,0,1
197354,-99.5861355406104,4,1,0,65,0,1
197596,-99.5346432264736,4,1,0,65,0,1
197838,-99.4832041343669,4,1,0,65,0,1
198080,-99.4318181818182,4,1,0,65,0,1
198322,-99.3804852865256,4,1,0,65,0,1
198563,-99.3292053663571,4,1,0,65,0,1
198805,-99.2779783393502,4,1,0,65,0,1
199047,-99.2268041237114,4,1,0,65,0,1
199289,-99.1756826378156,4,1,0,65,0,1
199531,-99.124613800206,4,1,0,65,0,1
199772,-99.0735975295934,4,1,0,65,0,1
200014,-99.022633744856,4,1,0,65,0,1
200256,-98.9717223650386,4,1,0,65,0,1
200498,-98.9208633093525,4,1,0,65,0,1
200740,-98.8700564971752,4,1,0,65,0,1
200982,-98.8193018480493,4,1,0,65,0,1
201223,-98.7685992816829,4,1,0,65,0,1
201465,-98.7179487179487,4,1,0,65,0,1
201707,-98.6673500768837,4,1,0,65,0,1
201949,-98.6168032786885,4,1,0,65,0,1
202191,-98.5663082437276,4,1,0,65,0,1
202432,-98.5158648925281,4,1,0,65,0,1
202674,-98.4654731457801,4,1,0,65,0,1
202916,-98.4151329243354,4,1,0,65,0,1
203158,-98.364844149208,4,1,0,65,0,1
203400,-98.314606741573,4,1,0,65,0,1
203642,-98.2644206227667,4,1,0,65,0,1
203883,-98.2142857142857,4,1,0,65,0,1
204125,-98.1642019377868,4,1,0,65,0,1
204367,-98.1141692150866,4,1,0,65,0,1
204609,-98.064187468161,4,1,0,65,0,1
204851,-98.0142566191446,4,1,0,65,0,1
205092,-97.9643765903308,4,1,0,65,0,1
205334,-97.9145473041709,4,1,0,65,0,1
205576,-97.864768683274,4,1,0,65,0,1
205818,-97.8150406504065,4,1,0,65,0,1
206060,-97.7653631284916,4,1,0,65,0,1
206302,-97.7157360406091,4,1,0,65,0,1
206543,-97.6661593099949,4,1,0,65,0,1
206785,-97.6166328600406,4,1,0,65,0,1
207027,-97.567156614293,4,1,0,65,0,1
207269,-97.5177304964539,4,1,0,65,0,1
207511,-97.4683544303797,4,1,0,65,0,1
207752,-97.419028340081,4,1,0,65,0,1
207994,-97.3697521497218,4,1,0,65,0,1
208236,-97.3205257836198,4,1,0,65,0,1
208478,-97.2713491662456,4,1,0,65,0,1
208720,-97.2222222222222,4,1,0,65,0,1
208962,-97.1731448763251,4,1,0,65,0,1
209203,-97.1241170534813,4,1,0,65,0,1
209445,-97.0751386787695,4,1,0,65,0,1
209687,-97.0262096774194,4,1,0,65,0,1
209929,-96.9773299748111,4,1,0,65,0,1
210171,-96.9284994964753,4,1,0,65,0,1
210412,-96.8797181680926,4,1,0,65,0,1
210654,-96.830985915493,4,1,0,65,0,1
210896,-96.7823026646556,4,1,0,65,0,1
211138,-96.7336683417086,4,1,0,65,0,1
211380,-96.6850828729282,4,1,0,65,0,1
211622,-96.6365461847389,4,1,0,65,0,1
211863,-96.588058203713,4,1,0,65,0,1
212105,-96.5396188565697,4,1,0,65,0,1
212347,-96.4912280701754,4,1,0,65,0,1
212589,-96.4428857715431,4,1,0,65,0,1
212831,-96.3945918878318,4,1,0,65,0,1
213072,-96.3463463463464,4,1,0,65,0,1
213314,-96.2981490745373,4,1,0,65,0,1
213556,-96.25,4,1,0,65,0,1
213798,-96.2018990504748,4,1,0,65,0,1
214040,-96.1538461538461,4,1,0,65,0,1
214282,-96.1058412381428,4,1,0,65,0,1
214523,-96.0578842315369,4,1,0,65,0,1
214765,-96.0099750623441,4,1,0,65,0,1
215007,-95.9621136590229,4,1,0,65,0,1
215249,-95.9142999501744,4,1,0,65,0,1
215491,-95.8665338645418,4,1,0,65,0,1
215732,-95.8188153310104,4,1,0,65,0,1
215974,-95.771144278607,4,1,0,65,0,1
216216,-95.7235206364993,4,1,0,65,0,1
216458,-95.675944333996,4,1,0,65,0,1
216700,-95.6284153005464,4,1,0,65,0,1
216942,-95.5809334657398,4,1,0,65,0,1
217183,-95.5334987593052,4,1,0,65,0,1
217425,-95.4861111111111,4,1,0,65,0,1
217667,-95.4387704511651,4,1,0,65,0,1
217909,-95.3914767096135,4,1,0,65,0,1
218151,-95.3442298167409,4,1,0,65,0,1
218392,-95.2970297029703,4,1,0,65,0,1
218634,-95.249876298862,4,1,0,65,0,1
218876,-95.2027695351137,4,1,0,65,0,1
219118,-95.1557093425606,4,1,0,65,0,1
219360,-95.1086956521739,4,1,0,65,0,1
219602,-95.0617283950617,4,1,0,65,0,1
219843,-95.0148075024679,4,1,0,65,0,1
220085,-94.9679329057721,4,1,0,65,0,1
220327,-94.9211045364892,4,1,0,65,0,1
220569,-94.8743223262691,4,1,0,65,0,1
220811,-94.8275862068966,4,1,0,65,0,1
221052,-94.7808961102905,4,1,0,65,0,1
221294,-94.7342519685039,4,1,0,65,0,1
221536,-94.6876537137236,4,1,0,65,0,1
221778,-94.6411012782694,4,1,0,65,0,1
222020,-94.5945945945946,4,1,0,65,0,1
222262,-94.5481335952849,4,1,0,65,0,1
222503,-94.5017182130584,4,1,0,65,0,1
222745,-94.4553483807655,4,1,0,65,0,1
222987,-94.4090240313879,4,1,0,65,0,1
223229,-94.3627450980392,4,1,0,65,0,1
223471,-94.3165115139637,4,1,0,65,0,1
223712,-94.2703232125367,4,1,0,65,0,1
223954,-94.2241801272638,4,1,0,65,0,1
224196,-94.1780821917808,4,1,0,65,0,1
224438,-94.1320293398533,4,1,0,65,0,1
224680,-94.0860215053763,4,1,0,65,0,1
224922,-94.0400586223742,4,1,0,65,0,1
225163,-93.994140625,4,1,0,65,0,1
225405,-93.9482674475354,4,1,0,65,0,1
225647,-93.9024390243902,4,1,0,65,0,1
225889,-93.8566552901024,4,1,0,65,0,1
226131,-93.8109161793372,4,1,0,65,0,1
226372,-93.7652216268875,4,1,0,65,0,1
226614,-93.7195715676728,4,1,0,65,0,1
226856,-93.6739659367397,4,1,0,65,0,1
227098,-93.6284046692607,4,1,0,65,0,1
227340,-93.5828877005348,4,1,0,65,0,1
227582,-93.5374149659864,4,1,0,65,0,1
227823,-93.4919864011656,4,1,0,65,0,1
228065,-93.4466019417476,4,1,0,65,0,1
228307,-93.4012615235323,4,1,0,65,0,1
228549,-93.3559650824442,4,1,0,65,0,1
228791,-93.3107125545322,4,1,0,65,0,1
229032,-93.265503875969,4,1,0,65,0,1
229274,-93.2203389830508,4,1,0,65,0,1
229516,-93.1752178121975,4,1,0,65,0,1
229758,-93.1301402999516,4,1,0,65,0,1
230000,-93.0851063829787,4,1,0,65,0,1
230242,-93.0401159980667,4,1,0,65,0,1
230483,-92.9951690821256,4,1,0,65,0,1
230725,-92.9502655721873,4,1,0,65,0,1
230967,-92.9054054054054,4,1,0,65,0,1
231209,-92.8605885190545,4,1,0,65,0,1
231451,-92.8158148505304,4,1,0,65,0,1
231692,-92.7710843373494,4,1,0,65,0,1
231934,-92.7263969171484,4,1,0,65,0,1
232176,-92.6817525276842,4,1,0,65,0,1
232418,-92.6371511068335,4,1,0,65,0,1
232660,-92.5925925925926,4,1,0,65,0,1
232902,-92.5480769230769,4,1,0,65,0,1
233143,-92.5036040365209,4,1,0,65,0,1
233385,-92.4591738712776,4,1,0,65,0,1
233627,-92.4147863658185,4,1,0,65,0,1
233869,-92.3704414587332,4,1,0,65,0,1
234111,-92.326139088729,4,1,0,65,0,1
234352,-92.2818791946309,4,1,0,65,0,1
234594,-92.2376617153809,4,1,0,65,0,1
234836,-92.1934865900383,4,1,0,65,0,1
235078,-92.1493537577788,4,1,0,65,0,1
235320,-92.1052631578947,4,1,0,65,0,1
235562,-92.0612147297944,4,1,0,65,0,1
235803,-92.0172084130019,4,1,0,65,0,1
236045,-91.9732441471572,4,1,0,65,0,1
236287,-91.9293218720153,4,1,0,65,0,1
236529,-91.8854415274463,4,1,0,65,0,1
236771,-91.8416030534351,4,1,0,65,0,1
237012,-91.7978063900811,4,1,0,65,0,1
237254,-91.7540514775977,4,1,0,65,0,1
237496,-91.7103382563125,4,1,0,65,0,1
237738,-91.6666666666667,4,1,0,65,0,1
237980,-91.6230366492147,4,1,0,65,0,1
238222,-91.5794481446242,4,1,0,65,0,1
238463,-91.5359010936757,4,1,0,65,0,1
238705,-91.4923954372624,4,1,0,65,0,1
238947,-91.4489311163895,4,1,0,65,0,1
239189,-91.4055080721747,4,1,0,65,0,1
239431,-91.3621262458472,4,1,0,65,0,1
239672,-91.3187855787476,4,1,0,65,0,1
239914,-91.2754860123281,4,1,0,65,0,1
240156,-91.2322274881517,4,1,0,65,0,1
240398,-91.189009947892,4,1,0,65,0,1
240640,-91.1458333333333,4,1,0,65,0,1
240882,-91.1026975863701,4,1,0,65,0,1
241123,-91.0596026490066,4,1,0,65,0,1
241365,-91.016548463357,4,1,0,65,0,1
241607,-90.9735349716446,4,1,0,65,0,1
241849,-90.9305621162022,4,1,0,65,0,1
242091,-90.8876298394712,4,1,0,65,0,1
242332,-90.8447380840019,4,1,0,65,0,1
242574,-90.8018867924528,4,1,0,65,0,1
242816,-90.7590759075908,4,1,0,65,0,1
243058,-90.7163053722903,4,1,0,65,0,1
243300,-90.6735751295337,4,1,0,65,0,1
243542,-90.6308851224105,4,1,0,65,0,1
243783,-90.5882352941177,4,1,0,65,0,1
244025,-90.5456255879586,4,1,0,65,0,1
244267,-90.5030559473437,4,1,0,65,0,1
244509,-90.4605263157895,4,1,0,65,0,1
244751,-90.4180366369187,4,1,0,65,0,1
244992,-90.3755868544601,4,1,0,65,0,1
245234,-90.3331769122478,4,1,0,65,0,1
245476,-90.2908067542214,4,1,0,65,0,1
245718,-90.2484763244257,4,1,0,65,0,1
245960,-90.2061855670103,4,1,0,65,0,1
246202,-90.1639344262295,4,1,0,65,0,1
246443,-90.121722846442,4,1,0,65,0,1
246685,-90.0795507721104,4,1,0,65,0,1
246927,-90.0374181478017,4,1,0,65,0,1
247169,-89.9953249181861,4,1,0,65,0,1
247411,-89.9532710280374,4,1,0,65,0,1
247652,-89.9112564222326,4,1,0,65,0,1
247894,-89.8692810457516,4,1,0,65,0,1
248136,-89.8273448436771,4,1,0,65,0,1
248378,-89.785447761194,4,1,0,65,0,1
248620,-89.7435897435897,4,1,0,65,0,1
248862,-89.7017707362535,4,1,0,65,0,1
249103,-89.6599906846763,4,1,0,65,0,1
249345,-89.6182495344507,4,1,0,65,0,1
249587,-89.5765472312704,4,1,0,65,0,1
249829,-89.5348837209302,4,1,0,65,0,1
250071,-89.4932589493259,4,1,0,65,0,1
250312,-89.4516728624535,4,1,0,65,0,1
250554,-89.4101254064097,4,1,0,65,0,1
250796,-89.3686165273909,4,1,0,65,0,1
251038,-89.3271461716937,4,1,0,65,0,1
251280,-89.2857142857143,4,1,0,65,0,1
251522,-89.2443208159481,4,1,0,65,0,1
251763,-89.2029657089898,4,1,0,65,0,1
252005,-89.1616489115331,4,1,0,65,0,1
252247,-89.1203703703704,4,1,0,65,0,1
252489,-89.0791300323924,4,1,0,65,0,1
252731,-89.0379278445883,4,1,0,65,0,1
252972,-88.9967637540453,4,1,0,65,0,1
253214,-88.9556377079482,4,1,0,65,0,1
253456,-88.9145496535797,4,1,0,65,0,1
253698,-88.8734995383195,4,1,0,65,0,1
253940,-88.8324873096447,4,1,0,65,0,1
254182,-88.7915129151291,4,1,0,65,0,1
254423,-88.7505763024435,4,1,0,65,0,1
254665,-88.7096774193548,4,1,0,65,0,1
254907,-88.6688162137264,4,1,0,65,0,1
255149,-88.6279926335175,4,1,0,65,0,1
255391,-88.5872066267833,4,1,0,65,0,1
255632,-88.5464581416743,4,1,0,65,0,1
255874,-88.5057471264368,4,1,0,65,0,1
256116,-88.4650735294118,4,1,0,65,0,1
256358,-88.4244372990354,4,1,0,65,0,1
256600,-88.3838383838384,4,1,0,65,0,1
256842,-88.3432767324461,4,1,0,65,0,1
257083,-88.302752293578,4,1,0,65,0,1
257325,-88.2622650160477,4,1,0,65,0,1
257567,-88.2218148487626,4,1,0,65,0,1
257809,-88.1814017407238,4,1,0,65,0,1
258051,-88.1410256410256,4,1,0,65,0,1
258292,-88.1006864988558,4,1,0,65,0,1
258534,-88.060384263495,4,1,0,65,0,1
258776,-88.0201188843164,4,1,0,65,0,1
259018,-87.9798903107861,4,1,0,65,0,1
259260,-87.9396984924623,4,1,0,65,0,1
259502,-87.8995433789954,4,1,0,65,0,1
259743,-87.8594249201278,4,1,0,65,0,1
259985,-87.8193430656934,4,1,0,65,0,1
260227,-87.7792977656179,4,1,0,65,0,1
260469,-87.739288969918,4,1,0,65,0,1
260711,-87.6993166287016,4,1,0,65,0,1
260952,-87.6593806921676,4,1,0,65,0,1
261194,-87.6194811106054,4,1,0,65,0,1
261436,-87.5796178343949,4,1,0,65,0,1
261678,-87.5397908140064,4,1,0,65,0,1
261920,-87.5,4,1,0,65,0,1
262162,-87.4602453430259,4,1,0,65,0,1
262403,-87.4205267938238,4,1,0,65,0,1
262645,-87.3808443032229,4,1,0,65,0,1
262887,-87.3411978221416,4,1,0,65,0,1
263129,-87.3015873015873,4,1,0,65,0,1
263371,-87.2620126926564,4,1,0,65,0,1
263612,-87.2224739465338,4,1,0,65,0,1
263854,-87.1829710144928,4,1,0,65,0,1
264096,-87.143503847895,4,1,0,65,0,1
264338,-87.10407239819,4,1,0,65,0,1
264580,-87.0646766169154,4,1,0,65,0,1
264822,-87.0253164556962,4,1,0,65,0,1
265063,-86.9859918662449,4,1,0,65,0,1
265305,-86.9467028003613,4,1,0,65,0,1
265547,-86.9074492099323,4,1,0,65,0,1
265789,-86.8682310469314,4,1,0,65,0,1
266031,-86.829048263419,4,1,0,65,0,1
266272,-86.7899008115419,4,1,0,65,0,1
266514,-86.7507886435331,4,1,0,65,0,1
266756,-86.7117117117117,4,1,0,65,0,1
266998,-86.6726699684827,4,1,0,65,0,1
267240,-86.6336633663366,4,1,0,65,0,1
267482,-86.5946918578498,4,1,0,65,0,1
267723,-86.5557553956834,4,1,0,65,0,1
267965,-86.5168539325843,4,1,0,65,0,1
268207,-86.4779874213836,4,1,0,65,0,1
268449,-86.4391558149978,4,1,0,65,0,1
268691,-86.4003590664273,4,1,0,65,0,1
268932,-86.3615971287573,4,1,0,65,0,1
269174,-86.322869955157,4,1,0,65,0,1
269416,-86.2841774988794,4,1,0,65,0,1
269658,-86.2455197132617,4,1,0,65,0,1
269900,-86.2068965517241,4,1,0,65,0,1
270142,-86.1683079677708,4,1,0,65,0,1
270383,-86.1297539149888,4,1,0,65,0,1
270625,-86.0912343470483,4,1,0,65,0,1
270867,-86.0527492177023,4,1,0,65,0,1
271109,-86.0142984807864,4,1,0,65,0,1
271351,-85.9758820902189,4,1,0,65,0,1
271593,-85.9375,4,1,0,65,0,1
271834,-85.8991521642124,4,1,0,65,0,1
272076,-85.8608385370205,4,1,0,65,0,1
272318,-85.8225590726705,4,1,0,65,0,1
272560,-85.7843137254902,4,1,0,65,0,1
272802,-85.7461024498886,4,1,0,65,0,1
273043,-85.7079252003562,4,1,0,65,0,1
273285,-85.6697819314642,4,1,0,65,0,1
273527,-85.6316725978648,4,1,0,65,0,1
273769,-85.5935971542908,4,1,0,65,0,1
274011,-85.5555555555556,4,1,0,65,0,1
274253,-85.5175477565526,4,1,0,65,0,1
274494,-85.4795737122558,4,1,0,65,0,1
274736,-85.4416333777186,4,1,0,65,0,1
274978,-85.4037267080745,4,1,0,65,0,1
275220,-85.3658536585366,4,1,0,65,0,1
275462,-85.3280141843972,4,1,0,65,0,1
275703,-85.2902082410279,4,1,0,65,0,1
275945,-85.2524357838795,4,1,0,65,0,1
276187,-85.2146967684816,4,1,0,65,0,1
276429,-85.1769911504425,4,1,0,65,0,1
276671,-85.1393188854489,4,1,0,65,0,1
276913,-85.1016799292661,4,1,0,65,0,1
277154,-85.0640742377375,4,1,0,65,0,1
277396,-85.0265017667845,4,1,0,65,0,1
277638,-84.9889624724062,4,1,0,65,0,1
277880,-84.9514563106796,4,1,0,65,0,1
278122,-84.9139832377592,4,1,0,65,0,1
278363,-84.8765432098765,4,1,0,65,0,1
278605,-84.8391361833407,4,1,0,65,0,1
278847,-84.8017621145375,4,1,0,65,0,1
279089,-84.7644209599295,4,1,0,65,0,1
279331,-84.7271126760564,4,1,0,65,0,1
279573,-84.6898372195337,4,1,0,65,0,1
279814,-84.6525945470537,4,1,0,65,0,1
280056,-84.6153846153846,4,1,0,65,0,1
280298,-84.5782073813708,4,1,0,65,0,1
280540,-84.5410628019324,4,1,0,65,0,1
280782,-84.503950834065,4,1,0,65,0,1
281023,-84.4668714348398,4,1,0,65,0,1
281265,-84.4298245614035,4,1,0,65,0,1
281507,-84.3928101709776,4,1,0,65,0,1
281749,-84.3558282208589,4,1,0,65,0,1
281991,-84.3188786684187,4,1,0,65,0,1
282233,-84.2819614711033,4,1,0,65,0,1
282474,-84.2450765864333,4,1,0,65,0,1
282716,-84.2082239720035,4,1,0,65,0,1
282958,-84.1714035854832,4,1,0,65,0,1
283200,-84.1346153846154,4,1,0,65,0,1
283442,-84.0978593272171,4,1,0,65,0,1
283683,-84.061135371179,4,1,0,65,0,1
283925,-84.0244434744653,4,1,0,65,0,1
284167,-83.9877835951135,4,1,0,65,0,1
284409,-83.9511556912342,4,1,0,65,0,1
284651,-83.9145597210113,4,1,0,65,0,1
284893,-83.8779956427015,4,1,0,65,0,1
285134,-83.8414634146341,4,1,0,65,0,1
285376,-83.8049629952112,4,1,0,65,0,1
285618,-83.7684943429069,4,1,0,65,0,1
285860,-83.7320574162679,4,1,0,65,0,1
286102,-83.695652173913,4,1,0,65,0,1
286343,-83.6592785745328,4,1,0,65,0,1
286585,-83.6229365768897,4,1,0,65,0,1
286827,-83.5866261398176,4,1,0,65,0,1
287069,-83.5503472222222,4,1,0,65,0,1
287311,-83.5140997830803,4,1,0,65,0,1
287553,-83.4778837814397,4,1,0,65,0,1
287794,-83.4416991764196,4,1,0,65,0,1
288036,-83.4055459272097,4,1,0,65,0,1
288278,-83.3694239930706,4,1,0,65,0,1
288520,-83.3333333333333,4,1,0,65,0,1
288550,-71.4285714285714,4,1,0,65,0,0

[HitObjects]
256,192,55921,5,8,0:0:0:0:
256,192,56042,1,8,0:0:0:0:
256,192,56163,1,8,0:0:0:0:
256,192,56404,1,0,0:0:0:0:
256,192,58339,1,8,0:0:0:0:
256,192,60274,1,0,0:0:0:0:
256,192,62208,5,8,0:0:0:0:
256,192,63659,1,8,0:0:0:0:
256,192,63780,1,8,0:0:0:0:
256,192,63901,1,8,0:0:0:0:
256,192,64143,1,0,0:0:0:0:
256,192,66077,1,8,0:0:0:0:
256,192,68012,1,0,0:0:0:0:
256,192,69946,1,8,0:0:0:0:
256,192,71397,1,8,0:0:0:0:
256,192,71518,1,8,0:0:0:0:
256,192,71639,1,8,0:0:0:0:
256,192,71881,1,0,0:0:0:0:
256,192,73815,1,8,0:0:0:0:
256,192,75750,1,0,0:0:0:0:
256,192,77685,1,8,0:0:0:0:
256,192,79135,1,8,0:0:0:0:
256,192,79256,1,8,0:0:0:0:
256,192,79377,1,8,0:0:0:0:
256,192,79619,1,0,0:0:0:0:
256,192,81554,1,8,0:0:0:0:
256,192,83488,1,0,0:0:0:0:
256,192,85423,1,8,0:0:0:0:
256,192,87357,1,0,0:0:0:0:
256,192,87841,1,0,0:0:0:0:
256,192,88083,1,8,0:0:0:0:
256,192,88325,1,0,0:0:0:0:
256,192,88566,1,0,0:0:0:0:
256,192,88687,1,0,0:0:0:0:
256,192,88808,1,0,0:0:0:0:
256,192,89050,1,8,0:0:0:0:
256,192,89292,1,0,0:0:0:0:
256,192,89775,1,0,0:0:0:0:
256,192,90017,1,8,0:0:0:0:
256,192,90259,1,0,0:0:0:0:
256,192,90501,1,0,0:0:0:0:
256,192,90622,1,0,0:0:0:0:
256,192,90743,1,0,0:0:0:0:
256,192,90985,1,8,0:0:0:0:
256,192,91226,1,0,0:0:0:0:
256,192,91710,1,0,0:0:0:0:
256,192,91952,1,8,0:0:0:0:
256,192,92194,1,0,0:0:0:0:
256,192,92435,1,8,0:0:0:0:
256,192,92556,1,8,0:0:0:0:
256,192,92677,1,8,0:0:0:0:
256,192,92919,1,8,0:0:0:0:
256,192,93161,1,0,0:0:0:0:
256,192,93645,1,0,0:0:0:0:
256,192,93886,1,8,0:0:0:0:
256,192,94128,1,0,0:0:0:0:
256,192,94370,1,0,0:0:0:0:
256,192,94491,1,0,0:0:0:0:
256,192,94612,1,8,0:0:0:0:
256,192,94854,1,8,0:0:0:0:
256,192,95095,1,0,0:0:0:0:
256,192,95579,1,0,0:0:0:0:
256,192,95821,1,8,0:0:0:0:
256,192,96063,1,0,0:0:0:0:
256,192,96304,1,0,0:0:0:0:
256,192,96425,1,0,0:0:0:0:
256,192,96546,1,0,0:0:0:0:
256,192,96788,1,8,0:0:0:0:
256,192,97030,1,0,0:0:0:0:
256,192,97513,1,0,0:0:0:0:
256,192,97755,1,8,0:0:0:0:
256,192,97997,1,0,0:0:0:0:
256,192,98239,1,0,0:0:0:0:
256,192,98360,1,0,0:0:0:0:
256,192,98481,1,0,0:0:0:0:
256,192,98723,1,8,0:0:0:0:
256,192,98964,1,0,0:0:0:0:
256,192,99448,1,0,0:0:0:0:
256,192,99690,1,8,0:0:0:0:
256,192,99932,1,0,0:0:0:0:
256,192,100173,1,8,0:0:0:0:
256,192,100294,1,8,0:0:0:0:
256,192,100415,1,8,0:0:0:0:
256,192,100657,1,8,0:0:0:0:
256,192,100899,1,0,0:0:0:0:
256,192,101383,1,0,0:0:0:0:
256,192,101624,1,8,0:0:0:0:
256,192,101866,1,0,0:0:0:0:
256,192,102108,1,0,0:0:0:0:
256,192,102229,1,0,0:0:0:0:
256,192,102350,1,8,0:0:0:0:
256,192,102592,1,8,0:0:0:0:
256,192,102834,1,4,0:0:0:0:
256,192,103317,1,8,0:0:0:0:
256,192,103559,1,0,0:0:0:0:
256,192,103680,1,8,0:0:0:0:
256,192,104043,1,8,0:0:0:0:
256,192,104285,1,0,0:0:0:0:
256,192,104526,1,0,0:0:0:0:
256,192,104768,1,12,0:0:0:0:
256,192,105252,1,8,0:0:0:0:
256,192,105494,1,0,0:0:0:0:
256,192,105615,1,8,0:0:0:0:
256,192,105977,1,8,0:0:0:0:
256,192,106219,1,0,0:0:0:0:
256,192,106340,1,0,0:0:0:0:
256,192,106461,1,0,0:0:0:0:
256,192,106703,1,12,0:0:0:0:
256,192,107186,1,8,0:0:0:0:
256,192,107428,1,0,0:0:0:0:
256,192,107549,1,8,0:0:0:0:
256,192,107912,1,8,0:0:0:0:
256,192,108395,1,8,0:0:0:0:
256,192,108637,1,4,0:0:0:0:
256,192,109121,1,8,0:0:0:0:
256,192,109363,1,0,0:0:0:0:
256,192,109484,1,8,0:0:0:0:
256,192,109846,1,8,0:0:0:0:
256,192,110088,1,0,0:0:0:0:
256,192,110209,1,0,0:0:0:0:
256,192,110330,1,0,0:0:0:0:
256,192,110572,1,12,0:0:0:0:
256,192,111055,1,8,0:0:0:0:
256,192,111297,1,0,0:0:0:0:
256,192,111418,1,8,0:0:0:0:
256,192,111781,1,8,0:0:0:0:
256,192,112265,1,8,0:0:0:0:
256,192,112506,1,0,0:0:0:0:
256,192,112990,1,8,0:0:0:0:
256,192,113232,1,0,0:0:0:0:
256,192,113353,1,8,0:0:0:0:
256,192,113715,1,8,0:0:0:0:
256,192,113957,1,0,0:0:0:0:
256,192,114078,1,0,0:0:0:0:
256,192,114199,1,0,0:0:0:0:
256,192,114441,1,4,0:0:0:0:
256,192,114925,1,8,0:0:0:0:
256,192,115166,1,0,0:0:0:0:
256,192,115287,1,8,0:0:0:0:
256,192,115650,1,8,0:0:0:0:
256,192,115892,1,0,0:0:0:0:
256,192,116134,1,0,0:0:0:0:
256,192,116255,1,0,0:0:0:0:
256,192,116375,1,0,0:0:0:0:
256,192,116859,1,8,0:0:0:0:
256,192,117101,1,0,0:0:0:0:
256,192,117222,1,8,0:0:0:0:
256,192,117585,1,8,0:0:0:0:
256,192,117826,1,8,0:0:0:0:
256,192,117947,1,8,0:0:0:0:
256,192,118068,1,8,0:0:0:0:
256,192,118310,1,4,0:0:0:0:
256,192,118794,1,8,0:0:0:0:
270,182,119035,1,0,0:0:0:0:
256,192,119156,1,8,0:0:0:0:
256,192,119519,1,8,0:0:0:0:
256,192,119761,1,8,0:0:0:0:
256,192,119882,1,8,0:0:0:0:
256,192,120003,1,8,0:0:0:0:
256,192,120245,1,0,0:0:0:0:
256,192,120728,1,8,0:0:0:0:
256,192,121091,1,8,0:0:0:0:
266,195,121333,1,0,0:0:0:0:
256,192,121454,1,8,0:0:0:0:
256,192,121695,1,8,0:0:0:0:
256,192,121937,1,0,0:0:0:0:
256,192,122058,1,0,0:0:0:0:
256,192,122179,1,0,0:0:0:0:
256,192,122663,1,8,0:0:0:0:
256,192,122905,1,0,0:0:0:0:
256,192,123025,1,8,0:0:0:0:
256,192,123388,1,8,0:0:0:0:
256,192,123630,1,0,0:0:0:0:
256,192,123751,1,0,0:0:0:0:
256,192,123872,1,0,0:0:0:0:
256,192,124114,1,4,0:0:0:0:
256,192,124597,1,8,0:0:0:0:
256,192,124839,1,0,0:0:0:0:
256,192,124960,1,8,0:0:0:0:
256,192,125323,1,8,0:0:0:0:
256,192,125565,1,0,0:0:0:0:
256,192,125685,1,0,0:0:0:0:
256,192,125806,1,0,0:0:0:0:
256,192,126048,1,12,0:0:0:0:
256,192,126532,1,8,0:0:0:0:
256,192,126774,1,0,0:0:0:0:
256,192,126895,1,8,0:0:0:0:
256,192,127257,1,8,0:0:0:0:
256,192,127499,1,8,0:0:0:0:
256,192,127741,1,0,0:0:0:0:
256,192,127862,1,0,0:0:0:0:
256,192,127983,1,0,0:0:0:0:
256,192,128466,1,8,0:0:0:0:
256,192,128708,1,0,0:0:0:0:
256,192,128829,1,8,0:0:0:0:
256,192,129192,1,8,0:0:0:0:
256,192,129434,1,8,0:0:0:0:
256,192,129555,1,8,0:0:0:0:
256,192,129675,1,8,0:0:0:0:
256,192,129917,1,0,0:0:0:0:
256,192,130401,1,8,0:0:0:0:
256,192,130643,1,0,0:0:0:0:
256,192,130764,1,8,0:0:0:0:
256,192,131126,1,8,0:0:0:0:
256,192,131610,1,8,0:0:0:0:
256,192,131852,1,4,0:0:0:0:
256,192,132336,1,8,0:0:0:0:
256,192,132577,1,0,0:0:0:0:
256,192,132698,1,8,0:0:0:0:
256,192,133061,1,8,0:0:0:0:
256,192,133182,1,8,0:0:0:0:
256,192,133303,1,8,0:0:0:0:
256,192,133545,1,8,0:0:0:0:
256,192,133786,1,4,0:0:0:0:
256,192,135721,1,0,0:0:0:0:
256,192,137656,1,8,0:0:0:0:
256,192,139590,1,8,0:0:0:0:
256,192,141041,1,8,0:0:0:0:
256,192,141162,1,8,0:0:0:0:
256,192,141283,1,8,0:0:0:0:
256,192,141525,1,0,0:0:0:0:
256,192,143459,1,0,0:0:0:0:
256,192,145394,1,8,0:0:0:0:
256,192,147328,1,8,0:0:0:0:
256,192,148779,1,8,0:0:0:0:
256,192,148900,1,8,0:0:0:0:
256,192,149021,1,8,0:0:0:0:
256,192,149263,1,0,0:0:0:0:
256,192,151197,1,8,0:0:0:0:
256,192,153132,1,0,0:0:0:0:
256,192,155066,1,8,0:0:0:0:
256,192,156517,1,8,0:0:0:0:
256,192,156638,1,8,0:0:0:0:
256,192,156759,1,8,0:0:0:0:
256,192,157001,1,0,0:0:0:0:
256,192,158936,1,8,0:0:0:0:
256,192,160870,1,0,0:0:0:0:
256,192,162805,1,8,0:0:0:0:
256,192,164256,1,8,0:0:0:0:
256,192,164376,1,8,0:0:0:0:
256,192,164497,1,8,0:0:0:0:
256,192,164739,1,4,0:0:0:0:
256,192,165223,1,8,0:0:0:0:
256,192,165465,1,0,0:0:0:0:
256,192,165586,1,8,0:0:0:0:
256,192,165948,1,12,0:0:0:0:
256,192,166311,1,8,0:0:0:0:
256,192,166432,1,0,0:0:0:0:
256,192,166674,1,0,0:0:0:0:
256,192,167157,1,8,0:0:0:0:
256,192,167399,1,0,0:0:0:0:
256,192,167520,1,8,0:0:0:0:
256,192,167883,1,8,0:0:0:0:
256,192,168125,1,8,0:0:0:0:
256,192,168366,1,0,0:0:0:0:
256,192,168487,1,0,0:0:0:0:
256,192,168608,1,0,0:0:0:0:
256,192,169092,1,8,0:0:0:0:
256,192,169334,1,0,0:0:0:0:
256,192,169455,1,8,0:0:0:0:
256,192,169817,1,12,0:0:0:0:
256,192,170180,1,8,0:0:0:0:
256,192,170301,1,0,0:0:0:0:
256,192,170543,1,0,0:0:0:0:
256,192,171026,1,8,0:0:0:0:
256,192,171268,1,0,0:0:0:0:
256,192,171510,5,8,0:0:0:0:
256,192,171873,1,8,0:0:0:0:
256,192,172115,1,0,0:0:0:0:
256,192,172236,1,8,0:0:0:0:
256,192,172477,1,4,0:0:0:0:
256,192,172961,1,8,0:0:0:0:
256,192,173203,1,0,0:0:0:0:
256,192,173324,1,8,0:0:0:0:
256,192,173686,1,12,0:0:0:0:
256,192,174170,1,8,0:0:0:0:
256,192,174291,1,8,0:0:0:0:
256,192,174412,1,0,0:0:0:0:
256,192,174896,1,8,0:0:0:0:
256,192,175137,1,0,0:0:0:0:
256,192,175258,1,8,0:0:0:0:
256,192,175621,1,8,0:0:0:0:
256,192,175863,1,0,0:0:0:0:
256,192,175984,1,0,0:0:0:0:
256,192,176105,1,0,0:0:0:0:
256,192,176346,1,0,0:0:0:0:
256,192,176830,1,12,0:0:0:0:
256,192,177193,1,8,0:0:0:0:
256,192,177556,1,8,0:0:0:0:
256,192,177918,1,8,0:0:0:0:
256,192,178039,1,0,0:0:0:0:
256,192,178281,1,8,0:0:0:0:
256,192,178644,1,8,0:0:0:0:
256,192,179006,1,0,0:0:0:0:
256,192,179369,1,0,0:0:0:0:
256,192,179732,1,8,0:0:0:0:
256,192,179974,1,0,0:0:0:0:
256,192,180216,1,4,0:0:0:0:
256,192,180699,1,8,0:0:0:0:
256,192,180941,1,0,0:0:0:0:
256,192,181062,1,8,0:0:0:0:
256,192,181425,1,12,0:0:0:0:
256,192,181908,1,8,0:0:0:0:
256,192,182029,1,8,0:0:0:0:
256,192,182150,1,0,0:0:0:0:
256,192,182634,1,8,0:0:0:0:
256,192,182876,1,0,0:0:0:0:
256,192,182996,1,8,0:0:0:0:
256,192,183359,1,8,0:0:0:0:
256,192,183601,1,0,0:0:0:0:
256,192,183722,1,0,0:0:0:0:
256,192,183843,1,0,0:0:0:0:
256,192,184085,1,0,0:0:0:0:
256,192,184568,1,8,0:0:0:0:
256,192,184810,1,0,0:0:0:0:
256,192,184931,1,8,0:0:0:0:
256,192,185294,1,12,0:0:0:0:
256,192,185656,1,8,0:0:0:0:
256,192,185777,1,0,0:0:0:0:
256,192,186019,1,0,0:0:0:0:
256,192,186503,1,8,0:0:0:0:
256,192,186745,1,0,0:0:0:0:
256,192,186986,1,8,0:0:0:0:
256,192,187228,1,0,0:0:0:0:
256,192,187349,1,8,0:0:0:0:
256,192,187712,1,8,0:0:0:0:
256,192,187954,1,4,0:0:0:0:
256,192,188437,1,8,0:0:0:0:
256,192,188679,1,0,0:0:0:0:
256,192,188800,1,8,0:0:0:0:
256,192,189163,1,12,0:0:0:0:
256,192,189526,1,8,0:0:0:0:
256,192,189646,1,0,0:0:0:0:
256,192,189888,1,0,0:0:0:0:
256,192,190372,1,8,0:0:0:0:
256,192,190614,1,0,0:0:0:0:
256,192,190735,1,8,0:0:0:0:
256,192,191097,1,8,0:0:0:0:
256,192,191339,1,0,0:0:0:0:
256,192,191460,1,0,0:0:0:0:
256,192,191581,1,0,0:0:0:0:
256,192,191823,1,0,0:0:0:0:
256,192,192306,1,12,0:0:0:0:
256,192,192669,1,8,0:0:0:0:
256,192,193032,1,8,0:0:0:0:
256,192,193395,1,8,0:0:0:0:
256,192,193516,1,0,0:0:0:0:
256,192,193757,1,8,0:0:0:0:
256,192,194120,1,8,0:0:0:0:
256,192,194483,1,0,0:0:0:0:
256,192,194846,1,0,0:0:0:0:
256,192,195208,1,8,0:0:0:0:
256,192,195450,1,0,0:0:0:0:
256,192,195692,5,4,0:0:0:0:
256,192,196176,1,8,0:0:0:0:
256,192,196417,1,0,0:0:0:0:
256,192,196659,1,8,0:0:0:0:
256,192,197022,1,0,0:0:0:0:
256,192,197143,1,8,0:0:0:0:
256,192,197385,1,0,0:0:0:0:
256,192,197626,1,8,0:0:0:0:
256,192,198110,1,8,0:0:0:0:
256,192,198352,1,0,0:0:0:0:
256,192,198594,1,8,0:0:0:0:
256,192,199077,1,8,0:0:0:0:
256,192,199319,1,8,0:0:0:0:
256,192,199561,1,0,0:0:0:0:
256,192,200045,1,8,0:0:0:0:
256,192,200286,1,0,0:0:0:0:
256,192,200528,1,8,0:0:0:0:
256,192,200891,1,8,0:0:0:0:
256,192,201012,1,8,0:0:0:0:
256,192,201254,1,0,0:0:0:0:
256,192,201496,1,8,0:0:0:0:
256,192,201979,1,8,0:0:0:0:
256,192,202221,1,0,0:0:0:0:
256,192,202463,1,8,0:0:0:0:
256,192,202946,1,8,0:0:0:0:
256,192,203188,1,8,0:0:0:0:
256,192,203430,1,0,0:0:0:0:
256,192,203914,1,8,0:0:0:0:
256,192,204156,1,0,0:0:0:0:
256,192,204397,1,8,0:0:0:0:
256,192,204760,1,0,0:0:0:0:
256,192,204881,1,8,0:0:0:0:
256,192,205123,1,0,0:0:0:0:
256,192,205365,1,8,0:0:0:0:
256,192,205848,1,8,0:0:0:0:
256,192,206090,1,0,0:0:0:0:
256,192,206332,1,8,0:0:0:0:
256,192,206816,1,8,0:0:0:0:
256,192,207057,1,8,0:0:0:0:
256,192,207299,1,0,0:0:0:0:
256,192,207783,1,8,0:0:0:0:
256,192,208025,1,0,0:0:0:0:
256,192,208267,1,8,0:0:0:0:
256,192,208629,1,8,0:0:0:0:
256,192,208750,1,8,0:0:0:0:
256,192,208992,1,0,0:0:0:0:
256,192,209234,1,8,0:0:0:0:
256,192,209717,1,8,0:0:0:0:
256,192,209959,1,0,0:0:0:0:
256,192,210201,1,8,0:0:0:0:
256,192,210322,1,8,0:0:0:0:
256,192,210443,1,8,0:0:0:0:
256,192,210685,1,8,0:0:0:0:
256,192,210806,1,8,0:0:0:0:
256,192,210927,1,8,0:0:0:0:
256,192,211168,1,4,0:0:0:0:
256,192,211652,1,8,0:0:0:0:
256,192,211894,1,0,0:0:0:0:
256,192,212136,1,8,0:0:0:0:
256,192,212498,1,0,0:0:0:0:
256,192,212619,1,8,0:0:0:0:
256,192,212861,1,0,0:0:0:0:
256,192,213103,1,8,0:0:0:0:
256,192,213587,1,8,0:0:0:0:
256,192,213828,1,0,0:0:0:0:
256,192,214070,1,8,0:0:0:0:
256,192,214433,1,0,0:0:0:0:
256,192,214554,1,8,0:0:0:0:
256,192,214796,1,8,0:0:0:0:
256,192,215037,1,0,0:0:0:0:
256,192,215521,1,8,0:0:0:0:
256,192,215763,1,0,0:0:0:0:
256,192,216005,1,8,0:0:0:0:
256,192,216368,1,8,0:0:0:0:
256,192,216488,1,8,0:0:0:0:
256,192,216730,1,0,0:0:0:0:
256,192,216972,1,8,0:0:0:0:
256,192,217456,1,8,0:0:0:0:
256,192,217697,1,0,0:0:0:0:
256,192,217939,1,8,0:0:0:0:
256,192,218302,1,0,0:0:0:0:
256,192,218423,1,8,0:0:0:0:
256,192,218665,1,8,0:0:0:0:
256,192,218907,1,4,0:0:0:0:
256,192,219390,1,8,0:0:0:0:
256,192,219632,1,0,0:0:0:0:
256,192,219874,1,8,0:0:0:0:
256,192,220237,1,0,0:0:0:0:
256,192,220357,1,8,0:0:0:0:
256,192,220599,1,0,0:0:0:0:
256,192,220841,1,8,0:0:0:0:
256,192,221325,1,8,0:0:0:0:
256,192,221567,1,0,0:0:0:0:
256,192,221808,1,8,0:0:0:0:
256,192,222171,1,0,0:0:0:0:
256,192,222292,1,8,0:0:0:0:
256,192,222534,1,8,0:0:0:0:
256,192,222776,1,0,0:0:0:0:
256,192,223017,1,12,0:0:0:0:
256,192,223501,1,8,0:0:0:0:
256,192,223743,1,8,0:0:0:0:
256,224,223985,1,8,0:0:0:0:
256,192,224227,1,8,0:0:0:0:
256,192,224347,1,8,0:0:0:0:
256,192,224589,1,8,0:0:0:0:
256,192,224710,1,0,0:0:0:0:
256,192,224952,1,8,0:0:0:0:
256,192,225315,1,8,0:0:0:0:
256,192,225677,1,0,0:0:0:0:
256,192,226040,1,0,0:0:0:0:
256,192,226161,1,0,0:0:0:0:
256,192,226403,1,0,0:0:0:0:
256,192,226645,1,12,0:0:0:0:
256,192,227128,1,8,0:0:0:0:
256,192,227370,1,0,0:0:0:0:
256,192,227612,1,8,0:0:0:0:
256,192,227854,1,0,0:0:0:0:
256,192,227975,1,0,0:0:0:0:
256,192,228096,1,8,0:0:0:0:
256,192,228337,1,0,0:0:0:0:
256,192,228579,1,8,0:0:0:0:
256,192,229063,1,8,0:0:0:0:
256,192,229305,1,0,0:0:0:0:
256,192,229547,1,8,0:0:0:0:
256,192,229909,1,0,0:0:0:0:
256,192,230030,1,8,0:0:0:0:
256,192,230272,1,8,0:0:0:0:
256,192,230514,1,0,0:0:0:0:
256,192,230997,1,8,0:0:0:0:
256,192,231239,1,0,0:0:0:0:
256,192,231481,1,8,0:0:0:0:
256,192,231723,1,8,0:0:0:0:
256,192,231844,1,8,0:0:0:0:
256,192,231965,1,8,0:0:0:0:
256,192,232207,1,0,0:0:0:0:
256,192,232448,1,8,0:0:0:0:
256,192,232932,1,8,0:0:0:0:
256,192,233174,1,0,0:0:0:0:
256,192,233416,1,8,0:0:0:0:
256,192,233778,1,0,0:0:0:0:
256,192,233899,1,8,0:0:0:0:
256,192,234141,1,8,0:0:0:0:
256,192,234383,1,0,0:0:0:0:
256,192,234867,1,8,0:0:0:0:
256,192,235108,1,0,0:0:0:0:
256,224,235350,1,8,0:0:0:0:
256,192,235592,1,0,0:0:0:0:
256,192,235713,1,0,0:0:0:0:
256,192,235834,1,8,0:0:0:0:
256,192,236076,1,0,0:0:0:0:
256,192,236317,1,8,0:0:0:0:
256,192,236801,1,8,0:0:0:0:
256,192,237043,1,0,0:0:0:0:
256,192,237285,1,8,0:0:0:0:
256,192,237647,1,0,0:0:0:0:
256,224,237768,1,8,0:0:0:0:
256,224,238010,1,8,0:0:0:0:
256,192,238252,1,0,0:0:0:0:
256,224,238736,1,8,0:0:0:0:
256,192,238977,1,0,0:0:0:0:
256,224,239219,1,8,0:0:0:0:
256,224,239461,1,8,0:0:0:0:
256,192,239582,1,8,0:0:0:0:
256,224,239703,1,8,0:0:0:0:
256,192,239945,1,0,0:0:0:0:
256,224,240187,1,8,0:0:0:0:
256,224,240670,1,8,0:0:0:0:
256,192,240912,1,0,0:0:0:0:
256,224,241154,1,8,0:0:0:0:
256,224,241275,1,8,0:0:0:0:
256,192,241396,1,8,0:0:0:0:
256,224,241637,1,8,0:0:0:0:
256,224,241758,1,8,0:0:0:0:
256,224,241879,1,8,0:0:0:0:
256,192,242121,1,4,0:0:0:0:
256,192,242605,1,8,0:0:0:0:
256,192,242847,1,0,0:0:0:0:
256,192,243088,1,8,0:0:0:0:
256,192,243209,1,0,0:0:0:0:
256,192,243451,1,0,0:0:0:0:
256,192,243572,1,8,0:0:0:0:
256,192,243814,1,0,0:0:0:0:
256,192,244056,1,8,0:0:0:0:
256,192,244539,1,8,0:0:0:0:
256,224,244781,1,0,0:0:0:0:
256,192,245023,1,8,0:0:0:0:
256,192,245386,1,0,0:0:0:0:
256,192,245507,1,8,0:0:0:0:
256,192,245748,1,8,0:0:0:0:
256,192,245990,1,0,0:0:0:0:
256,192,246474,1,8,0:0:0:0:
256,192,246716,1,0,0:0:0:0:
256,192,246957,1,8,0:0:0:0:
256,192,247078,1,8,0:0:0:0:
256,192,247320,1,0,0:0:0:0:
256,192,247441,1,8,0:0:0:0:
256,192,247683,1,0,0:0:0:0:
256,192,247925,1,8,0:0:0:0:
256,192,248408,1,8,0:0:0:0:
256,192,248650,1,0,0:0:0:0:
256,192,248892,1,8,0:0:0:0:
256,192,249255,1,0,0:0:0:0:
288,192,249376,1,8,0:0:0:0:
256,224,249617,1,8,0:0:0:0:
256,192,249859,1,4,0:0:0:0:
256,192,250343,1,8,0:0:0:0:
256,192,250585,1,0,0:0:0:0:
256,192,250827,1,8,0:0:0:0:
256,192,250948,1,0,0:0:0:0:
256,192,251189,1,0,0:0:0:0:
256,192,251310,1,8,0:0:0:0:
256,192,251552,1,0,0:0:0:0:
256,192,251794,1,8,0:0:0:0:
256,192,252277,1,8,0:0:0:0:
256,192,252519,1,0,0:0:0:0:
256,192,252761,1,8,0:0:0:0:
256,192,253124,1,0,0:0:0:0:
256,192,253245,1,8,0:0:0:0:
256,192,253487,1,8,0:0:0:0:
256,192,253728,1,0,0:0:0:0:
256,192,254212,1,8,0:0:0:0:
256,192,254454,1,0,0:0:0:0:
256,192,254696,1,8,0:0:0:0:
256,192,254817,1,8,0:0:0:0:
256,192,255058,1,0,0:0:0:0:
256,192,255179,1,8,0:0:0:0:
256,192,255421,1,0,0:0:0:0:
256,192,255663,1,8,0:0:0:0:
256,192,256147,1,8,0:0:0:0:
256,192,256388,1,0,0:0:0:0:
256,192,256630,1,8,0:0:0:0:
256,192,256751,1,8,0:0:0:0:
256,192,256872,1,8,0:0:0:0:
256,192,257114,1,8,0:0:0:0:
256,192,257235,1,8,0:0:0:0:
256,192,257356,1,8,0:0:0:0:
256,192,257597,1,4,0:0:0:0:
256,192,258081,1,8,0:0:0:0:
256,192,258323,1,0,0:0:0:0:
256,192,258565,1,8,0:0:0:0:
256,192,258807,1,0,0:0:0:0:
256,192,258927,1,0,0:0:0:0:
256,192,259048,1,8,0:0:0:0:
256,192,259290,1,0,0:0:0:0:
256,224,259532,1,8,0:0:0:0:
256,192,260016,1,8,0:0:0:0:
256,192,260257,1,0,0:0:0:0:
256,224,260499,1,8,0:0:0:0:
256,192,260620,1,8,0:0:0:0:
256,192,260862,1,0,0:0:0:0:
256,192,260983,1,8,0:0:0:0:
256,192,261225,1,8,0:0:0:0:
256,192,261467,1,0,0:0:0:0:
256,192,261950,1,8,0:0:0:0:
256,192,262192,1,0,0:0:0:0:
256,192,262434,1,8,0:0:0:0:
256,192,262676,1,8,0:0:0:0:
256,192,262797,1,8,0:0:0:0:
256,192,262917,1,8,0:0:0:0:
256,192,263159,1,0,0:0:0:0:
256,192,263401,1,8,0:0:0:0:
256,192,263885,1,8,0:0:0:0:
256,192,264127,1,0,0:0:0:0:
256,192,264368,1,8,0:0:0:0:
256,192,264489,1,0,0:0:0:0:
256,192,264731,1,0,0:0:0:0:
256,192,264852,1,8,0:0:0:0:
256,192,265094,1,8,0:0:0:0:
256,192,265336,1,0,0:0:0:0:
256,192,265819,1,8,0:0:0:0:
256,192,266061,1,0,0:0:0:0:
256,192,266303,1,8,0:0:0:0:
256,192,266545,1,0,0:0:0:0:
256,192,266666,1,0,0:0:0:0:
256,192,266787,1,8,0:0:0:0:
256,192,267028,1,0,0:0:0:0:
256,192,267270,1,8,0:0:0:0:
256,192,267754,1,8,0:0:0:0:
256,192,267996,1,0,0:0:0:0:
256,192,268237,1,8,0:0:0:0:
256,192,268358,1,8,0:0:0:0:
256,192,268600,1,0,0:0:0:0:
256,192,268721,1,8,0:0:0:0:
256,192,268963,1,8,0:0:0:0:
256,192,269205,1,0,0:0:0:0:
256,192,269688,1,8,0:0:0:0:
256,192,269930,1,0,0:0:0:0:
256,192,270172,1,8,0:0:0:0:
256,192,270414,1,8,0:0:0:0:
256,192,270535,1,8,0:0:0:0:
256,192,270656,1,8,0:0:0:0:
256,192,270897,1,0,0:0:0:0:
256,192,271139,1,8,0:0:0:0:
256,192,271623,1,8,0:0:0:0:
256,192,271865,1,0,0:0:0:0:
256,192,272107,1,8,0:0:0:0:
256,192,272228,1,8,0:0:0:0:
256,192,272348,1,8,0:0:0:0:
256,192,272590,1,8,0:0:0:0:
256,192,272711,1,8,0:0:0:0:
256,192,272832,1,8,0:0:0:0:
256,192,273074,1,4,0:0:0:0:
256,192,273557,1,8,0:0:0:0:
256,192,273799,1,0,0:0:0:0:
256,192,274041,1,8,0:0:0:0:
256,192,274162,1,0,0:0:0:0:
256,192,274404,1,0,0:0:0:0:
256,192,274525,1,8,0:0:0:0:
256,192,274767,1,0,0:0:0:0:
256,192,275008,1,8,0:0:0:0:
256,192,275492,1,8,0:0:0:0:
256,192,275734,1,0,0:0:0:0:
256,192,275976,1,8,0:0:0:0:
256,192,276217,1,0,0:0:0:0:
256,192,276338,1,0,0:0:0:0:
256,192,276459,1,8,0:0:0:0:
256,192,276701,1,8,0:0:0:0:
256,192,276943,1,0,0:0:0:0:
256,192,277427,1,8,0:0:0:0:
256,192,277668,1,0,0:0:0:0:
256,192,277910,1,8,0:0:0:0:
256,192,278031,1,8,0:0:0:0:
256,192,278273,1,0,0:0:0:0:
256,192,278394,1,8,0:0:0:0:
256,192,278636,1,0,0:0:0:0:
256,192,278877,1,8,0:0:0:0:
256,192,279361,1,8,0:0:0:0:
256,192,279603,1,0,0:0:0:0:
256,192,279845,1,8,0:0:0:0:
256,192,280087,1,8,0:0:0:0:
256,192,280207,1,8,0:0:0:0:
256,192,280328,1,8,0:0:0:0:
256,192,280570,1,8,0:0:0:0:
256,192,280812,1,4,0:0:0:0:
256,192,281296,1,8,0:0:0:0:
256,192,281538,1,0,0:0:0:0:
256,192,281779,1,8,0:0:0:0:
256,192,281900,1,0,0:0:0:0:
256,192,282142,1,0,0:0:0:0:
256,192,282263,1,8,0:0:0:0:
256,192,282505,1,0,0:0:0:0:
256,192,282747,1,8,0:0:0:0:
256,192,283230,1,8,0:0:0:0:
256,192,283472,1,0,0:0:0:0:
256,192,283714,1,8,0:0:0:0:
256,192,283956,1,0,0:0:0:0:
256,192,284077,1,0,0:0:0:0:
256,192,284198,1,8,0:0:0:0:
256,192,284439,1,8,0:0:0:0:
256,192,284681,1,0,0:0:0:0:
256,192,284923,1,12,0:0:0:0:
256,192,285407,1,8,0:0:0:0:
256,192,285648,1,8,0:0:0:0:
256,192,285890,1,8,0:0:0:0:
256,192,286132,1,8,0:0:0:0:
256,192,286253,1,8,0:0:0:0:
256,192,286495,1,8,0:0:0:0:
256,192,286616,1,0,0:0:0:0:
256,192,286858,1,8,0:0:0:0:
256,192,287220,1,8,0:0:0:0:
256,192,287583,1,0,0:0:0:0:
256,192,287946,1,0,0:0:0:0:
256,192,288067,1,0,0:0:0:0:
256,192,288308,1,0,0:0:0:0:
256,192,288550,1,12,0:0:0:0:
