osu file format v14

[General]
AudioFilename: Give Heart Back to Music.mp3
AudioLeadIn: 0
PreviewTime: 82450
Countdown: 0
SampleSet: Soft
StackLeniency: 0.7
Mode: 0
LetterboxInBreaks: 1
WidescreenStoryboard: 1

[Editor]
Bookmarks: 180978,227598
DistanceSpacing: 1
BeatDivisor: 4
GridSize: 4
TimelineZoom: 1

[Metadata]
Title:Give Heart Back to Music / Shounen of Nazareth
TitleUnicode:Give Heart Back to Music / Shounen of Nazareth
Artist:Daft Punk & Justice x Home Made Kazoku
ArtistUnicode:Daft Punk & Justice x Home Made Kazoku
Creator:Niokin
Version:Collab
Source:
Tags:shoopfex mashup eureka seven
BeatmapID:914085
BeatmapSetID:422917

[Difficulty]
HPDrainRate:6
CircleSize:4.5
OverallDifficulty:8
ApproachRate:9
SliderMultiplier:2.4
SliderTickRate:1

[Events]
//Background and Video events
0,0,"Konachan.com - 25479 anemone black eureka eureka_seven.jpg",0,0
//Break Periods
2,163294,170807
//Storyboard Layer 0 (Background)
//Storyboard Layer 1 (Fail)
//Storyboard Layer 2 (Pass)
//Storyboard Layer 3 (Foreground)
//Storyboard Sound Samples

[TimingPoints]
1550,504.201680672269,4,2,0,60,1,0
17940,503.989920201596,4,2,0,60,1,0
82450,504.201680672269,4,2,0,60,1,0
130853,503.778337531486,4,2,0,60,1,0
179215,503.989920201596,4,2,0,60,1,0
179215,-71.4285714285714,4,2,0,60,0,1
179340,-71.4285714285714,4,2,0,60,0,0

[Colours]
Combo1 : 255,0,128
Combo2 : 128,255,255
Combo3 : 0,128,128
Combo4 : 0,128,255
Combo5 : 0,64,128
Combo6 : 255,128,192
Combo7 : 227,131,252
Combo8 : 237,146,171

[HitObjects]
328,320,130349,69,0,0:0:0:0:
320,60,130853,6,0,P|264:100|208:88,1,120
176,60,131230,2,0,P|180:116|196:184,1,120
340,320,131608,2,0,P|356:260|359:201,1,120
196,284,131986,2,0,L|77:303,1,120
4,128,132364,2,0,L|64:140,2,60
348,128,132868,5,0,0:0:0:0:
348,128,132994,2,0,P|360:204|400:228,1,120
480,288,133371,2,0,P|408:260|367:283,1,120
220,216,133749,2,0,L|92:228,2,120
391,225,134379,2,0,L|383:153,1,60
376,88,134631,1,0,0:0:0:0:
168,327,134883,6,0,L|172:255,1,60
96,112,135135,2,0,L|164:104,1,60
252,152,135387,1,0,0:0:0:0:
252,152,135512,2,0,P|268:92|240:40,1,120
348,48,135890,2,0,L|472:60,1,120
488,152,136268,2,0,L|416:144,1,60
328,136,136520,2,0,P|352:200|320:252,1,120
276,188,136898,70,0,L|408:216,2,120
184,120,137528,1,0,0:0:0:0:
184,120,137654,2,0,L|108:124,1,60
12,56,137905,1,0,0:0:0:0:
24,132,138031,1,0,0:0:0:0:
36,208,138157,1,0,0:0:0:0:
48,284,138283,2,0,P|108:292|148:344,1,120
412,56,138913,6,0,P|382:56|354:68,1,60
267,214,139165,2,0,P|296:220|325:214,1,60
492,256,139417,1,0,0:0:0:0:
492,256,139543,1,0,0:0:0:0:
424,200,139669,2,0,P|414:171|394:149,1,60
400,32,139921,2,0,L|336:48,1,60
260,120,140172,2,0,L|196:104,1,60
104,152,140424,2,0,P|160:136|212:168,1,120
396,340,141054,6,0,L|388:280,2,60
472,260,141432,2,0,P|484:204|452:152,1,120
468,68,141810,2,0,P|408:64|344:76,1,120
292,128,142188,1,0,0:0:0:0:
216,108,142313,1,0,0:0:0:0:
100,224,142439,1,0,0:0:0:0:
176,244,142565,1,0,0:0:0:0:
252,260,142691,2,0,L|248:340,1,80
336,360,142943,6,0,P|392:324|452:344,1,120
316,208,143321,1,0,0:0:0:0:
316,208,143447,2,0,P|260:172|200:192,1,120
180,160,143825,2,0,L|172:92,1,60
452,232,144203,2,0,L|444:300,1,60
264,332,144580,70,0,P|204:332|156:372,1,120
124,280,144958,2,0,L|96:164,1,120
248,52,145462,2,0,P|308:52|356:12,1,120
388,104,145840,2,0,L|416:220,2,120
372,28,146470,1,0,0:0:0:0:
300,56,146596,1,0,0:0:0:0:
224,36,146722,2,0,P|172:60|112:48,1,120
296,180,147225,5,0,0:0:0:0:
140,212,147477,1,0,0:0:0:0:
116,56,147729,1,0,0:0:0:0:
116,56,147855,1,0,0:0:0:0:
116,56,147981,1,0,0:0:0:0:
272,28,148233,1,0,0:0:0:0:
272,28,148359,2,0,P|276:96|244:140,1,120
216,280,148737,5,0,0:0:0:0:
216,280,148863,2,0,P|155:249|133:199,1,120
80,100,149240,2,0,L|84:36,1,60
208,160,149492,2,0,P|208:216|216:284,1,120
456,208,149870,2,0,P|400:200|332:200,1,120
268,128,150248,2,0,P|236:120|204:120,1,60
88,224,150500,2,0,P|121:231|149:246,1,60
280,304,150752,2,0,P|255:326|237:352,1,60
384,300,151004,6,0,P|377:267|363:238,1,60
268,128,151256,2,0,P|360:128|448:144,1,180
392,40,151759,1,0,0:0:0:0:
376,116,151885,1,0,0:0:0:0:
360,192,152011,1,0,0:0:0:0:
336,268,152137,2,0,L|356:328,1,60
192,224,152389,1,0,0:0:0:0:
192,224,152515,2,0,L|204:164,1,60
404,140,152767,2,0,L|336:159,1,60
152,28,153019,70,0,L|219:47,1,60
292,64,153271,1,0,0:0:0:0:
292,64,153397,1,0,0:0:0:0:
372,88,153523,2,0,P|376:128|368:160,1,60
340,220,153774,1,0,0:0:0:0:
340,220,153900,1,0,0:0:0:0:
396,276,154026,2,0,L|460:284,1,60
272,304,154278,2,0,L|208:296,1,60
232,152,154530,2,0,L|296:147,1,60
115,203,154782,2,0,L|50:207,1,60
184,140,155034,6,0,P|208:208|184:256,1,120
360,340,155538,2,0,L|424:336,1,60
408,260,155790,1,0,0:0:0:0:
396,184,155915,1,0,0:0:0:0:
384,108,156041,2,0,P|448:124|476:168,1,120
264,160,156419,2,0,P|245:96|269:50,1,120
312,212,156797,2,0,P|280:228|252:228,1,60
212,328,157049,5,0,0:0:0:0:
212,328,157175,1,0,0:0:0:0:
180,164,157301,1,0,0:0:0:0:
180,164,157427,1,0,0:0:0:0:
348,284,157553,2,0,L|412:288,1,60
312,120,157805,1,0,0:0:0:0:
236,104,157931,1,0,0:0:0:0:
160,88,158057,2,0,P|120:144|64:156,1,120
260,236,158434,2,0,P|300:292|356:304,1,120
436,344,158812,6,0,L|444:280,1,60
368,80,159064,2,0,L|375:139,1,60
248,224,159316,1,0,0:0:0:0:
172,236,159442,1,0,0:0:0:0:
96,248,159568,2,0,L|220:256,1,120
244,60,159946,2,0,L|175:163,1,120
96,248,160324,2,0,P|176:268|196:300,1,120
248,352,160701,69,0,0:0:0:0:
328,352,160827,1,0,0:0:0:0:
380,292,160953,1,0,0:0:0:0:
364,216,161079,2,0,P|368:148|408:112,1,120
436,184,161457,2,0,L|364:172,1,60
256,152,161709,2,0,L|302:95,1,60
368,20,161961,2,0,L|393:88,1,60
512,160,162339,1,0,0:0:0:0:
328,208,162591,1,0,0:0:0:0:
460,296,162842,1,0,0:0:0:0:
292,68,163094,5,0,0:0:0:0:
88,124,171407,5,0,0:0:0:0:
112,108,171533,1,0,0:0:0:0:
136,92,171659,2,0,L|200:96,1,60
456,216,172162,6,0,L|392:220,1,60
316,228,172414,2,0,P|316:296|352:336,1,120
236,168,172792,1,0,0:0:0:0:
236,168,172918,2,0,P|236:100|272:60,1,120
312,232,173422,70,0,P|253:266|200:254,1,120
204,256,173800,1,0,0:0:0:0:
368,324,174051,1,0,0:0:0:0:
344,152,174303,1,0,0:0:0:0:
344,152,174429,1,0,0:0:0:0:
244,348,174681,2,0,L|180:356,1,60
32,284,174933,2,0,L|96:292,1,60
392,240,175437,5,0,0:0:0:0:
424,168,175563,1,0,0:0:0:0:
464,100,175689,2,0,L|476:236,1,120
312,152,176193,2,0,L|248:148,1,60
152,244,176444,2,0,P|206:247|272:264,1,120
352,224,176822,1,0,0:0:0:0:
352,224,176948,2,0,P|356:296|324:336,1,120
329,348,178460,5,0,0:0:0:0:
276,168,178711,1,0,0:0:0:0:
268,336,178963,1,0,0:0:0:0:
316,80,179215,6,0,P|232:80|184:164,1,167.999994873047
232,360,179718,2,0,P|274:287|225:203,1,167.999994873047
120,204,180096,2,0,P|208:232|260:184,1,167.999994873047
364,212,180474,1,0,0:0:0:0:
364,212,180600,1,0,0:0:0:0:
400,108,180726,2,0,L|492:96,1,83.9999974365235
256,56,180978,2,0,L|164:44,1,83.9999974365235
52,160,181230,70,0,P|56:248|96:324,1,167.999994873047
224,276,181608,2,0,L|208:368,1,83.9999974365235
348,228,181860,2,0,L|364:320,1,83.9999974365235
272,180,182112,1,0,0:0:0:0:
272,180,182238,2,0,P|344:132|420:176,1,167.999994873047
480,216,182616,1,0,0:0:0:0:
496,124,182742,2,0,P|488:64|496:28,1,83.9999974365235
348,216,182994,2,0,P|384:264|415:283,1,83.9999974365235
288,56,183246,2,0,P|204:68|136:124,1,167.999994873047
100,220,183624,1,0,0:0:0:0:
36,140,183750,6,0,L|48:48,1,83.9999974365235
216,216,184002,1,0,0:0:0:0:
216,216,184128,2,0,P|312:224|384:196,1,167.999994873047
448,140,184506,2,0,L|432:56,1,83.9999974365235
316,232,184758,1,0,0:0:0:0:
316,232,184884,1,0,0:0:0:0:
172,100,185010,2,0,L|268:108,1,83.9999974365235
460,264,185262,6,0,P|384:268|316:332,1,167.999994873047
56,192,185640,2,0,P|132:196|200:260,1,167.999994873047
276,320,186018,2,0,L|360:316,1,83.9999974365235
164,236,186270,2,0,L|76:240,1,83.9999974365235
332,84,186522,2,0,L|340:176,1,83.9999974365235
156,319,186774,2,0,L|163:235,1,83.9999974365235
428,272,187026,2,0,L|336:280,1,83.9999974365235
212,44,187278,6,0,P|212:140|172:204,1,167.999994873047
68,180,187656,1,0,0:0:0:0:
60,288,187782,2,0,L|148:300,1,83.9999974365235
272,228,188034,1,0,0:0:0:0:
272,228,188160,2,0,L|360:216,1,83.9999974365235
476,188,188412,1,0,0:0:0:0:
444,260,188538,2,0,P|448:300|468:348,1,83.9999974365235
272,228,188790,2,0,P|287:188|291:147,1,83.9999974365235
272,64,189042,69,0,0:0:0:0:
356,88,189168,1,0,0:0:0:0:
184,128,189294,2,0,P|100:136|24:172,1,167.999994873047
72,332,189672,2,0,P|156:324|232:288,1,167.999994873047
256,256,190050,2,0,P|296:256|344:268,1,83.9999974365235
384,336,190302,1,0,0:0:0:0:
400,64,190554,1,0,0:0:0:0:
128,48,190806,1,0,0:0:0:0:
112,320,191058,1,0,0:0:0:0:
184,156,191310,6,0,P|284:168|348:140,1,167.999994873047
404,68,191688,1,0,0:0:0:0:
432,160,191814,2,0,P|440:204|436:248,1,83.9999974365235
264,356,192066,2,0,P|261:314|269:273,1,83.9999974365235
184,224,192318,1,0,0:0:0:0:
184,224,192444,1,0,0:0:0:0:
360,256,192570,2,0,L|444:244,1,83.9999974365235
160,140,192822,1,0,0:0:0:0:
160,140,192948,2,0,P|96:200|104:276,1,167.999994873047
176,256,193326,5,0,0:0:0:0:
40,112,193452,1,0,0:0:0:0:
40,112,193578,1,0,0:0:0:0:
244,144,193704,1,0,0:0:0:0:
244,144,193830,2,0,P|284:140|328:140,1,83.9999974365235
480,260,194082,2,0,P|440:256|396:256,1,83.9999974365235
268,296,194334,2,0,P|212:352|120:352,1,167.999994873047
44,272,194712,1,0,0:0:0:0:
44,272,194838,2,0,P|44:228|52:184,1,83.9999974365235
240,48,195090,2,0,P|248:88|247:131,1,83.9999974365235
176,272,195342,6,0,P|272:288|320:344,1,167.999994873047
408,368,195720,1,0,0:0:0:0:
456,292,195846,2,0,P|452:248|460:196,1,83.9999974365235
464,104,196098,1,0,0:0:0:0:
464,104,196224,2,0,L|288:116,1,167.999994873047
80,184,196602,2,0,L|256:196,1,167.999994873047
324,204,196980,70,0,P|328:248|316:296,1,83.9999974365235
4,216,197232,1,0,0:0:0:0:
4,216,197358,2,0,P|4:156|12:124,1,83.9999974365235
24,116,197610,1,0,0:0:0:0:
152,272,197736,1,0,0:0:0:0:
192,48,197988,1,0,0:0:0:0:
44,224,198240,5,0,0:0:0:0:
44,224,198366,1,0,0:0:0:0:
296,248,198618,1,0,0:0:0:0:
360,96,198870,2,0,P|320:84|268:88,1,83.9999974365235
220,44,199122,1,0,0:0:0:0:
400,172,199248,2,0,P|444:92|404:28,1,167.999994873047
324,8,199626,2,0,L|224:16,1,83.9999974365235
148,24,199878,6,0,B|140:76|140:76|160:132|160:132|152:196,1,167.999994873047
88,264,200256,2,0,P|176:224|236:256,1,167.999994873047
288,312,200634,1,0,0:0:0:0:
288,312,200760,1,0,0:0:0:0:
312,184,200886,1,0,0:0:0:0:
424,272,201012,1,0,0:0:0:0:
412,188,201138,1,0,0:0:0:0:
400,104,201264,1,0,0:0:0:0:
428,288,201390,6,0,P|496:244|496:152,1,167.999994873047
344,224,201768,2,0,P|334:317|394:371,1,167.999994873047
260,344,202146,2,0,P|220:344|168:352,1,83.9999974365235
80,192,202398,2,0,P|117:210|150:236,1,83.9999974365235
224,136,202650,2,0,P|213:95|193:58,1,83.9999974365235
368,88,202902,2,0,P|362:129|346:168,1,83.9999974365235
140,64,203154,2,0,L|244:60,1,83.9999974365235
452,252,203406,70,0,L|272:244,1,167.999994873047
236,304,203784,1,0,0:0:0:0:
320,172,203910,2,0,P|368:252|336:320,1,167.999994873047
224,168,204288,2,0,P|269:86|344:80,1,167.999994873047
276,252,204666,2,0,P|182:253|139:191,1,167.999994873047
48,232,205044,5,0,0:0:0:0:
48,232,205170,1,0,0:0:0:0:
48,232,205296,1,0,0:0:0:0:
224,168,205422,2,0,P|224:120|216:76,1,83.9999974365235
72,148,205674,1,0,0:0:0:0:
312,240,205800,2,0,P|312:196|320:148,1,83.9999974365235
388,264,206052,2,0,P|332:320|252:292,1,167.999994873047
208,128,206430,6,0,P|260:128|296:136,1,83.9999974365235
448,296,206682,2,0,P|396:296|360:288,1,83.9999974365235
472,108,206934,2,0,P|446:167|420:204,1,83.9999974365235
163,300,207186,2,0,P|188:240|214:203,1,83.9999974365235
352,172,207438,6,0,P|388:256|464:264,1,167.999994873047
500,176,207816,1,0,0:0:0:0:
500,176,207942,2,0,L|504:84,1,83.9999974365235
288,236,208194,2,0,L|291:319,1,83.9999974365235
324,132,208446,2,0,L|228:140,1,83.9999974365235
328,336,208698,1,0,0:0:0:0:
328,336,208824,2,0,L|156:352,1,167.999994873047
56,360,209202,2,0,P|44:316|48:268,1,83.9999974365235
45,277,209454,1,0,0:0:0:0:
196,120,209580,69,0,0:0:0:0:
196,120,209706,2,0,L|288:124,1,83.9999974365235
348,248,209958,2,0,L|264:244,1,83.9999974365235
132,172,210210,1,0,0:0:0:0:
132,172,210336,2,0,P|132:72|192:44,1,167.999994873047
84,8,210714,2,0,L|0:12,1,83.9999974365235
200,124,210966,2,0,L|284:128,1,83.9999974365235
92,240,211218,2,0,L|8:244,1,83.9999974365235
128,316,211470,6,0,P|176:248|140:168,1,167.999994873047
272,260,211848,1,0,0:0:0:0:
272,260,211974,2,0,P|312:244|364:252,1,83.9999974365235
432,84,212226,2,0,P|392:100|340:92,1,83.9999974365235
256,48,212478,2,0,L|272:216,1,167.999994873047
92,108,212856,2,0,L|184:100,1,83.9999974365235
432,176,213108,2,0,L|340:184,1,83.9999974365235
176,208,213360,5,0,0:0:0:0:
176,208,213486,2,0,P|172:252|184:300,1,83.9999974365235
308,120,213738,2,0,P|281:87|247:63,1,83.9999974365235
168,76,213990,1,0,0:0:0:0:
324,28,214116,1,0,0:0:0:0:
216,148,214242,1,0,0:0:0:0:
364,104,214368,1,0,0:0:0:0:
252,192,214494,2,0,P|348:212|392:156,1,167.999994873047
476,112,214872,2,0,P|484:152|484:200,1,83.9999974365235
392,356,215124,2,0,P|392:314|400:272,1,83.9999974365235
268,300,215376,5,0,0:0:0:0:
268,300,215502,1,0,0:0:0:0:
192,240,215628,2,0,P|172:312|240:388,1,167.999994873047
272,196,216006,2,0,L|264:108,1,83.9999974365235
436,168,216258,2,0,L|348:176,1,83.9999974365235
108,264,216510,1,0,0:0:0:0:
108,264,216636,1,0,0:0:0:0:
200,220,216762,1,0,0:0:0:0:
200,220,216888,1,0,0:0:0:0:
216,324,217014,2,0,L|300:328,1,83.9999974365235
436,208,217392,70,0,P|436:124|360:76,1,167.999994873047
276,156,217770,2,0,P|316:168|360:160,1,83.9999974365235
228,84,218022,2,0,P|197:112|182:154,1,83.9999974365235
316,272,218400,1,0,0:0:0:0:
256,332,218526,2,0,L|172:340,1,83.9999974365235
36,216,218778,5,0,0:0:0:0:
80,144,218904,2,0,L|164:136,1,83.9999974365235
256,40,219156,1,0,0:0:0:0:
264,124,219282,1,0,0:0:0:0:
272,208,219408,1,0,0:0:0:0:
292,64,219534,6,0,L|268:240,1,167.999994873047
448,168,219912,2,0,L|360:168,1,83.9999974365235
96,208,220164,2,0,L|184:208,1,83.9999974365235
392,216,220416,1,0,0:0:0:0:
392,216,220542,2,0,P|312:220|256:288,1,167.999994873047
352,304,220920,1,0,0:0:0:0:
352,304,221046,1,0,0:0:0:0:
200,64,221172,5,0,0:0:0:0:
200,64,221298,2,0,B|288:80|288:80|368:48,1,167.999994873047
440,24,221676,1,0,0:0:0:0:
452,128,221802,1,0,0:0:0:0:
464,224,221928,1,0,0:0:0:0:
312,248,222054,69,0,0:0:0:0:
332,160,222180,1,0,0:0:0:0:
296,352,222306,1,0,0:0:0:0:
296,352,222432,2,0,P|216:336|148:388,1,167.999994873047
52,328,222810,2,0,P|52:288|40:240,1,83.9999974365235
132,80,223062,2,0,P|122:120|122:162,1,83.9999974365235
20,156,223314,1,0,0:0:0:0:
20,156,223440,1,0,0:0:0:0:
208,56,223566,6,0,L|292:48,1,83.9999974365235
256,248,223818,2,0,L|172:240,1,83.9999974365235
292,324,224070,1,0,0:0:0:0:
292,324,224196,2,0,P|340:252|304:180,1,167.999994873047
96,72,224574,2,0,P|134:149|214:154,1,167.999994873047
220,248,224952,1,0,0:0:0:0:
220,248,225078,1,0,0:0:0:0:
204,72,225204,1,0,0:0:0:0:
204,72,225330,1,0,0:0:0:0:
312,68,225456,5,0,0:0:0:0:
312,68,225582,2,0,L|480:64,1,167.999994873047
172,240,225960,1,0,0:0:0:0:
172,240,226086,2,0,L|168:72,1,167.999994873047
388,224,226464,1,0,0:0:0:0:
312,192,226590,1,0,0:0:0:0:
228,204,226716,1,0,0:0:0:0:
152,244,226842,1,0,0:0:0:0:
116,320,226968,1,0,0:0:0:0:
104,136,227094,5,0,0:0:0:0:
276,312,227346,1,0,0:0:0:0:
320,48,227598,69,0,0:0:0:0:
