osu file format v14

[General]
AudioFilename: audio.mp3
AudioLeadIn: 0
PreviewTime: -1
Countdown: 1
SampleSet: Normal
StackLeniency: 0.7
Mode: 2
LetterboxInBreaks: 0
WidescreenStoryboard: 0

[Editor]
DistanceSpacing: 0.82
BeatDivisor: 6
GridSize: 8
TimelineZoom: 1

[Metadata]
Title:La Gasolina
TitleUnicode:La Gasolina
Artist:Daddy Yankee
ArtistUnicode:Daddy Yankee
Creator:-Narnia-
Version:¡Dame mas gasolina!
Source:
Tags:Reggaeton (G)old
BeatmapID:1698334
BeatmapSetID:809326

[Difficulty]
HPDrainRate:6
CircleSize:4.2
OverallDifficulty:8
ApproachRate:9.3
SliderMultiplier:3.59999990463257
SliderTickRate:1

[Events]
//Background and Video events
//Break Periods
//Storyboard Layer 0 (Background)
//Storyboard Layer 1 (Fail)
//Storyboard Layer 2 (Pass)
//Storyboard Layer 3 (Foreground)
//Storyboard Layer 4 (Overlay)
//Storyboard Sound Samples

[TimingPoints]
0,625,5,1,0,100,1,0
10339,-33.3333333333333,5,1,0,100,0,0
10944,-100,4,1,0,100,0,0
13046,-33.3333333333333,4,1,0,100,0,0

[Colours]
Combo1 : 0,64,128
Combo2 : 255,0,0
Combo3 : 128,0,255
Combo4 : 0,64,0
Combo5 : 128,64,0

[HitObjects]
56,101,155,5,0,0:0:0:0:
394,311,1087,5,0,0:0:0:0:
466,312,1243,1,0,0:0:0:0:
234,177,1398,5,0,0:0:0:0:
302,179,1553,1,0,0:0:0:0:
84,84,1709,5,0,0:0:0:0:
155,84,1865,1,0,0:0:0:0:
388,131,2020,5,0,0:0:0:0:
319,136,2176,1,0,0:0:0:0:
65,71,2331,5,0,0:0:0:0:
134,70,2487,1,0,0:0:0:0:
405,245,2642,5,0,0:0:0:0:
333,247,2797,1,0,0:0:0:0:
50,189,2953,5,0,0:0:0:0:
121,186,3108,1,0,0:0:0:0:
432,184,3264,1,0,0:0:0:0:
206,70,3420,6,0,L|305:71,2,59.9999984105428
138,70,3731,2,0,L|63:71,2,59.9999984105428
380,173,4041,6,0,L|443:174,2,59.9999984105428
309,172,4352,2,0,L|233:173,2,59.9999984105428
172,249,4663,6,0,L|102:250,2,59.9999984105428
247,249,4974,2,0,L|329:247,2,59.9999984105428
151,87,5285,6,0,L|225:87,2,59.9999984105428
300,86,5596,2,0,L|200:87,1,89.9999976158143
300,86,5907,5,0,0:0:0:0:
50,136,6217,5,0,0:0:0:0:
113,137,6373,1,0,0:0:0:0:
356,49,6528,5,0,0:0:0:0:
295,47,6683,1,0,0:0:0:0:
47,217,6839,5,0,0:0:0:0:
114,215,6994,1,0,0:0:0:0:
484,77,7150,5,0,0:0:0:0:
421,77,7305,1,0,0:0:0:0:
115,134,7461,5,0,0:0:0:0:
182,134,7616,1,0,0:0:0:0:
468,183,7772,5,0,0:0:0:0:
404,182,7927,1,0,0:0:0:0:
59,222,8082,5,0,0:0:0:0:
129,222,8238,1,0,0:0:0:0:
380,40,8394,5,0,0:0:0:0:
449,81,8498,1,0,0:0:0:0:
376,117,8601,1,0,0:0:0:0:
448,149,8705,1,0,0:0:0:0:
245,45,8808,5,0,0:0:0:0:
184,87,8912,1,0,0:0:0:0:
248,123,9016,1,0,0:0:0:0:
185,158,9119,1,0,0:0:0:0:
405,302,9223,5,0,0:0:0:0:
458,340,9327,1,0,0:0:0:0:
210,172,9430,5,0,0:0:0:0:
275,171,9534,1,0,0:0:0:0:
211,238,9637,1,0,0:0:0:0:
276,238,9741,1,0,0:0:0:0:
36,43,9845,5,0,0:0:0:0:
84,86,9948,1,0,0:0:0:0:
284,127,10052,5,0,0:0:0:0:
334,88,10156,1,0,0:0:0:0:
391,47,10259,1,0,0:0:0:0:
472,202,10569,6,0,L|190:201,1,270.000003147125
472,202,10881,1,0,0:0:0:0:
101,122,11145,6,0,L|20:123,2,59.9999984105428
209,122,11458,1,0,0:0:0:0:
323,123,11562,6,0,L|385:124,2,59.9999984105428
212,244,11875,1,0,0:0:0:0:
290,181,11979,1,0,0:0:0:0:
58,222,12070,6,0,L|82:223,16,22.4999994039536,0|0|0|0|0|0|0|0|0|0|0|0|0|0|0|0|0,2:2|2:2|2:2|2:2|2:2|2:2|2:2|2:2|2:2|2:2|2:2|2:2|2:2|2:2|2:2|2:2|2:2,0:0:0:0:
254,192,12812,1,0,0:0:0:0:
476,42,13046,6,0,L|200:40,1,270.000003147125
256,192,13333,12,0,13437,0:0:0:0:
116,97,13541,6,0,P|464:153|246:262,1,900.000010490418
