osu file format v14

[General]
AudioFilename: audio.mp3
AudioLeadIn: 0
PreviewTime: 30036
Countdown: 0
SampleSet: Soft
StackLeniency: 0.3
Mode: 0
LetterboxInBreaks: 0
WidescreenStoryboard: 1

[Editor]
Bookmarks: 26001
DistanceSpacing: 2.7
BeatDivisor: 4
GridSize: 32
TimelineZoom: 2.899999

[Metadata]
Title:Con Calma feat. Snow
TitleUnicode:Con Calma feat. Snow
Artist:Daddy Yankee
ArtistUnicode:Daddy Yankee
Creator:Tatan
Version:TheShadow's Extra
Source:
Tags:Spanish Pop EspaƱol Latino Latin Reggaeton Regueton Underground Urbano Urban Rap wolf3211 -Sh1n1- Hazu- pkhg MaestroSplinter TheShadowOfDark Gero -_Tatan_-
BeatmapID:2203188
BeatmapSetID:930316

[Difficulty]
HPDrainRate:5.5
CircleSize:4
OverallDifficulty:8.8
ApproachRate:9.2
SliderMultiplier:1.8
SliderTickRate:1

[Events]
//Background and Video events
0,0,"taton.jpg",0,0
//Break Periods
//Storyboard Layer 0 (Background)
//Storyboard Layer 1 (Fail)
//Storyboard Layer 2 (Pass)
//Storyboard Layer 3 (Foreground)
//Storyboard Layer 4 (Overlay)
//Storyboard Sound Samples

[TimingPoints]
116,319.148936170213,4,3,1,100,1,0
10328,-153.846153846153,4,2,1,40,0,0
20541,-133.333333333333,4,2,1,50,0,0
29477,-111.111111111111,4,2,1,50,0,0
30116,-142.857142857143,4,2,1,50,0,0
30355,-142.857142857143,4,2,1,5,0,0
30435,-142.857142857143,4,2,1,50,0,0
30674,-142.857142857143,4,2,1,5,0,0
30754,-86.9565217391304,4,3,1,75,0,1
39371,-86.9565217391304,4,3,1,75,0,0
40647,-100,4,3,1,75,0,0
40886,-100,4,3,1,5,0,0
40887,-100,4,3,1,75,0,0
40967,-86.9565217391304,4,3,1,75,0,1
48626,-86.9565217391304,4,3,1,80,0,1
49743,-86.9565217391304,4,3,1,80,0,0
50860,-200,4,3,1,80,0,0
51099,-200,4,3,1,5,0,0
51100,-200,4,3,1,80,0,0
51179,-100,4,3,1,40,0,0
81498,-153.846153846153,4,3,1,40,0,0
81737,-153.846153846153,4,3,1,5,0,0
81738,-153.846153846153,4,3,1,40,0,0
81818,-86.9565217391304,4,3,1,50,0,1
91711,-100,4,3,1,50,0,0
91950,-100,4,3,1,5,0,0
91951,-100,4,3,1,50,0,0
92030,-86.9565217391304,4,3,1,75,0,1
99690,-86.9565217391304,4,3,1,80,0,1
100807,-66.6666666666667,4,3,1,80,0,0
100967,-133.333333333333,4,3,1,80,0,0
102243,-100,4,3,1,40,0,0
112456,-100,4,3,1,50,0,0
116206,-100,4,3,1,5,0,0
116286,-100,4,3,1,60,0,0
117562,-100,4,3,1,50,0,0
127456,-153.846153846153,4,3,1,50,0,0
127695,-153.846153846153,4,3,1,5,0,0
127775,-86.9565217391304,4,3,1,75,0,1
136392,-111.111111111111,4,3,1,75,0,0
137350,-142.857142857143,4,3,1,75,0,0
137589,-142.857142857143,4,3,1,5,0,0
137669,-142.857142857143,4,3,1,75,0,0
137908,-142.857142857143,4,3,1,5,0,0
137988,-86.9565217391304,4,3,1,75,0,1
145647,-86.9565217391304,4,3,1,80,0,1
146924,-133.333333333333,4,3,1,80,0,0
148201,-133.333333333333,4,2,1,40,0,0
158413,-117.647058823529,4,2,1,50,0,0
167350,-111.111111111111,4,2,1,50,0,0
167988,-142.857142857143,4,2,1,50,0,0
168227,-142.857142857143,4,2,1,5,0,0
168307,-142.857142857143,4,2,1,50,0,0
168546,-142.857142857143,4,2,1,5,0,0
168626,-80,4,3,1,75,0,1
178520,-100,4,3,1,75,0,0
178759,-100,4,3,1,5,0,0
178839,-80,4,3,1,75,0,1
187775,-120.481927710843,4,3,1,75,0,0
188254,-166.666666666667,4,3,1,75,0,0

[Colours]
Combo1 : 208,166,215
Combo2 : 215,183,72
Combo3 : 150,207,99
Combo4 : 150,191,194

[HitObjects]
256,192,9371,12,0,10009,0:0:0:0:
127,212,10328,6,0,L|136:330,1,116.999994644165,2|0,2:2|0:0,0:0:0:0:
229,367,10807,1,2,2:2:0:0:
229,367,10967,2,0,L|220:250,1,116.999994644165,0|2,0:0|2:2,0:0:0:0:
402,366,11605,6,0,P|456:360|506:316,1,116.999994644165,2|0,2:2|0:0,0:0:0:0:
380,175,12243,1,0,0:0:0:0:
380,175,12403,2,0,L|312:176,2,58.4999973220826,0|2|0,0:0|2:2|0:0,0:0:0:0:
510,207,12881,5,2,2:2:0:0:
429,264,13041,2,0,L|297:265,2,116.999994644165,0|2|0,0:0|2:2|0:0,0:0:0:0:
510,207,13839,1,2,2:2:0:0:
445,78,14158,6,0,L|328:76,1,116.999994644165,2|0,2:2|0:0,0:0:0:0:
122,79,14797,1,0,0:0:0:0:
122,79,14956,2,0,L|130:139,2,58.4999973220826,0|2|0,0:0|2:2|0:0,0:0:0:0:
41,176,15435,5,2,2:2:0:0:
41,176,15594,2,0,L|22:40,2,116.999994644165,0|2|0,0:0|2:2|0:0,0:0:0:0:
57,277,16392,1,2,2:2:0:0:
340,216,16711,6,0,B|306:184|306:184|236:186,1,116.999994644165,2|0,2:2|0:0,0:0:0:0:
272,332,17350,1,0,0:0:0:0:
272,332,17509,2,0,L|271:270,2,58.4999973220826,0|2|0,0:0|2:2|0:0,0:0:0:0:
367,370,17988,5,2,2:2:0:0:
367,370,18147,2,0,P|430:342|452:296,1,116.999994644165,0|2,0:0|2:2,0:0:0:0:
446,209,18626,2,0,P|383:237|361:283,1,116.999994644165,0|2,0:0|2:2,0:0:0:0:
498,72,19264,6,0,L|379:69,1,116.999994644165,2|0,2:2|0:0,0:0:0:0:
324,153,19743,2,0,L|443:150,1,116.999994644165,2|0,2:2|0:0,0:0:0:0:
381,69,20222,1,2,2:2:0:0:
186,259,20541,6,0,P|135:300|51:287,1,135.000005149842,10|0,2:2|0:0,0:0:0:0:
105,211,21020,1,2,2:2:0:0:
217,344,21179,2,0,L|358:340,1,135.000005149842,8|2,0:0|2:2,0:0:0:0:
317,55,21818,6,0,P|306:91|316:138,1,67.5000025749208,10|0,2:2|0:0,0:0:0:0:
392,169,22137,2,0,P|403:133|393:86,1,67.5000025749208,0|2,0:0|2:2,0:0:0:0:
308,218,22456,2,0,L|385:217,2,67.5000025749208,8|0|2,0:0|0:0|2:2,0:0:0:0:
224,169,22935,1,0,0:0:0:0:
183,258,23094,5,10,2:2:0:0:
224,169,23254,2,0,P|235:109|198:17,2,135.000005149842,0|2|0,0:0|2:2|0:0,0:0:0:0:
127,178,24052,1,2,2:2:0:0:
195,372,24371,6,0,L|359:369,1,135.000005149842,10|0,2:2|0:0,0:0:0:0:
494,166,25010,1,8,0:0:0:0:
393,158,25169,1,0,0:0:0:0:
496,251,25328,1,2,2:2:0:0:
374,241,25487,1,0,0:0:0:0:
494,166,25647,5,10,2:2:0:0:
374,241,25807,2,0,P|300:261|236:232,2,135.000005149842,0|2|0,0:0|2:2|0:0,0:0:0:0:
309,152,26605,1,2,2:2:0:0:
63,381,26924,6,0,L|57:284,1,67.5000025749208,10|0,2:2|0:0,0:0:0:0:
119,243,27243,2,0,L|113:146,1,67.5000025749208,0|2,0:0|2:2,0:0:0:0:
22,157,27562,2,0,L|26:224,2,67.5000025749208,8|0|2,0:0|0:0|2:2,0:0:0:0:
15,55,28041,1,0,0:0:0:0:
107,100,28201,5,10,2:2:0:0:
171,21,28360,2,0,L|321:18,1,135.000005149842,0|2,0:0|2:2,0:0:0:0:
241,102,28839,2,0,L|106:99,1,135.000005149842,8|2,0:0|2:2,0:0:0:0:
501,151,29477,6,0,P|433:131|351:185,1,161.999995056153,8|0,2:2|0:0,0:0:0:0:
287,311,29956,2,0,L|288:350,2,26.9999991760254,2|0|0,0:0|0:0|0:0,0:0:0:0:
275,349,30116,6,0,L|272:254,1,94.499997116089,10|0,0:0|0:0,0:0:0:0:
357,173,30435,2,0,L|359:267,1,94.499997116089,2|0,0:0|0:0,0:0:0:0:
262,153,30754,6,0,P|333:76|428:104,1,207.000003948212,6|0,0:0|0:0,0:0:0:0:
512,217,31233,1,8,0:0:0:0:
359,267,31392,2,0,L|140:262,1,207.000003948212,2|8,0:0|0:0,0:0:0:0:
0,194,31871,1,0,0:0:0:0:
79,358,32030,5,2,0:0:0:0:
79,358,32110,1,0,0:0:0:0:
79,358,32190,1,0,0:0:0:0:
241,293,32350,1,0,0:0:0:0:
75,229,32509,1,8,0:0:0:0:
237,164,32669,2,0,P|296:170|339:203,1,103.500001974106,2|0,0:0|0:0,0:0:0:0:
383,378,32988,2,0,P|371:323|389:270,1,103.500001974106,8|0,0:0|0:0,0:0:0:0:
482,121,33307,6,0,L|477:328,1,207.000003948212,2|0,0:0|0:0,0:0:0:0:
331,194,33786,1,8,0:0:0:0:
404,61,33945,2,0,P|446:22|520:28,1,103.500001974106,2|0,0:0|0:0,0:0:0:0:
454,232,34264,1,8,0:0:0:0:
242,139,34424,1,0,0:0:0:0:
482,121,34584,5,2,0:0:0:0:
330,296,34743,2,0,L|330:193,1,103.500001974106,8|0,0:0|0:0,0:0:0:0:
157,33,35062,2,0,P|148:126|241:138,1,207.000003948212,8|0,0:0|0:0,0:0:0:0:
50,33,35541,2,0,P|41:92|60:164,1,103.500001974106,8|0,0:0|0:0,0:0:0:0:
212,325,35860,5,6,0:0:0:0:
18,255,36020,1,0,0:0:0:0:
330,193,36179,5,0,0:0:0:0:
137,216,36339,1,8,0:0:0:0:
417,64,36498,5,2,0:0:0:0:
241,138,36658,1,0,0:0:0:0:
395,251,36818,6,0,P|448:261|494:239,1,103.500001974106,8|0,0:0|0:0,0:0:0:0:
276,59,37137,2,0,P|223:49|177:71,1,103.500001974106,2|0,0:0|0:0,0:0:0:0:
212,325,37456,1,0,0:0:0:0:
212,325,37536,1,0,0:0:0:0:
212,325,37616,1,8,0:0:0:0:
471,233,37775,5,2,0:0:0:0:
241,138,37935,1,0,0:0:0:0:
308,299,38094,1,8,0:0:0:0:
403,70,38254,1,0,0:0:0:0:
323,200,38413,6,0,B|263:228|263:228|118:221,1,207.000003948212,2|0,0:0|0:0,0:0:0:0:
319,62,38892,1,8,0:0:0:0:
404,149,39052,2,0,P|419:209|401:262,1,103.500001974106,2|0,0:0|0:0,0:0:0:0:
241,138,39371,1,8,0:0:0:0:
241,138,40647,6,0,P|191:133|118:186,1,135
82,258,40967,6,0,L|74:39,1,207.000003948212,6|0,0:0|0:0,0:0:0:0:
212,236,41445,1,8,0:0:0:0:
7,293,41605,2,0,L|-1:74,1,207.000003948212,2|8,0:0|0:0,0:0:0:0:
183,334,42084,1,0,0:0:0:0:
241,138,42243,5,2,0:0:0:0:
241,138,42323,1,0,0:0:0:0:
241,138,42403,1,0,0:0:0:0:
413,191,42562,1,0,0:0:0:0:
212,236,42722,1,8,0:0:0:0:
388,286,42881,2,0,P|451:283|494:252,1,103.500001974106,2|0,0:0|0:0,0:0:0:0:
183,334,43201,2,0,P|120:331|77:300,1,103.500001974106,8|0,0:0|0:0,0:0:0:0:
241,138,43520,6,0,B|295:193|295:193|293:330,1,207.000003948212,2|0,0:0|0:0,0:0:0:0:
116,115,43998,1,8,0:0:0:0:
190,38,44158,2,0,L|317:36,1,103.500001974106,2|0,0:0|0:0,0:0:0:0:
433,179,44477,1,8,0:0:0:0:
241,138,44637,1,0,0:0:0:0:
439,56,44796,5,2,0:0:0:0:
349,251,44956,2,0,P|325:205|326:154,1,103.500001974106,8|0,0:0|0:0,0:0:0:0:
483,320,45275,2,0,P|378:278|280:304,1,207.000003948212,8|0,0:0|0:0,0:0:0:0:
139,384,45754,2,0,P|162:338|161:287,1,103.500001974106,8|0,0:0|0:0,0:0:0:0:
71,87,46073,5,12,0:0:0:0:
29,275,46233,1,0,0:0:0:0:
227,33,46392,5,8,0:0:0:0:
123,195,46552,1,0,0:0:0:0:
402,33,46711,5,8,0:0:0:0:
248,149,46871,1,0,0:0:0:0:
510,156,47030,5,8,0:0:0:0:
510,156,47110,1,0,0:0:0:0:
510,156,47190,1,0,0:0:0:0:
317,275,47350,2,0,P|259:289|198:275,1,103.500001974106,8|0,0:0|0:0,0:0:0:0:
126,40,47669,2,0,P|184:26|245:40,1,103.500001974106,8|0,0:0|0:0,0:0:0:0:
443,206,47988,5,8,0:0:0:0:
248,149,48147,1,0,0:0:0:0:
374,80,48307,1,8,0:0:0:0:
317,275,48466,1,0,0:0:0:0:
142,148,48626,5,8,0:0:0:0:
369,192,48786,1,8,0:0:0:0:
140,259,48945,1,8,0:0:0:0:
374,80,49105,1,8,0:0:0:0:
209,353,49264,1,8,0:0:0:0:
270,32,49424,1,8,0:0:0:0:
337,363,49584,1,8,0:0:0:0:
158,35,49743,1,8,0:0:0:0:
158,35,50860,6,0,L|90:42,1,67.5
26,111,51179,6,0,L|205:129,1,180,6|0,0:0|0:0,0:0:0:0:
87,288,51658,1,8,0:0:0:0:
228,226,51818,1,2,0:0:0:0:
47,207,51977,1,0,0:0:0:0:
206,327,52137,2,0,L|296:317,1,90,8|0,0:0|0:0,0:0:0:0:
380,222,52456,5,2,0:0:0:0:
483,298,52616,2,0,P|462:217|379:221,1,180,0|8,0:0|0:0,0:0:0:0:
355,384,53094,2,0,L|445:374,1,90,2|0,0:0|0:0,0:0:0:0:
293,236,53413,2,0,L|203:226,1,90,8|0,0:0|0:0,0:0:0:0:
154,338,53733,6,0,P|162:251|96:191,1,180,2|0,0:0|0:0,0:0:0:0:
266,136,54211,1,8,0:0:0:0:
124,97,54371,2,0,P|66:93|32:116,1,90,2|0,0:0|0:0,0:0:0:0:
247,38,54690,2,0,P|291:35|329:58,1,90,8|0,0:0|0:0,0:0:0:0:
402,196,55009,5,2,0:0:0:0:
455,29,55169,1,8,0:0:0:0:
302,151,55328,1,0,0:0:0:0:
509,136,55488,1,8,0:0:0:0:
329,57,55647,2,0,B|278:45|231:67|214:110|214:110|199:157|153:186|89:178,1,270,2|0,0:0|0:0,0:0:0:0:
69,41,56286,6,0,P|141:45|90:103,1,180,6|0,0:0|0:0,0:0:0:0:
0,102,56764,1,8,0:0:0:0:
116,265,56924,2,0,P|125:221|112:179,1,90,2|0,0:0|0:0,0:0:0:0:
27,322,57243,1,8,0:0:0:0:
211,240,57403,6,0,L|308:241,1,90,0|2,0:0|0:0,0:0:0:0:
411,365,57722,2,0,L|363:280,1,90
420,129,58041,2,0,L|370:212,1,90,8|2,0:0|0:0,0:0:0:0:
211,240,58360,1,0,0:0:0:0:
366,286,58520,1,8,0:0:0:0:
283,124,58679,6,0,L|330:208,1,90,0|2,0:0|0:0,0:0:0:0:
274,359,58998,2,0,L|324:276,1,90
483,249,59317,2,0,L|386:248,1,90,8|2,0:0|0:0,0:0:0:0:
283,124,59637,1,0,0:0:0:0:
320,282,59796,1,8,0:0:0:0:
363,70,59956,1,0,0:0:0:0:
363,70,60036,1,0,0:0:0:0:
363,70,60116,6,0,P|283:27|207:67,3,180,8|8|8|8,0:0|0:0|0:0|0:0,0:0:0:0:
489,278,61392,6,0,L|487:175,1,90,6|0,0:0|0:0,0:0:0:0:
330,337,61711,1,0,0:0:0:0:
454,364,61871,1,8,0:0:0:0:
367,253,62030,2,0,L|251:250,1,90,2|0,0:0|0:0,0:0:0:0:
214,351,62350,2,0,L|98:348,1,90,8|0,0:0|0:0,0:0:0:0:
112,160,62669,5,2,0:0:0:0:
146,270,62828,1,0,0:0:0:0:
1,193,62989,1,0,0:0:0:0:
35,306,63147,1,8,0:0:0:0:
112,160,63307,2,0,B|78:50|78:50|28:117,1,180,2|8,0:0|0:0,0:0:0:0:
124,348,63945,6,0,L|214:351,1,90,2|0,0:0|0:0,0:0:0:0:
367,253,64264,2,0,L|277:250,1,90,0|8,0:0|0:0,0:0:0:0:
438,342,64584,1,2,0:0:0:0:
479,241,64743,1,0,0:0:0:0:
450,354,64903,1,8,0:0:0:0:
491,253,65062,1,0,0:0:0:0:
394,170,65222,6,0,P|371:208|367:253,1,90,2|8,0:0|0:0,0:0:0:0:
450,354,65541,1,0,0:0:0:0:
315,349,65701,1,8,0:0:0:0:
491,253,65860,2,0,B|491:133|491:133|451:84,1,180,2|8,0:0|0:0,0:0:0:0:
44,186,66498,6,0,L|52:285,1,90,6|0,0:0|0:0,0:0:0:0:
183,143,66818,2,0,L|175:242,1,90,0|8,0:0|0:0,0:0:0:0:
20,78,67137,1,2,0:0:0:0:
103,125,67296,1,0,0:0:0:0:
193,30,67456,2,0,L|103:30,1,90,8|0,0:0|0:0,0:0:0:0:
277,98,67775,5,2,0:0:0:0:
382,71,67935,1,0,0:0:0:0:
451,203,68094,1,0,0:0:0:0:
346,176,68254,1,8,0:0:0:0:
486,98,68413,2,0,P|487:47|460:-1,1,90,2|0,0:0|0:0,0:0:0:0:
407,279,68733,2,0,P|474:288|511:272,1,90,8|0,0:0|0:0,0:0:0:0:
346,176,69052,5,2,0:0:0:0:
287,280,69211,1,0,0:0:0:0:
226,176,69371,1,0,0:0:0:0:
167,280,69530,1,8,0:0:0:0:
346,176,69690,2,0,L|435:175,1,90,2|0,0:0|0:0,0:0:0:0:
167,280,70009,2,0,L|77:279,1,90,8|0,0:0|0:0,0:0:0:0:
165,72,70328,5,2,0:0:0:0:
92,147,70488,2,0,P|65:108|60:66,1,90,8|0,0:0|0:0,0:0:0:0:
226,176,70807,1,8,0:0:0:0:
255,72,70967,2,0,L|131:72,1,90,2|0,0:0|0:0,0:0:0:0:
346,149,71286,2,0,L|470:149,1,90,8|0,0:0|0:0,0:0:0:0:
313,348,71605,5,6,0:0:0:0:
313,348,71685,1,0,0:0:0:0:
313,348,71764,2,0,L|304:257,1,90
226,176,72084,2,0,L|234:86,1,90,8|2,0:0|0:0,0:0:0:0:
346,149,72403,1,0,0:0:0:0:
149,193,72562,2,0,L|157:103,1,90,8|0,0:0|0:0,0:0:0:0:
338,59,72881,5,2,0:0:0:0:
338,59,72961,1,0,0:0:0:0:
338,59,73041,2,0,L|346:149,1,90
304,258,73360,2,0,P|343:237|388:240,1,90,8|2,0:0|0:0,0:0:0:0:
483,328,73679,2,0,B|450:355|450:355|312:347,1,180
123,338,74158,5,2,0:0:0:0:
123,338,74238,1,0,0:0:0:0:
123,338,74318,1,0,0:0:0:0:
149,193,74477,1,0,0:0:0:0:
237,279,74637,1,8,0:0:0:0:
55,203,74796,2,0,L|51:95,1,90,2|0,0:0|0:0,0:0:0:0:
237,279,75116,2,0,L|249:171,1,90,8|0,0:0|0:0,0:0:0:0:
268,80,75435,5,2,0:0:0:0:
268,80,75514,1,0,0:0:0:0:
268,80,75594,1,8,0:0:0:0:
149,193,75754,1,0,0:0:0:0:
335,143,75913,2,0,P|381:133|434:143,1,90,8|2,0:0|0:0,0:0:0:0:
397,301,76233,2,0,P|344:247|419:231,1,180
300,381,76711,5,6,0:0:0:0:
254,242,76871,1,0,0:0:0:0:
173,330,77030,2,0,L|83:332,1,90,0|8,0:0|0:0,0:0:0:0:
306,371,77350,1,2,0:0:0:0:
260,232,77509,1,0,0:0:0:0:
179,320,77669,2,0,L|89:322,1,90,8|0,0:0|0:0,0:0:0:0:
312,361,77988,5,2,0:0:0:0:
266,222,78147,1,0,0:0:0:0:
185,310,78307,2,0,L|95:312,1,90,0|8,0:0|0:0,0:0:0:0:
272,212,78626,2,0,L|361:214,1,90,2|0,0:0|0:0,0:0:0:0:
318,351,78945,1,8,0:0:0:0:
318,73,79264,5,2,0:0:0:0:
272,212,79424,1,0,0:0:0:0:
191,124,79583,2,0,L|101:122,1,90,0|8,0:0|0:0,0:0:0:0:
324,83,79903,1,2,0:0:0:0:
278,222,80062,1,0,0:0:0:0:
197,134,80222,2,0,L|107:132,1,90,8|0,0:0|0:0,0:0:0:0:
137,262,80541,6,0,L|47:260,1,90,2|8,0:0|0:0,0:0:0:0:
203,144,80860,1,0,0:0:0:0:
284,232,81020,1,8,0:0:0:0:
330,93,81179,2,0,L|420:95,1,90,2|0,0:0|0:0,0:0:0:0:
411,279,81498,6,0,P|405:227|432:180,1,87.749995983124,8|0,0:0|0:0,0:0:0:0:
496,312,81818,6,0,P|453:358|327:311,1,207.000003948212,12|0,0:0|0:0,0:0:0:0:
418,195,82296,1,8,0:0:0:0:
244,332,82456,2,0,B|197:282|197:282|203:127,1,207.000003948212,0|8,0:0|0:0,0:0:0:0:
103,307,82935,1,0,0:0:0:0:
324,232,83094,5,8,0:0:0:0:
324,232,83174,1,0,0:0:0:0:
324,232,83254,1,8,0:0:0:0:
103,141,83413,1,0,0:0:0:0:
338,92,83573,1,8,0:0:0:0:
90,130,83733,1,2,0:0:0:0:
346,76,83893,1,0,0:0:0:0:
198,40,84052,2,0,L|203:166,1,103.500001974106,8|0,0:0|0:0,0:0:0:0:
504,282,84371,6,0,B|470:233|470:233|323:231,1,207.000003948212,8|0,0:0|0:0,0:0:0:0:
104,312,84850,1,8,0:0:0:0:
217,236,85009,2,0,P|238:304|227:367,1,103.500001974106
73,156,85328,1,8,0:0:0:0:
16,316,85488,1,0,0:0:0:0:
208,136,85647,5,2,0:0:0:0:
320,243,85807,2,0,L|216:235,1,103.500001974106,8|0,0:0|0:0,0:0:0:0:
134,49,86126,2,0,L|237:41,1,103.500001974106,8|2,0:0|0:0,0:0:0:0:
472,77,86445,1,8,0:0:0:0:
357,17,86605,2,0,P|339:78|350:121,1,103.500001974106,8|0,0:0|0:0,0:0:0:0:
499,263,86924,5,8,0:0:0:0:
284,165,87084,1,0,0:0:0:0:
179,313,87243,5,0,0:0:0:0:
394,215,87403,1,8,0:0:0:0:
497,365,87562,5,0,0:0:0:0:
282,267,87722,1,0,0:0:0:0:
99,369,87881,6,0,P|83:313|109:250,1,103.500001974106,8|0,0:0|0:0,0:0:0:0:
284,165,88201,2,0,P|243:206|175:215,1,103.500001974106,8|8,0:0|0:0,0:0:0:0:
34,72,88520,1,0,0:0:0:0:
34,72,88600,1,0,0:0:0:0:
34,72,88679,1,8,0:0:0:0:
244,1,88839,5,2,0:0:0:0:
201,218,88998,1,0,0:0:0:0:
252,10,89158,1,8,0:0:0:0:
209,227,89317,1,0,0:0:0:0:
260,19,89477,6,0,B|321:-6|356:33|356:33|396:77|453:52,1,207.000003948212,8|0,0:0|0:0,0:0:0:0:
498,152,89956,1,8,0:0:0:0:
303,202,90116,2,0,P|284:140|309:81,1,103.500001974106
476,260,90435,2,0,P|495:322|470:381,1,103.500001974106,8|0,0:0|0:0,0:0:0:0:
226,384,90754,5,2,0:0:0:0:
299,312,90913,2,0,L|402:314,1,103.500001974106,8|0,0:0|0:0,0:0:0:0:
209,227,91233,2,0,L|105:229,1,103.500001974106,8|2,0:0|0:0,0:0:0:0:
0,334,91552,1,8,0:0:0:0:
299,312,91711,6,0,P|337:243|327:173,1,135,8|0,0:0|0:0,0:0:0:0:
277,76,92030,6,0,P|338:139|473:103,1,207.000003948212,6|0,0:0|0:0,0:0:0:0:
382,32,92509,1,8,0:0:0:0:
297,182,92669,2,0,P|236:245|101:209,1,207.000003948212,2|8,0:0|0:0,0:0:0:0:
192,138,93148,1,0,0:0:0:0:
303,306,93307,5,2,0:0:0:0:
303,306,93387,1,0,0:0:0:0:
303,306,93467,1,0,0:0:0:0:
508,257,93626,1,0,0:0:0:0:
297,182,93786,1,8,0:0:0:0:
506,122,93945,2,0,P|514:63|488:8,1,103.500001974106,2|0,0:0|0:0,0:0:0:0:
311,55,94264,2,0,P|357:79|408:82,1,103.500001974106,8|0,0:0|0:0,0:0:0:0:
185,21,94584,6,0,L|196:233,1,207.000003948212,2|0,0:0|0:0,0:0:0:0:
203,354,95062,1,8,0:0:0:0:
312,146,95222,2,0,L|306:249,1,103.500001974106,2|0,0:0|0:0,0:0:0:0:
73,81,95541,2,0,L|78:184,1,103.500001974106,8|0,0:0|0:0,0:0:0:0:
260,8,95860,5,2,0:0:0:0:
195,227,96020,2,0,P|173:159|205:100,1,103.500001974106,8|0,0:0|0:0,0:0:0:0:
413,6,96339,2,0,P|401:105|311:145,1,207.000003948212,8|0,0:0|0:0,0:0:0:0:
507,7,96818,2,0,P|510:58|498:110,1,103.500001974106,8|0,0:0|0:0,0:0:0:0:
397,242,97137,5,12,0:0:0:0:
229,99,97296,1,0,0:0:0:0:
120,299,97456,5,8,0:0:0:0:
310,187,97615,1,0,0:0:0:0:
495,349,97775,5,8,0:0:0:0:
288,271,97934,1,0,0:0:0:0:
512,170,98094,5,8,0:0:0:0:
512,170,98174,1,0,0:0:0:0:
512,170,98254,1,0,0:0:0:0:
332,99,98413,2,0,L|200:98,1,103.500001974106,8|0,0:0|0:0,0:0:0:0:
288,271,98733,2,0,L|420:270,1,103.500001974106,8|0,0:0|0:0,0:0:0:0:
115,134,99052,5,8,0:0:0:0:
159,306,99211,1,0,0:0:0:0:
332,99,99371,1,8,0:0:0:0:
288,271,99530,1,0,0:0:0:0:
200,147,99690,5,8,0:0:0:0:
381,213,99850,1,8,0:0:0:0:
147,215,100009,1,8,0:0:0:0:
413,132,100169,1,8,0:0:0:0:
115,134,100328,1,8,0:0:0:0:
467,200,100488,1,8,0:0:0:0:
147,215,100647,1,8,0:0:0:0:
499,119,100807,1,8,0:0:0:0:
499,119,102243,6,0,L|490:321,1,180,6|0,0:0|0:0,0:0:0:0:
396,384,102722,1,8,0:0:0:0:
346,267,102881,2,0,P|271:253|225:273,1,90,2|0,0:0|0:0,0:0:0:0:
114,357,103201,2,0,P|189:343|235:363,1,90,8|0,0:0|0:0,0:0:0:0:
48,167,103520,6,0,P|62:245|161:238,1,180,2|0,0:0|0:0,0:0:0:0:
259,164,103998,1,8,0:0:0:0:
346,267,104158,2,0,L|467:267,1,90,2|0,0:0|0:0,0:0:0:0:
467,98,104477,1,8,0:0:0:0:
353,169,104637,1,0,0:0:0:0:
212,25,104796,5,2,0:0:0:0:
259,164,104956,1,0,0:0:0:0:
71,111,105116,2,0,L|166:108,1,90,0|8,0:0|0:0,0:0:0:0:
161,221,105435,2,0,L|71:223,2,90,2|0|8,0:0|0:0|0:0,0:0:0:0:
259,164,105913,1,0,0:0:0:0:
281,360,106073,6,0,P|257:306|264:258,1,90,2|8,0:0|0:0,0:0:0:0:
464,182,106392,1,0,0:0:0:0:
452,329,106552,2,0,B|393:362|393:362|256:359,1,180,8|0,0:0|0:0,0:0:0:0:
100,364,107031,1,8,0:0:0:0:
100,364,107110,1,0,0:0:0:0:
100,364,107190,1,0,0:0:0:0:
179,149,107350,6,0,B|89:150|89:150,1,90,6|0,0:0|0:0,0:0:0:0:
348,278,107669,2,0,B|235:275,1,90,0|8,0:0|0:0,0:0:0:0:
362,61,107988,1,2,0:0:0:0:
432,204,108148,1,0,0:0:0:0:
326,168,108308,1,8,0:0:0:0:
468,98,108467,1,0,0:0:0:0:
348,278,108626,5,2,0:0:0:0:
326,168,108786,2,0,P|258:214|245:313,1,180,0|8,0:0|0:0,0:0:0:0:
133,382,109264,2,0,P|156:320|144:270,1,90,2|0,0:0|0:0,0:0:0:0:
13,179,109584,1,8,0:0:0:0:
53,318,109743,1,0,0:0:0:0:
160,202,109903,6,0,B|201:165|201:165|326:168,1,180,2|0,0:0|0:0,0:0:0:0:
325,167,110302,1,0,0:0:0:0:
325,167,110381,1,8,0:0:0:0:
242,305,110541,2,0,B|152:307,1,90,2|0,0:0|0:0,0:0:0:0:
13,179,110860,1,8,0:0:0:0:
160,202,111020,1,0,0:0:0:0:
236,75,111179,5,2,0:0:0:0:
89,51,111339,2,0,P|95:136|162:203,1,180,0|8,0:0|0:0,0:0:0:0:
347,235,111818,1,2,0:0:0:0:
242,305,111977,1,0,0:0:0:0:
280,173,112137,2,0,P|325:146|382:155,1,90,8|0,0:0|0:0,0:0:0:0:
507,277,112456,6,0,L|503:188,1,90,12|0,0:0|0:0,0:0:0:0:
347,235,112775,1,8,0:0:0:0:
347,235,112855,1,0,0:0:0:0:
347,235,112935,1,0,0:0:0:0:
427,256,113094,6,0,L|423:167,1,90,8|0,0:0|0:0,0:0:0:0:
267,214,113414,1,8,0:0:0:0:
267,214,113494,1,0,0:0:0:0:
267,214,113574,1,0,0:0:0:0:
347,235,113733,6,0,L|343:146,1,90,12|0,0:0|0:0,0:0:0:0:
187,193,114051,1,8,0:0:0:0:
187,193,114131,1,0,0:0:0:0:
187,193,114211,1,0,0:0:0:0:
267,214,114370,6,0,L|263:125,1,90,8|0,0:0|0:0,0:0:0:0:
107,172,114690,1,8,0:0:0:0:
107,172,114770,1,0,0:0:0:0:
107,172,114850,1,0,0:0:0:0:
187,193,115009,6,0,L|183:104,1,90,12|0,0:0|0:0,0:0:0:0:
27,151,115328,1,8,0:0:0:0:
27,151,115408,1,0,0:0:0:0:
27,151,115488,1,0,0:0:0:0:
107,172,115647,6,0,L|103:83,1,90,8|0,0:0|0:0,0:0:0:0:
35,264,115967,2,0,P|97:287|162:274,1,135,8|0,0:0|0:0,0:0:0:0:
210,251,116286,5,12,0:0:0:0:
400,287,116445,1,8,0:0:0:0:
244,172,116605,1,8,0:0:0:0:
334,342,116764,1,8,0:0:0:0:
327,150,116923,1,8,0:0:0:0:
250,326,117083,1,0,0:0:0:0:
395,201,117243,1,0,0:0:0:0:
395,201,117562,6,0,P|409:134|335:64,1,180,6|0,0:0|0:0,0:0:0:0:
145,56,118041,1,8,0:0:0:0:
244,172,118201,2,0,L|241:82,1,90,2|0,0:0|0:0,0:0:0:0:
140,254,118520,1,8,0:0:0:0:
286,266,118679,1,0,0:0:0:0:
129,358,118839,6,0,L|27:357,1,90,2|0,0:0|0:0,0:0:0:0:
140,254,119158,1,0,0:0:0:0:
222,376,119318,2,0,L|401:377,1,180,8|0,0:0|0:0,0:0:0:0:
299,180,119796,2,0,P|286:222|288:280,1,90,8|0,0:0|0:0,0:0:0:0:
480,160,120116,6,0,P|425:165|375:269,1,180,2|0,0:0|0:0,0:0:0:0:
460,246,120594,1,8,0:0:0:0:
299,180,120754,2,0,P|250:164|199:178,1,90,2|0,0:0|0:0,0:0:0:0:
45,120,121073,1,8,0:0:0:0:
202,77,121233,1,0,0:0:0:0:
124,267,121392,6,0,L|123:171,1,90,2|8,0:0|0:0,0:0:0:0:
244,274,121711,1,0,0:0:0:0:
47,300,121871,2,0,L|45:115,1,180,8|0,0:0|0:0,0:0:0:0:
202,77,122350,2,0,P|199:132|161:166,1,90,8|0,0:0|0:0,0:0:0:0:
267,10,122669,5,6,0:0:0:0:
313,149,122829,1,0,0:0:0:0:
394,61,122988,2,0,L|484:59,1,90,0|8,0:0|0:0,0:0:0:0:
261,20,123308,1,2,0:0:0:0:
307,159,123467,1,0,0:0:0:0:
388,71,123627,2,0,L|478:69,1,90,8|0,0:0|0:0,0:0:0:0:
255,30,123946,5,2,0:0:0:0:
301,169,124105,1,0,0:0:0:0:
382,81,124265,2,0,L|472:79,1,90,0|8,0:0|0:0,0:0:0:0:
295,179,124584,2,0,L|206:177,1,90,2|0,0:0|0:0,0:0:0:0:
249,40,124903,1,8,0:0:0:0:
159,315,125222,5,2,0:0:0:0:
205,176,125382,1,0,0:0:0:0:
286,264,125541,2,0,L|376:266,1,90,0|8,0:0|0:0,0:0:0:0:
153,305,125861,1,2,0:0:0:0:
199,166,126020,1,0,0:0:0:0:
280,254,126180,2,0,L|370:256,1,90,8|0,0:0|0:0,0:0:0:0:
340,126,126499,6,0,L|430:128,1,90,2|8,0:0|0:0,0:0:0:0:
274,244,126818,1,0,0:0:0:0:
193,156,126978,1,8,0:0:0:0:
147,295,127137,2,0,L|57:293,1,90,2|0,0:0|0:0,0:0:0:0:
6,180,127456,6,0,L|96:178,1,87.749995983124,8|0,0:0|0:0,0:0:0:0:
193,156,127775,6,0,P|113:97|189:30,1,207.000003948212,6|0,0:0|0:0,0:0:0:0:
279,87,128254,1,8,0:0:0:0:
388,0,128413,2,0,B|390:136|390:136|342:188,1,207.000003948212,2|8,0:0|0:0,0:0:0:0:
460,237,128892,1,0,0:0:0:0:
266,271,129052,5,2,0:0:0:0:
266,271,129131,1,0,0:0:0:0:
266,271,129211,1,0,0:0:0:0:
392,367,129371,2,0,L|506:367,1,103.500001974106,0|8,0:0|0:0,0:0:0:0:
211,367,129690,1,2,0:0:0:0:
376,271,129850,1,0,0:0:0:0:
211,176,130009,1,8,0:0:0:0:
266,271,130169,1,0,0:0:0:0:
240,94,130328,6,0,B|201:81|169:90|142:120|142:120|120:147|87:157|51:148,1,207.000003948212,2|0,0:0|0:0,0:0:0:0:
70,60,130807,1,8,0:0:0:0:
211,176,130967,2,0,P|267:177|309:145,1,103.500001974106,2|0,0:0|0:0,0:0:0:0:
53,148,131286,2,0,P|47:208|63:250,1,103.500001974106,8|0,0:0|0:0,0:0:0:0:
188,357,131605,5,2,0:0:0:0:
169,242,131764,2,0,L|174:360,1,103.500001974106,8|0,0:0|0:0,0:0:0:0:
308,243,132084,2,0,P|319:353|378:318,1,207.000003948212,8|0,0:0|0:0,0:0:0:0:
443,263,132562,2,0,L|436:151,1,103.500001974106,8|0,0:0|0:0,0:0:0:0:
232,72,132881,5,6,0:0:0:0:
80,146,133041,1,0,0:0:0:0:
307,164,133201,5,0,0:0:0:0:
443,263,133361,1,8,0:0:0:0:
196,206,133520,5,2,0:0:0:0:
79,327,133680,1,0,0:0:0:0:
291,282,133839,6,0,P|326:329|324:391,1,103.500001974106,8|0,0:0|0:0,0:0:0:0:
118,236,134158,2,0,P|83:189|85:127,1,103.500001974106,2|0,0:0|0:0,0:0:0:0:
170,14,134477,1,0,0:0:0:0:
170,14,134557,1,0,0:0:0:0:
170,14,134637,1,8,0:0:0:0:
366,193,134796,5,2,0:0:0:0:
172,160,134956,1,0,0:0:0:0:
421,123,135116,1,8,0:0:0:0:
227,90,135276,1,0,0:0:0:0:
476,53,135435,6,0,B|509:94|509:94|498:253,1,207.000003948212,2|0,0:0|0:0,0:0:0:0:
311,364,135913,1,8,0:0:0:0:
314,248,136073,2,0,P|378:267|409:303,1,103.500001974106,2|0,0:0|0:0,0:0:0:0:
212,303,136392,1,8,0:0:0:0:
212,303,137190,6,0,L|213:342,2,26.9999991760254
202,352,137350,6,0,L|199:257,1,94.499997116089
249,184,137669,2,0,P|211:218|165:227,1,94.499997116089
123,89,137988,6,0,P|163:155|117:102,1,207.000003948212,6|0,0:0|0:0,0:0:0:0:
32,77,138467,1,8,0:0:0:0:
194,3,138626,2,0,P|243:33|268:77,1,103.500001974106,2|0,0:0|0:0,0:0:0:0:
225,280,138945,2,0,P|226:222|252:178,1,103.500001974106,8|0,0:0|0:0,0:0:0:0:
450,115,139264,5,2,0:0:0:0:
450,115,139344,1,0,0:0:0:0:
450,115,139424,1,0,0:0:0:0:
326,254,139584,1,0,0:0:0:0:
499,227,139743,1,8,0:0:0:0:
304,122,139903,1,2,0:0:0:0:
511,227,140062,1,0,0:0:0:0:
386,343,140222,2,0,L|282:341,1,103.500001974106,8|0,0:0|0:0,0:0:0:0:
143,121,140541,6,0,P|224:179|224:279,1,207.000003948212,2|0,0:0|0:0,0:0:0:0:
67,361,141020,1,8,0:0:0:0:
23,235,141179,2,0,L|127:231,1,103.500001974106,2|0,0:0|0:0,0:0:0:0:
326,158,141498,1,8,0:0:0:0:
143,121,141658,1,0,0:0:0:0:
224,278,141818,5,2,0:0:0:0:
314,59,141977,2,0,P|375:69|406:97,1,103.500001974106,8|0,0:0|0:0,0:0:0:0:
342,364,142296,2,0,L|326:158,1,207.000003948212,8|0,0:0|0:0,0:0:0:0:
493,37,142775,2,0,L|484:140,1,103.500001974106,8|0,0:0|0:0,0:0:0:0:
251,357,143094,5,12,0:0:0:0:
443,263,143253,1,0,0:0:0:0:
263,239,143413,5,8,0:0:0:0:
71,145,143572,1,0,0:0:0:0:
275,121,143733,5,8,0:0:0:0:
467,27,143892,1,0,0:0:0:0:
443,263,144051,5,8,0:0:0:0:
443,263,144131,1,0,0:0:0:0:
443,263,144211,1,0,0:0:0:0:
378,122,144371,2,0,L|265:120,1,103.500001974106,8|0,0:0|0:0,0:0:0:0:
74,294,144690,2,0,L|177:292,1,103.500001974106,8|0,0:0|0:0,0:0:0:0:
71,145,145009,5,8,0:0:0:0:
263,239,145169,1,0,0:0:0:0:
204,35,145328,1,8,0:0:0:0:
177,292,145488,1,0,0:0:0:0:
480,103,145647,5,8,0:0:0:0:
263,239,145807,1,8,0:0:0:0:
439,279,145967,1,8,0:0:0:0:
303,62,146126,1,8,0:0:0:0:
508,202,146286,5,8,0:0:0:0:
234,139,146446,1,8,0:0:0:0:
339,307,146606,1,8,0:0:0:0:
402,33,146765,1,8,0:0:0:0:
256,192,146924,12,0,147881,0:0:0:0:
44,110,148201,6,0,B|16:173|50:213|50:213|80:254|51:328,2,202.500007724762,2|2|2,2:2|2:2|2:2,0:0:0:0:
98,16,149477,5,2,2:2:0:0:
224,117,149956,1,2,2:2:0:0:
352,18,150435,1,2,2:2:0:0:
434,88,150754,6,0,P|474:183|415:272,2,202.500007724762,2|2|2,2:2|2:2|2:2,0:0:0:0:
367,173,152030,5,2,2:2:0:0:
222,94,152509,1,2,2:2:0:0:
80,216,152988,1,2,2:2:0:0:
182,250,153307,6,0,B|249:267|249:267|312:242|312:242|390:268,2,202.500007724762,2|2|2,2:2|2:2|2:2,0:0:0:0:
220,352,154584,5,2,2:2:0:0:
379,377,155062,1,2,2:2:0:0:
497,266,155541,1,2,2:2:0:0:
439,174,155860,6,0,P|436:77|513:6,2,202.500007724762,2|2|2,2:2|2:2|2:2,0:0:0:0:
497,266,157137,5,2,2:2:0:0:
379,377,157616,1,2,2:2:0:0:
220,352,158094,1,2,2:2:0:0:
295,287,158413,6,0,L|301:127,1,153.000002918243,10|0,2:2|0:0,0:0:0:0:
195,101,158892,2,0,L|200:253,1,153.000002918243,2|0,2:2|0:0,0:0:0:0:
220,352,159371,1,2,2:2:0:0:
471,160,159690,6,0,P|392:147|333:215,1,153.000002918243,10|0,2:2|0:0,0:0:0:0:
290,263,160169,2,0,P|369:276|428:208,1,153.000002918243,2|0,2:2|0:0,0:0:0:0:
507,240,160647,1,2,2:2:0:0:
340,191,160807,1,0,0:0:0:0:
421,350,160967,6,0,L|518:344,1,76.5000014591217,10|0,2:2|0:0,0:0:0:0:
290,263,161286,1,0,0:0:0:0:
290,263,161366,1,0,0:0:0:0:
290,263,161445,1,2,2:2:0:0:
340,191,161605,5,8,0:0:0:0:
214,207,161764,1,0,0:0:0:0:
230,333,161924,1,2,2:2:0:0:
356,317,162084,1,0,0:0:0:0:
340,191,162243,6,0,L|330:115,1,76.5000014591217,10|0,2:2|0:0,0:0:0:0:
214,207,162562,1,0,0:0:0:0:
255,78,162722,1,2,2:2:0:0:
118,102,162881,1,8,0:0:0:0:
248,71,163041,1,0,0:0:0:0:
111,95,163200,1,2,2:2:0:0:
241,64,163360,1,0,0:0:0:0:
104,88,163520,6,0,L|117:246,1,153.000002918243,10|0,2:2|0:0,0:0:0:0:
213,279,163998,2,0,P|135:284|88:362,1,153.000002918243,2|0,2:2|0:0,0:0:0:0:
179,367,164477,1,2,2:2:0:0:
179,367,164637,1,0,0:0:0:0:
357,349,164796,6,0,L|369:194,1,153.000002918243,10|0,2:2|0:0,0:0:0:0:
438,129,165275,2,0,L|448:282,1,153.000002918243,2|0,2:2|0:0,0:0:0:0:
460,383,165754,1,2,2:2:0:0:
240,193,166073,6,0,L|235:276,1,76.5000014591217,10|0,2:2|0:0,0:0:0:0:
275,99,166392,1,0,0:0:0:0:
275,99,166472,1,0,0:0:0:0:
275,99,166551,1,2,2:2:0:0:
369,132,166711,5,8,0:0:0:0:
240,193,166871,1,0,0:0:0:0:
180,65,167031,1,2,2:2:0:0:
309,5,167190,1,0,0:0:0:0:
339,221,167350,6,0,P|410:216|472:135,1,161.999995056153,8|0,2:2|0:0,0:0:0:0:
275,99,167828,2,0,L|246:99,2,26.9999991760254,2|0|0,0:0|0:0|0:0,0:0:0:0:
227,110,167988,6,0,L|321:110,1,94.499997116089,10|0,0:0|0:0,0:0:0:0:
429,21,168307,2,0,L|334:21,1,94.499997116089,2|0,0:0|0:0,0:0:0:0:
239,21,168626,6,0,B|91:21|91:21|49:96,1,225,6|0,0:0|0:0,0:0:0:0:
0,257,169105,1,8,0:0:0:0:
208,166,169264,2,0,P|137:166|88:208,1,112.5,2|0,0:0|0:0,0:0:0:0:
80,324,169584,2,0,P|151:324|200:282,1,112.5,8|0,0:0|0:0,0:0:0:0:
316,91,169903,5,2,0:0:0:0:
316,91,169983,1,0,0:0:0:0:
316,91,170062,2,0,P|299:156|320:217,1,112.5
512,270,170381,1,8,0:0:0:0:
324,327,170541,1,2,0:0:0:0:
430,170,170701,1,0,0:0:0:0:
427,376,170860,2,0,L|429:252,1,112.5,8|0,0:0|0:0,0:0:0:0:
486,91,171179,6,0,P|403:76|336:188,1,225,2|0,0:0|0:0,0:0:0:0:
428,263,171658,1,8,0:0:0:0:
324,327,171818,2,0,L|175:329,1,112.5,2|0,0:0|0:0,0:0:0:0:
115,220,172137,2,0,L|-34:222,1,112.5,8|0,0:0|0:0,0:0:0:0:
106,329,172456,5,2,0:0:0:0:
160,127,172616,2,0,P|208:172|215:252,1,112.5,8|0,0:0|0:0,0:0:0:0:
211,328,172935,2,0,P|224:267|386:232,1,225,8|0,0:0|0:0,0:0:0:0:
474,299,173413,2,0,L|468:185,1,112.5,8|0,0:0|0:0,0:0:0:0:
160,127,173733,5,6,0:0:0:0:
211,275,173892,1,0,0:0:0:0:
418,38,174052,5,0,0:0:0:0:
263,8,174211,1,8,0:0:0:0:
366,306,174371,5,2,0:0:0:0:
469,187,174530,1,0,0:0:0:0:
267,129,174690,6,0,P|214:114|159:126,1,112.5,8|0,0:0|0:0,0:0:0:0:
366,306,175009,2,0,P|419:320|474:308,1,112.5,2|0,0:0|0:0,0:0:0:0:
400,119,175328,1,0,0:0:0:0:
400,119,175408,1,0,0:0:0:0:
400,119,175488,1,8,0:0:0:0:
209,244,175647,5,2,0:0:0:0:
182,46,175807,1,0,0:0:0:0:
184,235,175967,1,8,0:0:0:0:
157,36,176127,1,0,0:0:0:0:
159,226,176286,6,0,P|76:214|-10:320,1,225,2|0,0:0|0:0,0:0:0:0:
12,143,176764,1,8,0:0:0:0:
104,328,176924,2,0,P|165:341|227:323,1,112.5,2|0,0:0|0:0,0:0:0:0:
295,146,177243,2,0,P|253:192|237:255,1,112.5,8|0,0:0|0:0,0:0:0:0:
406,384,177562,5,2,0:0:0:0:
461,267,177722,2,0,L|328:266,1,112.5,8|0,0:0|0:0,0:0:0:0:
213,329,178041,2,0,P|293:256|295:146,1,225,8|0,0:0|0:0,0:0:0:0:
211,36,178520,6,0,L|62:42,1,135,8|0,0:0|0:0,0:0:0:0:
24,120,178839,6,0,L|286:130,1,225,6|0,0:0|0:0,0:0:0:0:
417,142,179318,1,8,0:0:0:0:
349,76,179477,2,0,P|322:136|335:190,1,112.5,2|0,0:0|0:0,0:0:0:0:
488,209,179796,2,0,P|515:149|502:95,1,112.5,8|0,0:0|0:0,0:0:0:0:
362,263,180116,6,0,L|251:242,1,112.5,2|0,0:0|0:0,0:0:0:0:
329,180,180435,1,0,0:0:0:0:
329,180,180514,1,0,0:0:0:0:
329,180,180594,1,8,0:0:0:0:
459,368,180754,1,2,0:0:0:0:
488,209,180913,1,0,0:0:0:0:
300,339,181073,2,0,L|189:318,1,112.5,8|0,0:0|0:0,0:0:0:0:
81,366,181392,6,0,P|171:289|150:170,1,225,2|0,0:0|0:0,0:0:0:0:
65,51,181871,2,0,P|125:153|246:152,1,225,8|0,0:0|0:0,0:0:0:0:
404,83,182350,1,8,0:0:0:0:
302,259,182509,1,0,0:0:0:0:
264,67,182669,5,2,0:0:0:0:
471,215,182828,2,0,P|494:265|482:347,1,112.5,8|0,0:0|0:0,0:0:0:0:
302,259,183147,2,0,P|387:236|348:348,1,225,8|0,0:0|0:0,0:0:0:0:
196,371,183626,2,0,L|189:259,1,112.5,8|0,0:0|0:0,0:0:0:0:
264,67,183945,5,6,0:0:0:0:
68,57,184105,1,0,0:0:0:0:
391,153,184264,5,0,0:0:0:0:
193,172,184424,1,8,0:0:0:0:
456,24,184584,5,2,0:0:0:0:
264,67,184744,1,0,0:0:0:0:
484,257,184903,5,8,0:0:0:0:
484,257,184983,1,0,0:0:0:0:
484,257,185062,1,0,0:0:0:0:
302,259,185222,2,0,L|189:260,1,112.5,2|0,0:0|0:0,0:0:0:0:
400,364,185541,2,0,L|512:362,1,112.5,0|8,0:0|0:0,0:0:0:0:
361,169,185860,6,0,L|162:171,2,168.75,2|0|0,0:0|0:0|0:0,0:0:0:0:
302,259,186498,6,0,L|189:260,1,112.5,2|0,0:0|0:0,0:0:0:0:
79,261,186818,1,0,0:0:0:0:
236,360,186977,2,0,L|123:361,1,112.5,8|2,0:0|0:0,0:0:0:0:
13,362,187297,1,0,0:0:0:0:
189,260,187456,1,8,0:0:0:0:
13,159,187616,1,0,0:0:0:0:
123,361,187775,6,0,L|236:360,1,112.05000162426
384,296,188254,6,0,P|320:361|329:243,1,269.999991760254
