osu file format v14

[General]
AudioFilename: audio.mp3
AudioLeadIn: 0
PreviewTime: 30036
Countdown: 0
SampleSet: Soft
StackLeniency: 0.3
Mode: 0
LetterboxInBreaks: 0
WidescreenStoryboard: 0

[Editor]
DistanceSpacing: 2.7
BeatDivisor: 4
GridSize: 32
TimelineZoom: 1.9

[Metadata]
Title:Con Calma feat. Snow
TitleUnicode:Con Calma feat. Snow
Artist:Daddy Yankee
ArtistUnicode:Daddy Yankee
Creator:Tatan
Version:Hazu's Insane
Source:
Tags:Spanish Pop EspaƱol Latino Latin Reggaeton Regueton Underground Urbano Urban Rap wolf3211 -Sh1n1- Hazu- pkhg MaestroSplinter TheShadowOfDark Gero -_Tatan_-
BeatmapID:1966957
BeatmapSetID:930316

[Difficulty]
HPDrainRate:5
CircleSize:4
OverallDifficulty:7
ApproachRate:9
SliderMultiplier:1.6
SliderTickRate:1

[Events]
//Background and Video events
0,0,"taton.jpg",0,0
//Break Periods
2,148401,157813
//Storyboard Layer 0 (Background)
//Storyboard Layer 1 (Fail)
//Storyboard Layer 2 (Pass)
//Storyboard Layer 3 (Foreground)
//Storyboard Layer 4 (Overlay)
//Storyboard Sound Samples

[TimingPoints]
116,319.148936170213,4,3,1,100,1,0
10328,-111.111111111111,4,2,1,40,0,0
20541,-111.111111111111,4,2,1,50,0,0
30754,-100,4,3,1,75,0,1
39371,-100,4,3,1,75,0,0
40967,-100,4,3,1,75,0,1
48626,-100,4,3,1,80,0,1
49743,-100,4,3,1,80,0,0
50860,-200,4,3,1,80,0,0
51099,-200,4,3,1,5,0,0
51100,-200,4,3,1,80,0,0
51179,-100,4,3,1,40,0,0
81419,-100,4,3,1,40,0,0
81498,-100,4,3,1,40,0,0
81818,-100,4,3,1,50,0,1
91711,-100,4,3,1,50,0,0
92030,-100,4,3,1,75,0,1
99690,-100,4,3,1,80,0,1
100807,-100,4,3,1,80,0,0
100967,-100,4,3,1,80,0,0
102243,-100,4,3,1,40,0,0
112456,-100,4,3,1,50,0,0
116126,-100,4,3,1,5,0,0
116205,-100,4,3,1,5,0,0
116206,-100,4,3,1,50,0,0
116286,-100,4,3,1,60,0,0
117562,-100,4,3,1,50,0,0
127456,-100,4,3,1,50,0,0
127775,-100,4,3,1,75,0,1
136392,-100,4,3,1,75,0,0
137350,-100,4,3,1,75,0,0
137988,-100,4,3,1,75,0,1
145647,-100,4,3,1,80,0,1
146924,-100,4,3,1,80,0,0
148120,-100,4,3,1,5,0,0
148121,-100,4,3,1,80,0,0
148201,-100,4,2,1,40,0,0
158413,-100,4,2,1,50,0,0
166073,-100,4,2,1,50,0,0
167030,-100,4,2,1,50,0,0
167988,-100,4,2,1,50,0,0
168626,-100,4,3,1,75,0,1
187775,-100,4,3,1,75,0,0
188254,-200,4,3,1,75,0,0
188334,-200,4,3,1,75,0,0
189051,-200,4,3,1,5,0,0

[Colours]
Combo1 : 208,166,215
Combo2 : 215,183,72
Combo3 : 150,207,99
Combo4 : 150,191,194

[HitObjects]
325,185,10328,6,0,B|249:171|272:237|182:216,1,143.999995605469,2|0,2:2|0:0,0:0:0:0:
93,188,10807,1,2,2:2:0:0:
93,188,10967,2,0,P|101:222|108:258,1,71.9999978027344
32,327,11286,2,0,P|24:291|16:256,1,71.9999978027344,2|0,2:2|0:0,0:0:0:0:
121,348,11605,2,0,B|218:321|218:321|259:336,2,143.999995605469,2|0|0,2:2|0:0|0:0,0:0:0:0:
134,248,12403,1,0,0:0:0:0:
44,219,12562,2,0,P|38:254|48:289,1,71.9999978027344,2|0,2:2|0:0,0:0:0:0:
168,162,12881,5,2,2:2:0:0:
168,162,13041,2,0,B|92:175|111:116|33:129,2,143.999995605469,0|2|0,0:0|2:2|0:0,0:0:0:0:
232,83,13839,2,0,P|196:70|149:81,1,71.9999978027344,2|0,2:2|0:0,0:0:0:0:
298,147,14158,2,0,P|324:84|286:7,2,143.999995605469,2|0|0,2:2|0:0|0:0,0:0:0:0:
215,193,14956,1,0,0:0:0:0:
125,128,15116,2,0,P|182:117|220:106,1,71.9999978027344,2|0,2:2|0:0,0:0:0:0:
31,94,15435,5,2,2:2:0:0:
31,94,15594,2,0,P|48:147|73:244,2,143.999995605469,0|2|0,0:0|2:2|0:0,0:0:0:0:
164,44,16392,2,0,P|118:31|86:19,1,71.9999978027344,2|0,2:2|0:0,0:0:0:0:
155,140,16711,2,0,P|247:120|301:110,2,143.999995605469,2|0|0,2:2|0:0|0:0,0:0:0:0:
90,222,17509,1,0,0:0:0:0:
174,292,17669,2,0,P|185:246|162:194,1,71.9999978027344,2|0,2:2|0:0,0:0:0:0:
68,133,17988,5,2,2:2:0:0:
68,133,18147,2,0,B|126:143|126:143|164:132|164:132|225:142,1,143.999995605469,0|2,0:0|2:2,0:0:0:0:
278,205,18626,2,0,P|268:250|262:277,1,71.9999978027344
169,323,18945,2,0,P|174:297|183:252,1,71.9999978027344,2|0,2:2|0:0,0:0:0:0:
369,172,19264,2,0,P|359:217|353:244,1,71.9999978027344,2|0,2:2|0:0,0:0:0:0:
262,275,19584,1,0,0:0:0:0:
262,275,19743,2,0,P|269:239|294:121,1,143.999995605469,2|0,2:2|0:0,0:0:0:0:
393,54,20222,2,0,P|383:99|377:126,1,71.9999978027344,2|0,2:2|0:0,0:0:0:0:
296,37,20541,6,0,B|220:23|243:89|153:68,1,143.999995605469,10|0,2:2|0:0,0:0:0:0:
71,40,21020,1,2,2:2:0:0:
71,40,21180,2,0,P|64:72|79:114,1,71.9999978027344,8|0,0:0|0:0,0:0:0:0:
166,138,21498,2,0,P|173:106|158:64,1,71.9999978027344,2|0,2:2|0:0,0:0:0:0:
40,190,21818,2,0,B|116:176|93:242|183:221,2,143.999995605469,10|0|8,2:2|0:0|0:0,0:0:0:0:
166,138,22616,1,0,0:0:0:0:
252,184,22775,2,0,P|261:234|236:280,1,71.9999978027344,2|0,2:2|0:0,0:0:0:0:
154,321,23094,5,10,2:2:0:0:
154,321,23254,2,0,P|219:295|289:354,2,143.999995605469,0|2|0,0:0|2:2|0:0,0:0:0:0:
70,356,24052,2,0,P|64:320|77:275,1,71.9999978027344,2|0,2:2|0:0,0:0:0:0:
143,220,24371,2,0,P|220:209|286:198,2,143.999995605469,10|0|8,2:2|0:0|0:0,0:0:0:0:
68,154,25169,1,0,0:0:0:0:
164,59,25329,2,0,P|156:105|150:138,1,71.9999978027344,2|0,2:2|0:0,0:0:0:0:
43,295,25648,5,10,2:2:0:0:
43,295,25807,2,0,P|52:242|71:133,2,143.999995605469,0|2|0,0:0|2:2|0:0,0:0:0:0:
117,357,26605,2,0,P|123:321|129:286,1,71.9999978027344,2|0,2:2|0:0,0:0:0:0:
177,207,26924,2,0,P|246:189|316:172,2,143.999995605469,10|0|8,2:2|0:0|0:0,0:0:0:0:
313,264,27722,1,0,0:0:0:0:
394,214,27882,2,0,P|405:168|382:116,1,71.9999978027344,2|0,2:2|0:0,0:0:0:0:
205,83,28201,5,10,2:2:0:0:
205,83,28360,2,0,B|263:73|263:73|301:84|301:84|345:76,1,143.999995605469,0|2,0:0|2:2,0:0:0:0:
470,159,28839,2,0,P|425:150|383:139,1,71.9999978027344,8|0,0:0|0:0,0:0:0:0:
327,213,29158,2,0,P|372:222|414:233,1,71.9999978027344,2|0,2:2|0:0,0:0:0:0:
254,140,29477,2,0,P|230:174|246:280,1,143.999995605469,8|0,2:2|0:0,0:0:0:0:
361,318,29956,1,2,0:0:0:0:
361,318,30036,1,0,0:0:0:0:
361,318,30116,2,0,B|285:304|308:370|218:349,1,143.999995605469,10|2,0:0|0:0,0:0:0:0:
96,160,30754,6,0,B|101:219|101:219|122:253|122:253|130:347|130:347|101:281,1,240,6|8,0:0|0:0,0:0:0:0:
179,173,31392,2,0,P|174:113|169:64,1,80,2|0,0:0|0:0,0:0:0:0:
89,80,31711,2,0,P|94:140|99:189,1,80,8|0,0:0|0:0,0:0:0:0:
309,228,32030,1,2,0:0:0:0:
309,228,32110,1,0,0:0:0:0:
309,228,32191,2,0,B|223:209|252:277|154:258,1,160,0|8,0:0|0:0,0:0:0:0:
290,310,32669,2,0,P|344:308|371:287,1,80,2|0,0:0|0:0,0:0:0:0:
383,212,32988,2,0,P|343:209|308:227,1,80,8|0,0:0|0:0,0:0:0:0:
467,322,33307,6,0,P|483:244|507:144,1,160,2|0,0:0|0:0,0:0:0:0:
442,63,33786,1,8,0:0:0:0:
442,63,33945,2,0,P|433:104|421:151,1,80,2|0,0:0|0:0,0:0:0:0:
333,161,34264,2,0,P|342:120|354:73,1,80,8|0,0:0|0:0,0:0:0:0:
382,259,34584,1,2,0:0:0:0:
382,259,34743,2,0,P|335:274|292:260,1,80,8|0,0:0|0:0,0:0:0:0:
181,296,35062,2,0,P|268:253|250:348,1,240,8|8,0:0|0:0,0:0:0:0:
249,348,35701,1,0,0:0:0:0:
78,352,35860,6,0,P|128:341|172:329,1,80,6|0,0:0|0:0,0:0:0:0:
14,280,36179,2,0,P|52:270|91:261,1,80,0|8,0:0|0:0,0:0:0:0:
195,144,36498,2,0,P|187:184|173:254,1,80,2|0,0:0|0:0,0:0:0:0:
120,67,36818,2,0,P|112:107|98:177,1,80,8|0,0:0|0:0,0:0:0:0:
292,58,37137,2,0,P|244:48|207:67,1,80,2|0,0:0|0:0,0:0:0:0:
313,152,37456,1,0,0:0:0:0:
313,152,37536,1,0,0:0:0:0:
313,152,37616,1,8,0:0:0:0:
398,102,37775,2,0,P|388:59|376:20,1,80,2|0,0:0|0:0,0:0:0:0:
484,68,38094,2,0,P|494:111|506:150,1,80,8|0,0:0|0:0,0:0:0:0:
364,199,38413,6,0,B|449:186|428:261|518:237,1,160,2|0,0:0|0:0,0:0:0:0:
511,238,38892,1,8,0:0:0:0:
377,284,39052,2,0,P|335:274|277:264,1,80,2|0,0:0|0:0,0:0:0:0:
193,153,39371,1,8,0:0:0:0:
193,153,40967,6,0,B|246:309|246:309|165:251,1,240,6|8,0:0|0:0,0:0:0:0:
58,271,41606,2,0,P|91:298|135:330,1,80,2|0,0:0|0:0,0:0:0:0:
54,162,41924,2,0,P|86:186|117:212,1,80,8|0,0:0|0:0,0:0:0:0:
251,291,42244,1,2,0:0:0:0:
251,291,42324,1,0,0:0:0:0:
251,291,42403,2,0,P|219:203|259:136,1,160,0|8,0:0|0:0,0:0:0:0:
384,204,42882,2,0,P|349:222|309:219,1,80,2|0,0:0|0:0,0:0:0:0:
332,132,43201,2,0,P|367:114|406:117,1,80,8|0,0:0|0:0,0:0:0:0:
474,234,43521,6,0,B|499:124|499:124|479:64,1,160,2|0,0:0|0:0,0:0:0:0:
384,204,43999,1,8,0:0:0:0:
384,204,44159,2,0,P|375:245|363:292,1,80,2|0,0:0|0:0,0:0:0:0:
455,312,44478,2,0,P|464:271|476:224,1,80,8|0,0:0|0:0,0:0:0:0:
301,330,44797,1,2,0:0:0:0:
301,330,44956,2,0,P|336:364|385:358,1,80,8|0,0:0|0:0,0:0:0:0:
322,242,45275,2,0,B|261:218|196:269|242:284|171:340|94:296,1,240,8|8,0:0|0:0,0:0:0:0:
107,302,45914,1,0,0:0:0:0:
0,177,46074,6,0,P|9:211|19:260,1,80,12|0,0:0|0:0,0:0:0:0:
68,93,46392,2,0,P|77:127|87:176,1,80,8|0,0:0|0:0,0:0:0:0:
240,245,46712,2,0,P|198:251|149:221,1,80,8|0,0:0|0:0,0:0:0:0:
300,163,47031,1,8,0:0:0:0:
300,163,47111,1,0,0:0:0:0:
300,163,47191,1,0,0:0:0:0:
422,239,47350,2,0,P|380:233|331:263,1,80,8|0,0:0|0:0,0:0:0:0:
317,337,47669,2,0,P|356:343|392:328,1,80,8|0,0:0|0:0,0:0:0:0:
178,280,47989,2,0,P|189:318|200:357,1,80,8|0,0:0|0:0,0:0:0:0:
264,257,48307,2,0,P|252:218|242:180,1,80,8|0,0:0|0:0,0:0:0:0:
153,57,48626,5,8,0:0:0:0:
250,89,48786,1,8,0:0:0:0:
118,166,48945,1,8,0:0:0:0:
277,85,49106,1,8,0:0:0:0:
56,55,49264,1,8,0:0:0:0:
227,237,49424,1,8,0:0:0:0:
171,32,49584,1,8,0:0:0:0:
25,197,49743,1,8,0:0:0:0:
25,197,50860,2,0,P|53:191|90:201,1,60
100,289,51179,6,0,P|84:224|182:274,1,240,6|8,0:0|0:0,0:0:0:0:
168,349,51818,2,0,P|129:337|78:322,1,80,2|0,0:0|0:0,0:0:0:0:
262,286,52137,2,0,P|224:274|186:263,1,80,8|0,0:0|0:0,0:0:0:0:
338,359,52456,1,2,0:0:0:0:
338,359,52616,2,0,P|369:304|317:205,1,160,0|8,0:0|0:0,0:0:0:0:
262,145,53095,2,0,P|231:200|283:299,1,160,2|8,0:0|0:0,0:0:0:0:
337,218,53573,1,0,0:0:0:0:
156,160,53733,6,0,B|126:246|181:324|181:324|154:294|121:279,1,240,2|8,0:0|0:0,0:0:0:0:
60,211,54371,2,0,P|48:158|34:108,1,80,2|0,0:0|0:0,0:0:0:0:
94,15,54690,2,0,P|106:68|120:118,1,80,8|0,0:0|0:0,0:0:0:0:
247,176,55009,1,2,0:0:0:0:
247,176,55169,1,8,0:0:0:0:
296,77,55328,2,0,P|253:74|217:91,1,80,0|8,0:0|0:0,0:0:0:0:
34,106,55647,2,0,B|159:73|122:218|259:171,1,240,2|0,0:0|0:0,0:0:0:0:
380,63,56286,5,6,0:0:0:0:
380,63,56445,2,0,P|355:117|414:209,1,160,0|8,0:0|0:0,0:0:0:0:
486,223,56924,1,2,0:0:0:0:
486,223,57084,2,0,P|486:176|447:135,1,80,0|8,0:0|0:0,0:0:0:0:
396,297,57403,2,0,P|438:306|494:319,1,80,0|2,0:0|0:0,0:0:0:0:
358,217,57722,2,0,P|316:208|260:195,1,80
152,263,58041,2,0,P|194:272|316:300,1,160,8|0,0:0|0:0,0:0:0:0:
308,298,58520,1,8,0:0:0:0:
432,249,58679,6,0,P|421:291|406:349,1,80,0|2,0:0|0:0,0:0:0:0:
371,183,58998,2,0,P|381:144|391:105,1,80
508,12,59318,2,0,P|490:79|466:177,1,160,8|0,0:0|0:0,0:0:0:0:
371,183,59796,2,0,P|381:144|391:105,1,80,8|0,0:0|0:0,0:0:0:0:
314,45,60116,1,8,0:0:0:0:
314,45,60435,1,8,0:0:0:0:
314,45,60754,1,8,0:0:0:0:
314,45,61073,1,8,0:0:0:0:
314,45,61392,6,0,P|334:121|357:211,1,160,6|0,0:0|0:0,0:0:0:0:
430,253,61871,1,8,0:0:0:0:
336,286,62030,2,0,P|327:325|317:369,1,80,2|0,0:0|0:0,0:0:0:0:
412,330,62350,2,0,P|420:290|429:252,1,80,8|0,0:0|0:0,0:0:0:0:
264,230,62669,1,2,0:0:0:0:
264,230,62829,2,0,P|255:269|245:313,1,80
346,189,63147,1,8,0:0:0:0:
159,295,63307,2,0,B|185:189|200:117|200:117|206:188,1,240,2|0,0:0|0:0,0:0:0:0:
66,324,63945,6,0,P|83:257|106:164,1,160,2|0,0:0|0:0,0:0:0:0:
200,117,64424,1,8,0:0:0:0:
271,225,64584,2,0,P|229:205|187:216,1,80,2|0,0:0|0:0,0:0:0:0:
312,146,64903,2,0,P|354:126|396:137,1,80,8|0,0:0|0:0,0:0:0:0:
512,187,65222,1,2,0:0:0:0:
512,187,65381,2,0,P|470:207|428:196,1,80,8|0,0:0|0:0,0:0:0:0:
461,121,65701,1,8,0:0:0:0:
253,200,65860,2,0,B|384:184|336:304|463:293,1,240,2|0,0:0|0:0,0:0:0:0:
445,69,66498,6,0,P|409:135|462:213,1,160,6|0,0:0|0:0,0:0:0:0:
341,198,66977,1,8,0:0:0:0:
285,265,67137,2,0,P|246:255|190:244,1,80,2|0,0:0|0:0,0:0:0:0:
169,149,67456,2,0,P|207:158|264:170,1,80,8|0,0:0|0:0,0:0:0:0:
100,266,67775,2,0,P|84:181|62:93,1,160,2|0,0:0|0:0,0:0:0:0:
122,24,68254,1,8,0:0:0:0:
264,83,68413,1,2,0:0:0:0:
264,83,68573,2,0,P|226:96|189:84,1,80,0|8,0:0|0:0,0:0:0:0:
339,33,68892,1,0,0:0:0:0:
423,152,69052,6,0,B|412:98|412:98|433:60|433:60|420:0,1,160,2|0,0:0|0:0,0:0:0:0:
508,131,69530,1,8,0:0:0:0:
478,223,69690,2,0,P|445:242|388:230,1,80,2|0,0:0|0:0,0:0:0:0:
349,168,70010,2,0,P|382:149|439:161,1,80,8|0,0:0|0:0,0:0:0:0:
274,286,70328,1,2,0:0:0:0:
274,286,70488,2,0,B|260:226|246:177|246:177|264:128,1,160,8|8,0:0|0:0,0:0:0:0:
326,54,70967,1,2,0:0:0:0:
326,54,71126,1,0,0:0:0:0:
446,157,71286,2,0,P|401:144|346:129,1,80,8|0,0:0|0:0,0:0:0:0:
186,90,71605,6,0,P|216:82|242:75,4,40,6|0|0|0|0,0:0|0:0|0:0|0:0|0:0,0:0:0:0:
250,161,72084,2,0,P|198:145|72:105,1,160,8|0,0:0|0:0,0:0:0:0:
29,183,72562,2,0,P|87:166|125:156,1,80,8|0,0:0|0:0,0:0:0:0:
211,303,72881,2,0,P|220:271|210:237,4,40,2|0|0|0|0,0:0|0:0|0:0|0:0|0:0,0:0:0:0:
198,166,73360,2,0,P|190:207|213:251,1,80,8|2,0:0|0:0,0:0:0:0:
382,293,73679,2,0,B|302:313|326:235|222:259,1,160
54,265,74158,6,0,P|63:296|71:330,4,40,2|0|0|0|0,0:0|0:0|0:0|0:0|0:0,0:0:0:0:
124,183,74637,1,8,0:0:0:0:
175,345,74796,2,0,P|162:306|151:268,1,80,2|0,0:0|0:0,0:0:0:0:
30,188,75116,2,0,P|42:226|53:264,1,80,8|0,0:0|0:0,0:0:0:0:
152,78,75435,2,0,P|123:71|99:62,4,40,2|0|8|0|0,0:0|0:0|0:0|0:0|0:0,0:0:0:0:
49,120,75913,2,0,P|116:93|145:98,1,80,8|2,0:0|0:0,0:0:0:0:
265,46,76233,2,0,P|196:49|146:123,1,160
220,249,76711,5,6,0:0:0:0:
250,165,76871,1,0,0:0:0:0:
194,264,77030,2,0,P|205:299|219:350,1,80,0|8,0:0|0:0,0:0:0:0:
250,165,77350,1,2,0:0:0:0:
220,81,77510,1,0,0:0:0:0:
276,180,77669,2,0,P|265:215|251:266,1,80,8|0,0:0|0:0,0:0:0:0:
78,196,77988,1,2,0:0:0:0:
163,160,78147,1,0,0:0:0:0:
64,226,78307,2,0,P|78:277|88:323,1,80,0|8,0:0|0:0,0:0:0:0:
187,328,78626,2,0,P|173:277|163:231,1,80,2|0,0:0|0:0,0:0:0:0:
240,183,78945,2,0,P|254:234|264:280,1,80,8|0,0:0|0:0,0:0:0:0:
414,195,79264,5,2,0:0:0:0:
330,163,79424,1,0,0:0:0:0:
428,221,79583,2,0,P|463:210|514:197,1,80,0|8,0:0|0:0,0:0:0:0:
330,163,79903,1,2,0:0:0:0:
246,192,80063,1,0,0:0:0:0:
345,137,80222,2,0,P|379:148|430:163,1,80,8|0,0:0|0:0,0:0:0:0:
217,220,80541,2,0,P|203:155|178:57,1,160,2|0,0:0|0:0,0:0:0:0:
274,95,81020,1,8,0:0:0:0:
315,265,81179,2,0,P|303:211|292:170,1,80,2|0,0:0|0:0,0:0:0:0:
409,103,81498,2,0,P|399:141|390:180,1,80,8|0,0:0|0:0,0:0:0:0:
295,340,81818,6,0,B|377:325|377:325|214:297,1,240,12|8,0:0|0:0,0:0:0:0:
143,347,82457,2,0,P|138:287|133:238,1,80
50,267,82776,2,0,P|55:327|60:376,1,80,8|0,0:0|0:0,0:0:0:0:
248,192,83095,1,8,0:0:0:0:
248,192,83175,1,0,0:0:0:0:
248,192,83255,2,0,B|178:157|178:157|102:187,1,160,8|8,0:0|0:0,0:0:0:0:
0,149,83733,2,0,P|12:186|25:233,1,80,2|0,0:0|0:0,0:0:0:0:
46,29,84052,2,0,P|58:66|71:113,1,80,8|0,0:0|0:0,0:0:0:0:
261,188,84372,6,0,P|188:154|110:205,1,160,8|0,0:0|0:0,0:0:0:0:
62,325,84850,1,8,0:0:0:0:
62,325,85010,2,0,P|53:284|41:237,1,80
140,274,85329,2,0,P|149:315|161:362,1,80,8|0,0:0|0:0,0:0:0:0:
279,189,85648,1,2,0:0:0:0:
279,189,85808,2,0,P|235:175|190:196,1,80,8|0,0:0|0:0,0:0:0:0:
289,290,86126,2,0,P|327:299|364:285,1,80,8|2,0:0|0:0,0:0:0:0:
479,168,86445,1,8,0:0:0:0:
493,367,86605,2,0,P|482:331|463:275,1,80,8|0,0:0|0:0,0:0:0:0:
405,112,86924,6,0,P|392:149|380:188,1,80,8|0,0:0|0:0,0:0:0:0:
284,202,87243,2,0,P|296:164|308:125,1,80,0|8,0:0|0:0,0:0:0:0:
150,84,87563,2,0,P|194:72|236:59,1,80
195,170,87882,2,0,P|156:181|118:192,1,80,8|0,0:0|0:0,0:0:0:0:
23,80,88201,2,0,P|12:115|22:164,1,80,8|8,0:0|0:0,0:0:0:0:
80,280,88521,1,0,0:0:0:0:
80,280,88600,1,0,0:0:0:0:
80,280,88680,1,8,0:0:0:0:
195,211,88839,2,0,P|151:200|93:185,1,80,2|0,0:0|0:0,0:0:0:0:
175,304,89158,2,0,P|219:315|277:330,1,80,8|0,0:0|0:0,0:0:0:0:
380,250,89477,6,0,B|354:368|354:368|386:329,1,160,8|0,0:0|0:0,0:0:0:0:
465,260,89957,1,8,0:0:0:0:
340,164,90116,2,0,P|349:196|364:263,1,80
432,150,90435,2,0,P|423:118|408:51,1,80,8|0,0:0|0:0,0:0:0:0:
226,63,90754,5,2,0:0:0:0:
226,63,90913,2,0,P|282:75|325:87,1,80,8|0,0:0|0:0,0:0:0:0:
118,174,91233,2,0,P|174:162|217:150,1,80,8|2,0:0|0:0,0:0:0:0:
405,80,91552,1,8,0:0:0:0:
308,272,91711,1,8,0:0:0:0:
308,272,92030,6,0,B|175:229|222:362|78:310,1,240,6|8,0:0|0:0,0:0:0:0:
30,246,92669,2,0,P|73:224|126:242,1,80,2|0,0:0|0:0,0:0:0:0:
220,161,92988,2,0,P|177:139|124:157,1,80,8|0,0:0|0:0,0:0:0:0:
294,250,93308,1,2,0:0:0:0:
294,250,93388,1,0,0:0:0:0:
294,250,93467,2,0,P|262:162|302:95,1,160,0|8,0:0|0:0,0:0:0:0:
441,87,93946,2,0,P|405:76|350:56,1,80,2|0,0:0|0:0,0:0:0:0:
385,169,94264,2,0,P|421:180|476:200,1,80,8|0,0:0|0:0,0:0:0:0:
301,307,94584,6,0,B|271:206|271:206|296:137,1,160,2|0,0:0|0:0,0:0:0:0:
411,93,95063,1,8,0:0:0:0:
411,93,95223,2,0,P|396:137|379:183,1,80,2|0,0:0|0:0,0:0:0:0:
325,79,95541,2,0,P|340:35|357:-11,1,80,8|0,0:0|0:0,0:0:0:0:
252,153,95861,1,2,0:0:0:0:
252,153,96021,2,0,P|281:179|336:181,1,80,8|0,0:0|0:0,0:0:0:0:
450,83,96339,2,0,P|425:191|512:137,1,240,8|8,0:0|0:0,0:0:0:0:
504,168,96978,1,0,0:0:0:0:
390,276,97138,6,0,P|351:264|308:251,1,80,12|0,0:0|0:0,0:0:0:0:
410,366,97456,2,0,P|371:354|328:341,1,80,8|0,0:0|0:0,0:0:0:0:
206,234,97776,2,0,P|221:289|233:339,1,80,8|0,0:0|0:0,0:0:0:0:
272,150,98095,1,8,0:0:0:0:
272,150,98175,1,0,0:0:0:0:
272,150,98255,1,0,0:0:0:0:
127,172,98413,2,0,P|112:227|100:277,1,80,8|0,0:0|0:0,0:0:0:0:
11,261,98733,2,0,P|20:222|31:183,1,80,8|0,0:0|0:0,0:0:0:0:
183,68,99052,2,0,P|133:80|87:91,1,80,8|0,0:0|0:0,0:0:0:0:
290,136,99371,2,0,P|240:148|194:159,1,80,8|0,0:0|0:0,0:0:0:0:
376,34,99690,5,8,0:0:0:0:
414,150,99850,1,8,0:0:0:0:
476,16,100009,1,8,0:0:0:0:
409,190,100169,1,8,0:0:0:0:
271,35,100328,1,8,0:0:0:0:
500,108,100488,1,8,0:0:0:0:
269,240,100647,1,8,0:0:0:0:
396,18,100807,1,8,0:0:0:0:
396,18,102243,6,0,P|407:72|432:195,1,160,6|0,0:0|0:0,0:0:0:0:
328,108,102722,1,8,0:0:0:0:
484,25,102881,1,2,0:0:0:0:
484,25,103041,2,0,P|491:64|499:105,1,80,0|8,0:0|0:0,0:0:0:0:
441,245,103359,2,0,P|430:191|405:68,1,160
313,19,103839,2,0,P|320:58|328:99,1,80,0|8,0:0|0:0,0:0:0:0:
252,189,104158,1,2,0:0:0:0:
252,189,104318,1,0,0:0:0:0:
150,103,104477,2,0,P|197:91|242:114,1,80,8|0,0:0|0:0,0:0:0:0:
81,227,104796,6,0,P|67:171|50:124,1,80,2|0,0:0|0:0,0:0:0:0:
169,214,105116,2,0,P|183:270|200:317,1,80,0|8,0:0|0:0,0:0:0:0:
99,334,105435,1,2,0:0:0:0:
99,334,105594,1,0,0:0:0:0:
278,280,105754,2,0,P|266:318|256:357,1,80,8|0,0:0|0:0,0:0:0:0:
168,159,106073,1,2,0:0:0:0:
168,159,106233,2,0,P|179:197|189:236,1,80,8|0,0:0|0:0,0:0:0:0:
379,169,106552,2,0,B|262:132|262:132|304:169,1,160,8|0,0:0|0:0,0:0:0:0:
433,250,107030,1,8,0:0:0:0:
433,250,107110,1,0,0:0:0:0:
433,250,107190,1,0,0:0:0:0:
325,353,107350,6,0,P|336:303|345:251,1,80,6|0,0:0|0:0,0:0:0:0:
272,115,107669,2,0,P|284:158|311:274,1,160,0|2,0:0|0:0,0:0:0:0:
375,121,108147,1,0,0:0:0:0:
314,17,108307,2,0,P|303:67|294:119,1,80,8|0,0:0|0:0,0:0:0:0:
341,199,108626,1,2,0:0:0:0:
341,199,108786,2,0,P|313:152|272:262,1,240,0|2,0:0|0:0,0:0:0:0:
329,292,109424,1,0,0:0:0:0:
224,335,109584,2,0,P|216:280|234:245,1,80,8|0,0:0|0:0,0:0:0:0:
314,121,109903,5,2,0:0:0:0:
392,226,110062,2,0,P|356:218|309:203,1,80
272,190,110302,1,0,0:0:0:0:
272,190,110381,1,8,0:0:0:0:
467,144,110541,1,2,0:0:0:0:
416,318,110701,1,0,0:0:0:0:
416,318,110860,2,0,P|377:305|338:297,1,80,8|0,0:0|0:0,0:0:0:0:
173,299,111179,1,2,0:0:0:0:
173,299,111339,2,0,B|189:350|189:350|200:273|200:273|197:257|197:257|213:152,1,240,0|2,0:0|0:0,0:0:0:0:
245,81,111977,1,0,0:0:0:0:
282,239,112137,2,0,P|289:188|298:132,1,80,8|0,0:0|0:0,0:0:0:0:
396,39,112456,6,0,P|389:90|380:146,1,80,12|0,0:0|0:0,0:0:0:0:
383,163,112695,1,0,0:0:0:0:
383,163,112775,1,8,0:0:0:0:
312,59,112935,1,0,0:0:0:0:
478,111,113094,1,8,0:0:0:0:
478,111,113254,2,0,P|471:162|462:218,1,80,0|8,0:0|0:0,0:0:0:0:
461,242,113493,1,0,0:0:0:0:
461,242,113573,1,0,0:0:0:0:
314,287,113733,6,0,B|397:270|381:352|469:330,1,160,12|8,0:0|0:0,0:0:0:0:
501,322,114131,1,0,0:0:0:0:
501,322,114211,1,0,0:0:0:0:
470,166,114371,2,0,P|454:203|460:243,1,80,8|0,0:0|0:0,0:0:0:0:
389,105,114690,1,8,0:0:0:0:
389,105,114770,1,0,0:0:0:0:
389,105,114850,1,0,0:0:0:0:
288,207,115009,6,0,P|346:206|374:180,1,80,12|0,0:0|0:0,0:0:0:0:
239,118,115328,1,8,0:0:0:0:
239,118,115408,1,0,0:0:0:0:
239,118,115488,2,0,P|181:119|153:145,1,80,0|8,0:0|0:0,0:0:0:0:
92,227,115807,2,0,B|60:86|60:86|52:140,1,200
23,174,116286,5,12,0:0:0:0:
164,112,116445,1,8,0:0:0:0:
17,273,116605,1,8,0:0:0:0:
181,88,116764,1,8,0:0:0:0:
122,352,116924,1,8,0:0:0:0:
121,183,117084,1,0,0:0:0:0:
194,264,117243,1,0,0:0:0:0:
194,264,117562,5,6,0:0:0:0:
191,352,117722,2,0,P|180:308|142:179,1,160,0|8,0:0|0:0,0:0:0:0:
206,96,118201,2,0,P|196:135|182:189,1,80,2|0,0:0|0:0,0:0:0:0:
147,6,118520,2,0,P|157:45|171:99,1,80,8|0,0:0|0:0,0:0:0:0:
321,155,118839,5,2,0:0:0:0:
321,155,118998,2,0,P|279:144|239:131,1,80
112,187,119318,2,0,P|191:209|280:239,1,160,8|0,0:0|0:0,0:0:0:0:
397,177,119797,2,0,P|358:164|320:154,1,80,8|0,0:0|0:0,0:0:0:0:
453,288,120116,6,0,P|480:207|510:118,1,160,2|0,0:0|0:0,0:0:0:0:
401,21,120594,1,8,0:0:0:0:
401,21,120754,2,0,P|414:58|426:96,1,80,2|0,0:0|0:0,0:0:0:0:
356,162,121073,2,0,P|342:124|330:86,1,80,8|0,0:0|0:0,0:0:0:0:
301,289,121392,5,2,0:0:0:0:
411,240,121552,1,8,0:0:0:0:
283,300,121711,1,0,0:0:0:0:
421,351,121871,2,0,P|448:270|478:181,1,160,8|0,0:0|0:0,0:0:0:0:
425,76,122350,2,0,P|411:113|399:151,1,80,8|0,0:0|0:0,0:0:0:0:
268,211,122669,5,6,0:0:0:0:
346,253,122829,1,0,0:0:0:0:
257,182,122988,2,0,P|220:187|168:193,1,80,0|8,0:0|0:0,0:0:0:0:
346,253,123308,1,2,0:0:0:0:
433,237,123468,1,0,0:0:0:0:
327,277,123627,2,0,P|294:260|245:238,1,80,8|0,0:0|0:0,0:0:0:0:
85,302,123946,1,2,0:0:0:0:
170,331,124105,1,0,0:0:0:0:
60,314,124265,2,0,P|52:266|43:221,1,80,0|8,0:0|0:0,0:0:0:0:
125,182,124584,2,0,P|133:230|142:275,1,80,2|0,0:0|0:0,0:0:0:0:
228,296,124903,2,0,P|220:248|211:203,1,80,8|0,0:0|0:0,0:0:0:0:
312,71,125222,5,2,0:0:0:0:
228,103,125382,1,0,0:0:0:0:
326,45,125541,2,0,P|361:56|412:69,1,80,0|8,0:0|0:0,0:0:0:0:
228,103,125861,1,2,0:0:0:0:
144,74,126021,1,0,0:0:0:0:
243,129,126180,2,0,P|277:118|328:103,1,80,8|0,0:0|0:0,0:0:0:0:
484,24,126499,2,0,P|464:101|447:179,1,160,2|0,0:0|0:0,0:0:0:0:
483,273,126978,1,8,0:0:0:0:
346,184,127137,2,0,P|355:222|364:261,1,80,2|0,0:0|0:0,0:0:0:0:
256,366,127456,2,0,P|264:326|274:288,1,80,8|0,0:0|0:0,0:0:0:0:
93,239,127775,6,0,B|219:286|193:150|323:201,1,240,6|8,0:0|0:0,0:0:0:0:
401,250,128413,2,0,P|418:212|407:170,1,80,2|0,0:0|0:0,0:0:0:0:
323,123,128732,2,0,P|306:161|316:202,1,80,8|0,0:0|0:0,0:0:0:0:
416,350,129051,1,2,0:0:0:0:
416,350,129131,1,0,0:0:0:0:
416,350,129212,2,0,P|346:332|247:305,1,160,0|8,0:0|0:0,0:0:0:0:
163,358,129690,2,0,P|205:347|244:335,1,80,2|0,0:0|0:0,0:0:0:0:
59,298,130010,2,0,P|101:287|140:275,1,80,8|0,0:0|0:0,0:0:0:0:
257,88,130328,6,0,P|239:166|223:245,1,160,2|0,0:0|0:0,0:0:0:0:
158,104,130807,1,8,0:0:0:0:
158,104,130966,2,0,P|149:63|137:16,1,80,2|0,0:0|0:0,0:0:0:0:
54,41,131285,2,0,P|63:82|75:129,1,80,8|0,0:0|0:0,0:0:0:0:
218,212,131605,1,2,0:0:0:0:
218,212,131764,2,0,P|170:200|118:183,1,80,8|0,0:0|0:0,0:0:0:0:
38,264,132083,2,0,P|125:221|107:316,1,240,8|8,0:0|0:0,0:0:0:0:
106,316,132722,1,0,0:0:0:0:
300,329,132881,6,0,P|250:318|206:306,1,80,6|0,0:0|0:0,0:0:0:0:
378,257,133201,2,0,P|340:247|301:239,1,80,0|8,0:0|0:0,0:0:0:0:
209,101,133519,2,0,P|217:141|231:211,1,80,2|0,0:0|0:0,0:0:0:0:
284,47,133839,2,0,P|292:87|306:157,1,80,8|0,0:0|0:0,0:0:0:0:
455,205,134158,2,0,P|413:193|366:178,1,80,2|0,0:0|0:0,0:0:0:0:
308,268,134477,1,0,0:0:0:0:
308,268,134557,1,0,0:0:0:0:
308,268,134637,1,8,0:0:0:0:
413,361,134796,2,0,P|401:318|389:259,1,80,2|0,0:0|0:0,0:0:0:0:
460,179,135116,2,0,P|472:222|484:281,1,80,8|0,0:0|0:0,0:0:0:0:
359,119,135435,6,0,B|299:109|299:109|260:133|260:133|192:124,1,160,2|0,0:0|0:0,0:0:0:0:
117,157,135913,1,8,0:0:0:0:
277,229,136073,2,0,P|220:220|170:210,1,80,2|0,0:0|0:0,0:0:0:0:
132,67,136392,1,8,0:0:0:0:
132,67,137190,1,0,0:0:0:0:
132,67,137270,1,0,0:0:0:0:
132,67,137350,2,0,P|152:134|180:231,1,160
436,95,137988,6,0,B|337:60|361:171|247:120|247:120|276:128|303:113,1,240,6|8,0:0|0:0,0:0:0:0:
177,187,138627,2,0,P|166:142|148:89,1,80,2|0,0:0|0:0,0:0:0:0:
54,68,138945,2,0,P|65:113|83:166,1,80,8|0,0:0|0:0,0:0:0:0:
225,274,139265,1,2,0:0:0:0:
225,274,139345,1,0,0:0:0:0:
225,274,139424,2,0,B|92:249|92:249|141:287,1,160,0|8,0:0|0:0,0:0:0:0:
249,361,139903,2,0,P|203:353|157:342,1,80,2|0,0:0|0:0,0:0:0:0:
303,289,140222,2,0,P|263:280|224:273,1,80,8|0,0:0|0:0,0:0:0:0:
398,368,140542,6,0,P|411:285|427:205,1,160,2|0,0:0|0:0,0:0:0:0:
368,103,141020,1,8,0:0:0:0:
368,103,141180,2,0,P|359:144|347:191,1,80,2|0,0:0|0:0,0:0:0:0:
451,108,141499,2,0,P|460:67|472:20,1,80,8|0,0:0|0:0,0:0:0:0:
295,34,141818,1,2,0:0:0:0:
295,34,141978,2,0,P|286:75|274:122,1,80,8|0,0:0|0:0,0:0:0:0:
400,225,142296,2,0,B|341:248|276:197|322:182|251:126|188:163,1,240,8|8,0:0|0:0,0:0:0:0:
188,163,142935,1,0,0:0:0:0:
118,310,143095,6,0,P|109:270|129:227,1,80,12|0,0:0|0:0,0:0:0:0:
45,190,143413,2,0,P|67:156|111:139,1,80,8|0,0:0|0:0,0:0:0:0:
263,97,143733,2,0,P|224:87|185:75,1,80,8|0,0:0|0:0,0:0:0:0:
346,49,144052,1,8,0:0:0:0:
346,49,144132,1,0,0:0:0:0:
346,49,144212,1,0,0:0:0:0:
364,192,144371,2,0,P|322:198|273:168,1,80,8|0,0:0|0:0,0:0:0:0:
187,88,144690,2,0,P|229:82|278:112,1,80,8|0,0:0|0:0,0:0:0:0:
115,204,145010,2,0,P|104:165|89:124,1,80,8|0,0:0|0:0,0:0:0:0:
54,307,145328,6,0,P|64:268|80:227,1,80,8|0,0:0|0:0,0:0:0:0:
266,202,145647,5,8,0:0:0:0:
184,284,145807,1,8,0:0:0:0:
213,121,145966,1,8,0:0:0:0:
322,303,146127,1,8,0:0:0:0:
199,93,146285,1,8,0:0:0:0:
126,353,146445,1,8,0:0:0:0:
344,197,146605,1,8,0:0:0:0:
79,142,146764,1,8,0:0:0:0:
79,142,147403,5,0,0:0:0:0:
79,142,147483,1,0,0:0:0:0:
79,142,147562,2,0,P|91:178|105:229,1,80
155,342,147881,2,0,P|172:273|194:206,1,120
178,194,148201,1,2,2:2:0:0:
178,194,158413,5,10,2:2:0:0:
178,194,158573,2,0,P|138:186|99:179,1,80
285,125,158892,5,2,2:2:0:0:
285,125,159052,2,0,P|245:118|206:110,1,80,8|0,0:0|0:0,0:0:0:0:
373,234,159371,1,2,2:2:0:0:
373,234,159690,2,0,B|360:177|360:177|370:136|370:136|354:64,2,160,10|0|8,2:2|0:0|0:0,0:0:0:0:
467,259,160488,2,0,P|458:224|446:177,2,80,0|2|0,0:0|2:2|0:0,0:0:0:0:
314,316,160967,5,10,2:2:0:0:
314,316,161126,2,0,P|361:305|395:327,1,80
414,356,161366,1,0,0:0:0:0:
414,356,161445,1,2,2:2:0:0:
237,384,161605,2,0,P|227:346|208:287,1,80,8|0,0:0|0:0,0:0:0:0:
109,261,161925,2,0,P|120:299|131:337,1,80,2|0,2:2|0:0,0:0:0:0:
241,198,162243,2,0,B|156:220|176:139|78:168,1,160,10|0,2:2|0:0,0:0:0:0:
16,225,162722,1,2,2:2:0:0:
16,225,162881,2,0,P|16:266|39:300,1,80,8|0,0:0|0:0,0:0:0:0:
132,310,163201,2,0,P|132:270|111:237,1,80,2|0,2:2|0:0,0:0:0:0:
12,119,163520,6,0,B|114:145|114:145|176:117,2,160,10|0|8,2:2|0:0|0:0,0:0:0:0:
123,47,164318,2,0,B|164:31|164:31|217:50,2,80,0|2|0,0:0|2:2|0:0,0:0:0:0:
270,153,164796,2,0,B|305:36|305:36|275:83,1,160,10|0,2:2|0:0,0:0:0:0:
201,222,165275,1,2,2:2:0:0:
201,222,165435,2,0,P|264:201|364:168,1,160,8|2,0:0|2:2,0:0:0:0:
58,134,166073,6,0,P|74:190|85:234,1,80,10|0,2:2|0:0,0:0:0:0:
121,54,166392,1,0,0:0:0:0:
121,54,166472,1,0,0:0:0:0:
121,54,166552,2,0,P|137:110|148:154,1,80,2|8,2:2|0:0,0:0:0:0:
227,182,166871,1,0,0:0:0:0:
131,317,167030,2,0,P|141:278|152:239,1,80,2|0,2:2|0:0,0:0:0:0:
248,104,167350,2,0,P|237:142|226:181,2,80,8|0|0,2:2|0:0|0:0,0:0:0:0:
134,23,167828,1,2,0:0:0:0:
134,23,167908,1,0,0:0:0:0:
134,23,167988,2,0,B|189:33|189:33|231:15|231:15|308:29,1,160,10|2,0:0|0:0,0:0:0:0:
467,137,168626,6,0,B|409:126|409:126|367:144|367:144|265:123|265:123|319:119,1,240,6|8,0:0|0:0,0:0:0:0:
185,167,169264,2,0,P|173:113|185:78,1,80,2|0,0:0|0:0,0:0:0:0:
261,45,169584,2,0,P|273:99|261:134,1,80,8|0,0:0|0:0,0:0:0:0:
161,253,169903,1,2,0:0:0:0:
161,253,169983,1,0,0:0:0:0:
161,253,170062,2,0,B|248:229|225:324|337:282,1,160,0|8,0:0|0:0,0:0:0:0:
441,251,170541,2,0,P|396:237|355:219,1,80,2|0,0:0|0:0,0:0:0:0:
297,151,170860,6,0,P|342:165|383:183,1,80,8|0,0:0|0:0,0:0:0:0:
221,239,171179,6,0,P|205:161|181:61,1,160,2|0,0:0|0:0,0:0:0:0:
124,210,171658,1,8,0:0:0:0:
124,210,171817,2,0,P|115:251|103:298,1,80,2|0,0:0|0:0,0:0:0:0:
35,199,172136,2,0,P|44:158|56:111,1,80,8|0,0:0|0:0,0:0:0:0:
164,25,172456,1,2,0:0:0:0:
164,25,172616,2,0,P|155:66|143:113,1,80,8|0,0:0|0:0,0:0:0:0:
218,245,172935,2,0,B|293:238|293:238|107:188,1,240,8|8,0:0|0:0,0:0:0:0:
133,195,173573,1,0,0:0:0:0:
23,307,173732,6,0,P|73:296|117:284,1,80,6|0,0:0|0:0,0:0:0:0:
233,339,174051,2,0,P|194:347|155:358,1,80,0|8,0:0|0:0,0:0:0:0:
328,224,174370,2,0,P|338:261|320:310,1,80,2|0,0:0|0:0,0:0:0:0:
240,241,174690,2,0,P|230:204|248:155,1,80,8|0,0:0|0:0,0:0:0:0:
412,135,175009,2,0,P|364:125|320:109,1,80,2|0,0:0|0:0,0:0:0:0:
219,71,175328,1,0,0:0:0:0:
219,71,175408,1,0,0:0:0:0:
219,71,175488,1,8,0:0:0:0:
71,167,175647,2,0,P|109:154|148:147,1,80,2|0,0:0|0:0,0:0:0:0:
121,58,175967,2,0,P|82:70|43:77,1,80,8|0,0:0|0:0,0:0:0:0:
264,173,176286,6,0,P|227:109|278:20,1,160,2|0,0:0|0:0,0:0:0:0:
369,175,176764,1,8,0:0:0:0:
298,267,176924,2,0,P|256:257|198:247,1,80,2|0,0:0|0:0,0:0:0:0:
114,145,177243,2,0,P|156:155|214:165,1,80,8|0,0:0|0:0,0:0:0:0:
59,299,177562,1,2,0:0:0:0:
59,299,177721,2,0,P|44:241|28:198,1,80,8|0,0:0|0:0,0:0:0:0:
77,35,178041,2,0,P|89:73|130:201,1,160,8|0,0:0|0:0,0:0:0:0:
355,255,178519,1,8,0:0:0:0:
355,255,178839,6,0,B|234:207|260:343|134:296,1,240,6|8,0:0|0:0,0:0:0:0:
21,239,179478,2,0,P|34:272|53:326,1,80,2|0,0:0|0:0,0:0:0:0:
80,128,179796,2,0,P|93:165|107:202,1,80,8|0,0:0|0:0,0:0:0:0:
262,318,180116,1,2,0:0:0:0:
262,318,180196,1,0,0:0:0:0:
262,318,180275,2,0,B|135:289|135:289|176:322,1,160,0|8,0:0|0:0,0:0:0:0:
243,226,180754,2,0,P|284:217|332:203,1,80,2|0,0:0|0:0,0:0:0:0:
414,273,181073,2,0,P|373:282|325:296,1,80,8|0,0:0|0:0,0:0:0:0:
512,189,181392,6,0,P|496:267|483:346,1,160,2|0,0:0|0:0,0:0:0:0:
415,186,181871,1,8,0:0:0:0:
415,186,182031,2,0,P|398:137|416:91,1,80,2|0,0:0|0:0,0:0:0:0:
476,22,182350,2,0,P|493:71|475:117,1,80,8|0,0:0|0:0,0:0:0:0:
309,50,182669,1,2,0:0:0:0:
309,50,182828,2,0,P|352:41|392:27,1,80,8|0,0:0|0:0,0:0:0:0:
127,73,183147,2,0,B|188:49|253:100|207:115|278:171|355:127,1,240,8|8,0:0|0:0,0:0:0:0:
341,133,183786,1,0,0:0:0:0:
512,39,183946,6,0,P|503:73|493:122,1,80,6|0,0:0|0:0,0:0:0:0:
431,7,184264,2,0,P|422:41|412:90,1,80,0|8,0:0|0:0,0:0:0:0:
344,202,184584,2,0,P|380:190|438:171,1,80,2|0,0:0|0:0,0:0:0:0:
262,140,184903,1,8,0:0:0:0:
262,140,184983,1,0,0:0:0:0:
262,140,185063,1,0,0:0:0:0:
227,293,185222,2,0,P|212:244|194:198,1,80,2|0,0:0|0:0,0:0:0:0:
320,329,185541,1,0,0:0:0:0:
320,329,185701,1,8,0:0:0:0:
155,354,185860,2,0,P|140:305|110:225,2,120,2|0|0,0:0|0:0|0:0,0:0:0:0:
305,211,186499,6,0,B|241:248|170:192|216:177|151:126|90:150,1,240,2|8,0:0|0:0,0:0:0:0:
35,267,187137,2,0,P|86:252|122:234,1,80,2|0,0:0|0:0,0:0:0:0:
239,346,187456,2,0,P|202:329|163:319,1,80,8|0,0:0|0:0,0:0:0:0:
304,264,187775,2,0,P|321:204|279:138,1,120
77,237,188254,6,0,B|145:223|145:223|159:228|159:228|233:212|233:212|186:203,1,200
