osu file format v14

[General]
AudioFilename: song.mp3
AudioLeadIn: 0
PreviewTime: 99448
Countdown: 1
SampleSet: Normal
StackLeniency: 0.7
Mode: 1
LetterboxInBreaks: 0
WidescreenStoryboard: 1

[Editor]
Bookmarks: 22206,44275,55310,66344,77379,88413,99448,110482,121517,132551,143586,154620
DistanceSpacing: 1.8
BeatDivisor: 4
GridSize: 32
TimelineZoom: 2.1

[Metadata]
Title:Hold (ft. Daniela Andrade) (Fred V & Grafix Remix)
TitleUnicode:Hold (ft. Daniela Andrade) (Fred V & Grafix Remix)
Artist:Dabin
ArtistUnicode:Dabin
Creator:gaston_2199
Version:Muzukashii
Source:
Tags:dnb drum and bass two hearts ufk Kannibalen Records
BeatmapID:2030931
BeatmapSetID:970361

[Difficulty]
HPDrainRate:5
CircleSize:2
OverallDifficulty:5
ApproachRate:10
SliderMultiplier:1.4
SliderTickRate:1

[Events]
//Background and Video events
0,0,"BG.jpg",0,0
//Break Periods
2,22406,43825
2,66544,75550
//Storyboard Layer 0 (Background)
//Storyboard Layer 1 (Fail)
//Storyboard Layer 2 (Pass)
//Storyboard Layer 3 (Foreground)
//Storyboard Sound Samples

[TimingPoints]
138,344.827586206897,4,1,0,80,1,0
88413,-100,4,1,0,80,0,1
109103,-100,4,1,0,80,0,0
110482,-100,4,1,0,80,0,1
132551,-100,4,1,0,80,0,0

[HitObjects]
256,192,138,5,0,0:0:0:0:
256,192,655,1,0,0:0:0:0:
256,192,1172,1,8,0:0:0:0:
256,192,2896,1,8,0:0:0:0:
256,192,3413,1,0,0:0:0:0:
256,192,3931,1,8,0:0:0:0:
256,192,5655,1,0,0:0:0:0:
256,192,6172,1,0,0:0:0:0:
256,192,6689,1,8,0:0:0:0:
256,192,8413,1,0,0:0:0:0:
256,192,8931,1,8,0:0:0:0:
256,192,9448,1,8,0:0:0:0:
256,192,11172,1,0,0:0:0:0:
256,192,11862,1,8,0:0:0:0:
256,192,12551,1,0,0:0:0:0:
252,191,13931,1,8,0:0:0:0:
252,191,14620,1,0,0:0:0:0:
252,191,15310,1,0,0:0:0:0:
252,191,16689,1,0,0:0:0:0:
252,191,17379,1,0,0:0:0:0:
252,191,18069,1,8,0:0:0:0:
252,191,19448,1,8,0:0:0:0:
252,191,20827,1,0,0:0:0:0:
252,191,21000,1,8,0:0:0:0:
252,191,21172,1,0,0:0:0:0:
252,191,21517,1,8,0:0:0:0:
252,191,22206,1,0,0:0:0:0:
256,192,44275,5,0,0:0:0:0:
256,192,44620,1,0,0:0:0:0:
256,192,44965,1,8,0:0:0:0:
256,192,45655,1,0,0:0:0:0:
256,192,46344,1,8,0:0:0:0:
256,192,47034,1,8,0:0:0:0:
256,192,47379,1,0,0:0:0:0:
256,192,47724,1,8,0:0:0:0:
256,192,48413,1,0,0:0:0:0:
256,192,49103,1,8,0:0:0:0:
256,192,49793,1,0,0:0:0:0:
256,192,50138,1,0,0:0:0:0:
256,192,50482,1,8,0:0:0:0:
256,192,51172,1,0,0:0:0:0:
256,192,51862,1,8,0:0:0:0:
256,192,52551,1,0,0:0:0:0:
249,194,52896,1,8,0:0:0:0:
256,192,53241,1,8,0:0:0:0:
256,192,53931,1,0,0:0:0:0:
256,192,54620,1,8,0:0:0:0:
256,192,55310,5,0,0:0:0:0:
256,192,55655,1,0,0:0:0:0:
256,192,56000,1,8,0:0:0:0:
256,192,56689,1,0,0:0:0:0:
256,192,57379,1,8,0:0:0:0:
256,192,58069,1,8,0:0:0:0:
256,192,58413,1,0,0:0:0:0:
256,192,58758,1,8,0:0:0:0:
256,192,59448,1,0,0:0:0:0:
256,192,60138,1,8,0:0:0:0:
256,192,60827,1,8,0:0:0:0:
256,192,61172,1,0,0:0:0:0:
256,192,61517,1,8,0:0:0:0:
256,192,62206,1,0,0:0:0:0:
256,192,62896,1,8,0:0:0:0:
256,192,63586,1,0,0:0:0:0:
249,194,63931,1,8,0:0:0:0:
256,192,64275,1,8,0:0:0:0:
256,192,64965,1,0,0:0:0:0:
256,192,65655,1,8,0:0:0:0:
266,197,66344,1,4,0:0:0:0:
256,192,76000,12,0,77206,0:0:0:0:
253,198,77379,5,4,0:0:0:0:
253,198,77724,1,0,0:0:0:0:
253,198,78069,1,8,0:0:0:0:
253,198,78413,1,0,0:0:0:0:
253,198,78586,1,8,0:0:0:0:
253,198,79103,1,8,0:0:0:0:
253,198,79448,1,0,0:0:0:0:
253,198,79620,1,8,0:0:0:0:
253,198,79793,1,0,0:0:0:0:
253,198,80138,1,0,0:0:0:0:
253,198,80482,1,0,0:0:0:0:
253,198,80827,1,8,0:0:0:0:
253,198,81172,1,0,0:0:0:0:
253,198,81344,1,8,0:0:0:0:
253,198,81689,1,0,0:0:0:0:
253,198,81862,1,8,0:0:0:0:
253,198,82206,1,0,0:0:0:0:
253,198,82379,1,8,0:0:0:0:
253,198,82551,1,0,0:0:0:0:
253,198,82896,1,0,0:0:0:0:
253,198,83241,1,0,0:0:0:0:
253,198,83413,1,0,0:0:0:0:
253,198,83586,1,8,0:0:0:0:
253,198,83931,1,0,0:0:0:0:
253,198,84103,1,8,0:0:0:0:
255,188,84275,1,0,0:0:0:0:
253,198,84448,1,0,0:0:0:0:
253,198,84620,1,8,0:0:0:0:
253,198,84965,1,0,0:0:0:0:
253,198,85138,1,8,0:0:0:0:
253,198,85310,1,0,0:0:0:0:
260,205,85482,1,8,0:0:0:0:
253,198,85655,1,0,0:0:0:0:
253,198,86000,1,8,0:0:0:0:
260,205,86172,1,0,0:0:0:0:
258,215,86344,1,8,0:0:0:0:
258,215,86689,1,8,0:0:0:0:
258,215,86862,1,8,0:0:0:0:
250,188,87034,1,0,0:0:0:0:
258,215,87379,1,8,0:0:0:0:
250,188,87551,1,0,0:0:0:0:
258,215,87638,1,0,0:0:0:0:
258,215,87724,1,0,0:0:0:0:
253,198,87896,1,0,0:0:0:0:
253,198,88069,1,8,0:0:0:0:
258,215,88413,1,4,0:0:0:0:
258,215,88758,1,8,0:0:0:0:
258,215,88931,1,0,0:0:0:0:
258,215,89275,1,0,0:0:0:0:
258,215,89448,1,8,0:0:0:0:
245,201,89620,1,0,0:0:0:0:
258,215,89793,1,0,0:0:0:0:
258,215,90138,1,8,0:0:0:0:
252,206,90482,1,0,0:0:0:0:
258,215,90655,1,0,0:0:0:0:
258,215,90827,1,8,0:0:0:0:
258,215,91172,1,8,0:0:0:0:
258,215,91517,1,8,0:0:0:0:
258,215,91689,1,8,0:0:0:0:
258,215,92034,1,0,0:0:0:0:
258,215,92206,1,8,0:0:0:0:
252,200,92379,1,0,0:0:0:0:
266,216,92551,1,0,0:0:0:0:
258,215,92896,1,8,0:0:0:0:
258,215,93241,1,8,0:0:0:0:
258,215,93413,1,0,0:0:0:0:
258,215,93586,1,8,0:0:0:0:
258,215,93931,1,0,0:0:0:0:
258,215,94275,1,8,0:0:0:0:
258,215,94448,1,8,0:0:0:0:
258,215,94793,1,0,0:0:0:0:
258,215,94965,1,8,0:0:0:0:
252,200,95138,1,8,0:0:0:0:
258,215,95310,1,0,0:0:0:0:
258,215,95655,1,8,0:0:0:0:
252,206,96000,1,0,0:0:0:0:
258,215,96172,1,0,0:0:0:0:
258,215,96344,1,8,0:0:0:0:
252,206,96689,1,0,0:0:0:0:
252,206,97034,1,8,0:0:0:0:
252,206,97551,1,0,0:0:0:0:
252,206,97724,1,8,0:0:0:0:
252,206,98069,1,0,0:0:0:0:
252,206,98241,1,0,0:0:0:0:
252,206,98413,1,8,0:0:0:0:
252,206,98758,1,8,0:0:0:0:
252,206,98931,1,0,0:0:0:0:
252,206,99103,1,8,0:0:0:0:
258,215,99448,1,0,0:0:0:0:
258,215,99793,1,8,0:0:0:0:
258,215,99965,1,0,0:0:0:0:
258,215,100310,1,0,0:0:0:0:
258,215,100482,1,8,0:0:0:0:
239,209,100655,1,0,0:0:0:0:
258,215,100827,1,0,0:0:0:0:
258,215,101172,1,8,0:0:0:0:
252,206,101517,1,0,0:0:0:0:
258,215,101689,1,0,0:0:0:0:
258,215,101862,1,8,0:0:0:0:
258,215,102206,1,8,0:0:0:0:
258,215,102551,1,8,0:0:0:0:
258,215,102724,1,8,0:0:0:0:
258,215,103069,1,0,0:0:0:0:
258,215,103241,1,8,0:0:0:0:
257,208,103413,1,0,0:0:0:0:
266,216,103586,1,0,0:0:0:0:
258,215,103931,1,8,0:0:0:0:
258,215,104275,1,8,0:0:0:0:
258,215,104448,1,0,0:0:0:0:
258,215,104620,1,8,0:0:0:0:
258,215,104965,1,0,0:0:0:0:
258,215,105310,1,8,0:0:0:0:
258,215,105482,1,8,0:0:0:0:
258,215,105827,1,0,0:0:0:0:
258,215,106000,1,8,0:0:0:0:
257,208,106172,1,8,0:0:0:0:
258,215,106344,1,0,0:0:0:0:
258,215,106689,1,8,0:0:0:0:
252,206,107034,1,0,0:0:0:0:
258,215,107206,1,0,0:0:0:0:
258,215,107379,1,8,0:0:0:0:
252,206,107724,1,0,0:0:0:0:
252,206,108069,1,8,0:0:0:0:
252,206,108586,1,0,0:0:0:0:
252,206,108758,1,8,0:0:0:0:
252,206,109103,1,0,0:0:0:0:
252,206,109275,1,0,0:0:0:0:
252,206,109448,1,8,0:0:0:0:
252,206,109793,1,8,0:0:0:0:
252,206,109965,1,0,0:0:0:0:
252,206,110138,1,8,0:0:0:0:
258,215,110482,1,4,0:0:0:0:
263,195,110655,1,0,0:0:0:0:
258,215,110827,1,8,0:0:0:0:
258,215,111000,1,0,0:0:0:0:
258,215,111344,1,0,0:0:0:0:
258,215,111517,1,8,0:0:0:0:
258,215,111689,1,0,0:0:0:0:
258,215,111862,1,0,0:0:0:0:
258,215,112206,1,8,0:0:0:0:
252,206,112551,1,0,0:0:0:0:
258,215,112724,1,0,0:0:0:0:
258,215,112896,1,8,0:0:0:0:
258,215,113241,1,8,0:0:0:0:
259,195,113413,1,0,0:0:0:0:
258,215,113586,1,8,0:0:0:0:
258,215,113758,1,8,0:0:0:0:
258,215,114103,1,0,0:0:0:0:
258,215,114275,1,8,0:0:0:0:
258,215,114448,1,0,0:0:0:0:
258,215,114534,1,0,0:0:0:0:
266,216,114620,1,0,0:0:0:0:
258,215,114793,1,0,0:0:0:0:
258,215,114965,1,8,0:0:0:0:
258,215,115310,1,8,0:0:0:0:
258,215,115482,1,0,0:0:0:0:
258,215,115655,1,8,0:0:0:0:
258,215,116000,1,0,0:0:0:0:
259,195,116172,1,0,0:0:0:0:
258,215,116344,1,8,0:0:0:0:
258,215,116517,1,8,0:0:0:0:
258,215,116862,1,0,0:0:0:0:
258,215,117034,1,8,0:0:0:0:
266,208,117206,1,0,0:0:0:0:
258,215,117379,1,8,0:0:0:0:
258,215,117724,1,8,0:0:0:0:
252,206,118069,1,0,0:0:0:0:
258,215,118241,1,0,0:0:0:0:
258,215,118413,1,8,0:0:0:0:
252,206,118758,1,0,0:0:0:0:
252,206,119103,1,8,0:0:0:0:
252,206,119275,1,0,0:0:0:0:
252,206,119620,1,0,0:0:0:0:
252,206,119793,1,8,0:0:0:0:
252,206,120138,1,0,0:0:0:0:
252,206,120310,1,0,0:0:0:0:
252,206,120482,1,8,0:0:0:0:
252,206,120827,1,8,0:0:0:0:
252,206,121000,1,0,0:0:0:0:
252,206,121172,1,8,0:0:0:0:
258,215,121517,1,0,0:0:0:0:
258,195,121689,1,0,0:0:0:0:
258,215,121862,1,8,0:0:0:0:
258,215,122034,1,0,0:0:0:0:
258,215,122379,1,0,0:0:0:0:
258,215,122551,1,8,0:0:0:0:
258,215,122724,1,0,0:0:0:0:
258,215,122896,1,0,0:0:0:0:
258,215,123241,1,8,0:0:0:0:
270,215,123413,1,0,0:0:0:0:
252,206,123586,1,0,0:0:0:0:
258,215,123758,1,0,0:0:0:0:
258,215,123931,1,8,0:0:0:0:
258,215,124275,1,8,0:0:0:0:
258,195,124448,1,0,0:0:0:0:
258,215,124620,1,8,0:0:0:0:
258,215,124793,1,8,0:0:0:0:
258,215,125138,1,0,0:0:0:0:
258,215,125310,1,8,0:0:0:0:
258,215,125482,1,0,0:0:0:0:
258,215,125569,1,0,0:0:0:0:
266,216,125655,1,0,0:0:0:0:
258,215,125827,1,0,0:0:0:0:
258,215,126000,1,8,0:0:0:0:
258,215,126344,1,8,0:0:0:0:
258,215,126517,1,0,0:0:0:0:
258,215,126689,1,8,0:0:0:0:
258,215,127034,1,0,0:0:0:0:
258,215,127379,1,0,0:0:0:0:
263,229,127724,1,8,0:0:0:0:
258,215,128241,1,8,0:0:0:0:
258,215,128758,1,8,0:0:0:0:
258,215,129275,1,8,0:0:0:0:
257,220,129448,1,8,0:0:0:0:
258,215,129793,1,8,0:0:0:0:
258,215,130138,1,0,0:0:0:0:
257,220,130482,1,8,0:0:0:0:
258,215,130827,1,0,0:0:0:0:
258,215,131000,1,8,0:0:0:0:
248,216,131344,1,0,0:0:0:0:
248,216,131517,1,8,0:0:0:0:
248,216,131862,1,0,0:0:0:0:
248,216,132034,1,8,0:0:0:0:
248,216,132206,1,8,0:0:0:0:
248,216,132551,1,4,0:0:0:0:
248,216,132896,1,8,0:0:0:0:
248,216,133241,1,0,0:0:0:0:
248,216,133413,1,0,0:0:0:0:
248,216,133586,1,8,0:0:0:0:
248,216,133931,1,0,0:0:0:0:
248,216,134275,1,8,0:0:0:0:
248,216,134448,1,0,0:0:0:0:
248,216,134793,1,0,0:0:0:0:
248,216,134965,1,8,0:0:0:0:
248,216,135310,1,0,0:0:0:0:
248,216,135655,1,8,0:0:0:0:
248,216,136000,1,0,0:0:0:0:
248,216,136172,1,0,0:0:0:0:
248,216,136344,1,8,0:0:0:0:
248,216,136689,1,0,0:0:0:0:
248,216,137034,1,8,0:0:0:0:
248,216,137206,1,0,0:0:0:0:
248,216,137551,1,0,0:0:0:0:
248,216,137724,1,8,0:0:0:0:
248,216,138069,1,0,0:0:0:0:
248,216,138413,1,8,0:0:0:0:
248,216,138758,1,0,0:0:0:0:
248,216,138931,1,0,0:0:0:0:
248,216,139103,1,8,0:0:0:0:
248,216,139448,1,0,0:0:0:0:
248,216,139793,1,8,0:0:0:0:
248,216,139965,1,0,0:0:0:0:
248,216,140310,1,0,0:0:0:0:
248,216,140482,1,8,0:0:0:0:
248,216,140827,1,0,0:0:0:0:
250,208,141000,1,0,0:0:0:0:
248,216,141172,1,8,0:0:0:0:
250,208,141344,1,0,0:0:0:0:
248,216,141689,1,0,0:0:0:0:
248,216,141862,1,8,0:0:0:0:
248,216,142206,1,0,0:0:0:0:
248,216,142551,1,8,0:0:0:0:
248,216,142724,1,0,0:0:0:0:
241,219,142810,1,0,0:0:0:0:
258,208,142896,1,0,0:0:0:0:
248,216,143069,1,0,0:0:0:0:
248,216,143241,1,8,0:0:0:0:
248,216,143586,1,0,0:0:0:0:
248,216,143931,1,8,0:0:0:0:
248,216,144275,1,0,0:0:0:0:
256,202,144448,1,0,0:0:0:0:
248,216,144620,1,8,0:0:0:0:
248,216,144965,1,0,0:0:0:0:
248,216,145310,1,8,0:0:0:0:
248,216,145482,1,0,0:0:0:0:
248,216,145655,1,0,0:0:0:0:
248,216,145827,1,0,0:0:0:0:
248,216,146000,1,8,0:0:0:0:
248,216,146344,1,0,0:0:0:0:
248,216,146689,1,8,0:0:0:0:
248,216,147034,1,0,0:0:0:0:
248,216,147206,1,0,0:0:0:0:
248,216,147379,1,8,0:0:0:0:
248,216,147724,1,0,0:0:0:0:
248,216,148069,1,8,0:0:0:0:
258,208,148241,1,0,0:0:0:0:
239,210,148327,1,0,0:0:0:0:
236,210,148413,1,0,0:0:0:0:
248,216,148586,1,0,0:0:0:0:
248,216,148758,1,8,0:0:0:0:
248,216,149103,1,0,0:0:0:0:
248,216,149448,1,8,0:0:0:0:
248,216,149793,1,0,0:0:0:0:
248,216,149965,1,0,0:0:0:0:
248,216,150138,1,8,0:0:0:0:
248,216,150482,1,0,0:0:0:0:
248,216,150827,1,8,0:0:0:0:
248,216,151000,1,0,0:0:0:0:
259,216,151172,1,0,0:0:0:0:
248,216,151344,1,0,0:0:0:0:
248,216,151517,1,8,0:0:0:0:
248,216,151862,1,0,0:0:0:0:
250,208,152034,1,0,0:0:0:0:
248,216,152206,1,8,0:0:0:0:
250,208,152379,1,0,0:0:0:0:
248,216,152724,1,0,0:0:0:0:
248,216,152896,1,8,0:0:0:0:
248,216,153241,1,0,0:0:0:0:
248,216,153413,1,0,0:0:0:0:
248,216,153586,1,8,0:0:0:0:
248,216,153758,1,0,0:0:0:0:
257,200,153844,1,0,0:0:0:0:
258,208,153931,1,0,0:0:0:0:
248,216,154103,1,0,0:0:0:0:
248,216,154275,1,8,0:0:0:0:
248,216,154620,1,4,0:0:0:0:
