osu file format v14

[General]
AudioFilename: song.mp3
AudioLeadIn: 0
PreviewTime: 99448
Countdown: 1
SampleSet: Normal
StackLeniency: 0.7
Mode: 1
LetterboxInBreaks: 0
WidescreenStoryboard: 0

[Editor]
Bookmarks: 22206,44275,55310,66344,77379,88413,99448,110482,121517,132551,143586,154620
DistanceSpacing: 1.8
BeatDivisor: 4
GridSize: 32
TimelineZoom: 2.1

[Metadata]
Title:Hold (ft. Daniela Andrade) (Fred V & Grafix Remix)
TitleUnicode:Hold (ft. Daniela Andrade) (Fred V & Grafix Remix)
Artist:Dabin
ArtistUnicode:Dabin
Creator:gaston_2199
Version:Confidence
Source:
Tags:dnb drum and bass two hearts ufk Kannibalen Records
BeatmapID:2030928
BeatmapSetID:970361

[Difficulty]
HPDrainRate:6
CircleSize:2
OverallDifficulty:6
ApproachRate:10
SliderMultiplier:1.4
SliderTickRate:1

[Events]
//Background and Video events
0,0,"BG.jpg",0,0
//Break Periods
2,22406,43825
2,66544,75550
//Storyboard Layer 0 (Background)
//Storyboard Layer 1 (Fail)
//Storyboard Layer 2 (Pass)
//Storyboard Layer 3 (Foreground)
//Storyboard Sound Samples

[TimingPoints]
138,344.827586206897,4,1,0,80,1,0
88413,-100,4,1,0,80,0,1
109103,-100,4,1,0,80,0,0
110482,-100,4,1,0,80,0,1
132551,-100,4,1,0,80,0,0

[HitObjects]
257,201,138,5,0,0:0:0:0:
276,201,655,1,0,0:0:0:0:
276,201,1172,1,8,0:0:0:0:
276,201,2206,1,0,0:0:0:0:
276,201,2551,1,8,0:0:0:0:
273,188,2896,1,0,0:0:0:0:
276,201,3413,1,8,0:0:0:0:
276,201,3758,1,0,0:0:0:0:
276,201,3931,1,8,0:0:0:0:
276,201,4448,1,8,0:0:0:0:
276,201,4793,1,0,0:0:0:0:
276,201,4965,1,8,0:0:0:0:
276,201,5310,1,8,0:0:0:0:
276,201,5655,1,0,0:0:0:0:
276,201,6172,1,8,0:0:0:0:
276,201,6689,1,0,0:0:0:0:
276,201,7206,1,8,0:0:0:0:
276,201,7551,1,8,0:0:0:0:
276,201,7724,1,0,0:0:0:0:
276,201,8069,1,8,0:0:0:0:
276,201,8413,1,0,0:0:0:0:
276,201,8931,1,8,0:0:0:0:
276,201,9275,1,0,0:0:0:0:
276,201,9448,1,8,0:0:0:0:
255,186,9965,1,8,0:0:0:0:
255,186,10310,1,8,0:0:0:0:
255,186,10482,1,0,0:0:0:0:
255,186,10827,1,8,0:0:0:0:
273,188,11172,1,0,0:0:0:0:
270,197,11344,1,0,0:0:0:0:
270,197,11517,1,8,0:0:0:0:
270,197,11689,1,0,0:0:0:0:
270,197,12034,1,8,0:0:0:0:
273,188,12551,1,0,0:0:0:0:
270,197,13241,1,8,0:0:0:0:
270,197,13931,1,8,0:0:0:0:
270,197,14103,1,0,0:0:0:0:
270,197,14275,1,8,0:0:0:0:
271,200,14448,1,8,0:0:0:0:
270,197,14793,1,8,0:0:0:0:
270,197,15310,1,0,0:0:0:0:
270,197,16000,1,8,0:0:0:0:
273,188,16689,1,8,0:0:0:0:
270,197,16862,1,0,0:0:0:0:
270,197,17034,1,8,0:0:0:0:
270,197,17206,1,0,0:0:0:0:
270,197,17551,1,8,0:0:0:0:
273,188,18069,1,0,0:0:0:0:
270,197,18758,1,8,0:0:0:0:
270,197,19448,1,8,0:0:0:0:
270,197,20138,1,8,0:0:0:0:
279,198,20827,1,0,0:0:0:0:
270,197,21000,1,8,0:0:0:0:
270,197,21172,1,0,0:0:0:0:
270,197,21344,1,0,0:0:0:0:
270,197,21517,1,8,0:0:0:0:
270,197,21689,1,0,0:0:0:0:
270,197,21862,1,8,0:0:0:0:
283,188,22206,1,0,0:0:0:0:
283,188,44275,5,0,0:0:0:0:
241,196,44448,1,0,0:0:0:0:
241,196,44620,1,8,0:0:0:0:
283,188,44793,1,0,0:0:0:0:
283,188,44965,1,8,0:0:0:0:
241,196,45310,1,8,0:0:0:0:
241,196,45655,1,0,0:0:0:0:
241,196,46172,1,0,0:0:0:0:
283,188,46258,1,0,0:0:0:0:
283,188,46344,1,8,0:0:0:0:
265,175,46689,1,0,0:0:0:0:
267,205,47034,1,8,0:0:0:0:
267,205,47206,1,0,0:0:0:0:
267,205,47379,1,8,0:0:0:0:
267,205,47551,1,8,0:0:0:0:
267,205,47724,1,0,0:0:0:0:
267,205,48069,1,0,0:0:0:0:
251,173,48413,1,8,0:0:0:0:
251,173,48931,1,0,0:0:0:0:
251,173,49017,1,0,0:0:0:0:
251,173,49103,1,8,0:0:0:0:
251,173,49448,1,0,0:0:0:0:
283,188,49793,1,8,0:0:0:0:
251,173,49965,1,0,0:0:0:0:
251,173,50138,1,8,0:0:0:0:
283,188,50310,1,0,0:0:0:0:
283,188,50482,1,8,0:0:0:0:
241,196,50827,1,8,0:0:0:0:
241,196,51172,1,0,0:0:0:0:
241,196,51689,1,0,0:0:0:0:
283,188,51775,1,0,0:0:0:0:
283,188,51862,1,8,0:0:0:0:
265,175,52206,1,0,0:0:0:0:
267,205,52551,1,8,0:0:0:0:
267,205,52896,1,0,0:0:0:0:
267,205,53069,1,8,0:0:0:0:
268,218,53413,1,0,0:0:0:0:
267,205,53931,1,8,0:0:0:0:
267,205,54448,1,0,0:0:0:0:
267,205,54534,1,0,0:0:0:0:
267,205,54620,1,8,0:0:0:0:
274,210,54965,1,0,0:0:0:0:
283,188,55310,1,0,0:0:0:0:
241,196,55482,1,0,0:0:0:0:
241,196,55655,1,8,0:0:0:0:
283,188,55827,1,0,0:0:0:0:
283,188,56000,1,8,0:0:0:0:
241,196,56344,1,8,0:0:0:0:
241,196,56689,1,0,0:0:0:0:
274,210,57034,1,0,0:0:0:0:
241,196,57206,1,0,0:0:0:0:
283,188,57293,1,0,0:0:0:0:
283,188,57379,1,8,0:0:0:0:
265,175,57724,1,0,0:0:0:0:
267,205,58069,1,8,0:0:0:0:
267,205,58241,1,0,0:0:0:0:
267,205,58413,1,8,0:0:0:0:
267,205,58586,1,8,0:0:0:0:
267,205,58758,1,0,0:0:0:0:
267,205,59103,1,0,0:0:0:0:
251,173,59448,1,8,0:0:0:0:
274,210,59793,1,0,0:0:0:0:
251,173,59965,1,0,0:0:0:0:
251,173,60051,1,0,0:0:0:0:
251,173,60138,1,8,0:0:0:0:
251,173,60482,1,0,0:0:0:0:
283,188,60827,1,8,0:0:0:0:
251,173,61000,1,0,0:0:0:0:
251,173,61172,1,8,0:0:0:0:
283,188,61344,1,0,0:0:0:0:
283,188,61517,1,8,0:0:0:0:
241,196,61862,1,8,0:0:0:0:
241,196,62206,1,0,0:0:0:0:
274,210,62551,1,0,0:0:0:0:
241,196,62724,1,0,0:0:0:0:
283,188,62810,1,0,0:0:0:0:
283,188,62896,1,8,0:0:0:0:
265,175,63241,1,0,0:0:0:0:
267,205,63586,1,8,0:0:0:0:
267,205,63931,1,0,0:0:0:0:
267,205,64103,1,8,0:0:0:0:
268,218,64448,1,0,0:0:0:0:
267,205,64965,1,8,0:0:0:0:
279,198,65138,1,8,0:0:0:0:
279,198,65310,1,0,0:0:0:0:
267,205,65482,1,0,0:0:0:0:
267,205,65569,1,0,0:0:0:0:
267,205,65655,1,8,0:0:0:0:
251,204,65827,1,0,0:0:0:0:
274,210,66000,1,8,0:0:0:0:
252,204,66344,1,4,0:0:0:0:
256,192,76000,12,0,77206,0:0:0:0:
252,187,77379,5,4,0:0:0:0:
261,217,77724,5,0,0:0:0:0:
261,217,78069,1,8,0:0:0:0:
261,217,78241,1,0,0:0:0:0:
261,217,78327,1,0,0:0:0:0:
261,217,78413,1,0,0:0:0:0:
261,217,78586,1,8,0:0:0:0:
261,217,78758,1,0,0:0:0:0:
261,217,78844,1,8,0:0:0:0:
261,217,78931,1,0,0:0:0:0:
261,217,79103,1,8,0:0:0:0:
261,217,79275,1,0,0:0:0:0:
261,217,79362,1,0,0:0:0:0:
261,217,79448,1,0,0:0:0:0:
261,217,79620,1,8,0:0:0:0:
261,217,79706,1,0,0:0:0:0:
261,217,79793,1,0,0:0:0:0:
261,217,79965,1,8,0:0:0:0:
261,217,80138,1,0,0:0:0:0:
263,230,80482,1,0,0:0:0:0:
261,217,80827,1,8,0:0:0:0:
261,217,81000,1,0,0:0:0:0:
263,230,81086,1,0,0:0:0:0:
261,217,81172,1,0,0:0:0:0:
261,217,81344,1,8,0:0:0:0:
261,217,81517,1,0,0:0:0:0:
261,217,81603,1,8,0:0:0:0:
261,217,81689,1,0,0:0:0:0:
261,217,81862,1,8,0:0:0:0:
261,217,82034,1,0,0:0:0:0:
261,217,82120,1,0,0:0:0:0:
261,217,82206,1,0,0:0:0:0:
261,217,82379,1,8,0:0:0:0:
261,217,82465,1,0,0:0:0:0:
261,217,82551,1,0,0:0:0:0:
261,217,82724,1,8,0:0:0:0:
261,217,82896,1,0,0:0:0:0:
254,210,83241,1,0,0:0:0:0:
261,217,83586,1,8,0:0:0:0:
261,217,83758,1,0,0:0:0:0:
261,217,83844,1,0,0:0:0:0:
261,217,83931,1,0,0:0:0:0:
261,217,84103,1,8,0:0:0:0:
261,217,84275,1,0,0:0:0:0:
261,217,84362,1,8,0:0:0:0:
261,217,84448,1,0,0:0:0:0:
278,218,84534,1,0,0:0:0:0:
261,217,84620,1,8,0:0:0:0:
261,217,84793,1,0,0:0:0:0:
261,217,84879,1,0,0:0:0:0:
261,217,84965,1,0,0:0:0:0:
261,217,85138,1,8,0:0:0:0:
234,206,85224,1,0,0:0:0:0:
261,217,85310,1,0,0:0:0:0:
261,217,85396,1,0,0:0:0:0:
261,217,85482,1,8,0:0:0:0:
261,217,85655,1,0,0:0:0:0:
268,221,85827,1,0,0:0:0:0:
268,221,86000,1,8,0:0:0:0:
268,221,86172,1,0,0:0:0:0:
268,221,86258,1,0,0:0:0:0:
261,206,86344,1,8,0:0:0:0:
268,221,86517,1,0,0:0:0:0:
268,221,86689,1,8,0:0:0:0:
261,206,86862,1,8,0:0:0:0:
261,206,86948,1,8,0:0:0:0:
261,206,87034,1,0,0:0:0:0:
261,206,87120,1,8,0:0:0:0:
261,206,87206,1,0,0:0:0:0:
261,206,87293,1,0,0:0:0:0:
261,206,87379,1,8,0:0:0:0:
261,206,87465,1,0,0:0:0:0:
261,206,87551,1,8,0:0:0:0:
261,206,87638,1,8,0:0:0:0:
261,206,87724,1,0,0:0:0:0:
261,206,87810,1,0,0:0:0:0:
261,206,87896,1,8,0:0:0:0:
265,209,88069,5,8,0:0:0:0:
265,209,88241,1,8,0:0:0:0:
62,381,88413,1,4,0:0:0:0:
265,209,88586,1,0,0:0:0:0:
265,209,88758,1,8,0:0:0:0:
265,209,88931,1,0,0:0:0:0:
279,198,89275,1,0,0:0:0:0:
279,198,89448,1,8,0:0:0:0:
279,198,89620,1,0,0:0:0:0:
279,198,89706,1,0,0:0:0:0:
279,198,89793,1,8,0:0:0:0:
268,215,89879,1,8,0:0:0:0:
279,198,89965,1,0,0:0:0:0:
279,198,90138,1,8,0:0:0:0:
262,202,90310,1,0,0:0:0:0:
262,202,90396,1,8,0:0:0:0:
262,202,90482,1,0,0:0:0:0:
262,202,90655,1,0,0:0:0:0:
176,282,90827,1,8,0:0:0:0:
176,282,91000,1,0,0:0:0:0:
262,202,91086,1,0,0:0:0:0:
62,381,91172,1,8,0:0:0:0:
265,209,91344,1,0,0:0:0:0:
265,209,91517,1,8,0:0:0:0:
265,209,91689,1,8,0:0:0:0:
279,198,92034,1,0,0:0:0:0:
279,198,92206,1,8,0:0:0:0:
279,198,92379,1,0,0:0:0:0:
279,198,92551,1,8,0:0:0:0:
268,215,92638,1,8,0:0:0:0:
279,198,92724,1,0,0:0:0:0:
262,202,92810,1,0,0:0:0:0:
279,198,92896,1,8,0:0:0:0:
262,202,93069,1,0,0:0:0:0:
262,202,93241,1,8,0:0:0:0:
279,198,93327,1,0,0:0:0:0:
262,202,93413,1,0,0:0:0:0:
176,282,93586,1,8,0:0:0:0:
176,282,93758,1,0,0:0:0:0:
268,208,93844,1,0,0:0:0:0:
268,208,93931,1,8,0:0:0:0:
268,208,94103,1,0,0:0:0:0:
268,208,94275,1,8,0:0:0:0:
268,208,94448,1,0,0:0:0:0:
268,208,94793,1,0,0:0:0:0:
268,208,94965,1,8,0:0:0:0:
268,208,95138,1,0,0:0:0:0:
268,208,95224,1,0,0:0:0:0:
268,208,95310,1,8,0:0:0:0:
268,208,95482,1,0,0:0:0:0:
268,208,95655,1,8,0:0:0:0:
275,205,95827,1,0,0:0:0:0:
275,205,96000,1,8,0:0:0:0:
275,205,96086,1,0,0:0:0:0:
275,205,96172,1,0,0:0:0:0:
275,205,96258,1,0,0:0:0:0:
275,205,96344,1,8,0:0:0:0:
275,205,96517,1,8,0:0:0:0:
275,205,96689,1,0,0:0:0:0:
275,205,97034,1,8,0:0:0:0:
275,205,97206,1,0,0:0:0:0:
275,205,97293,1,0,0:0:0:0:
275,205,97379,1,0,0:0:0:0:
283,195,97551,1,0,0:0:0:0:
283,195,97724,1,8,0:0:0:0:
283,195,97896,1,0,0:0:0:0:
283,195,97982,1,0,0:0:0:0:
283,195,98069,1,8,0:0:0:0:
283,195,98241,1,0,0:0:0:0:
283,195,98413,1,8,0:0:0:0:
283,195,98586,1,8,0:0:0:0:
283,195,98672,1,0,0:0:0:0:
283,195,98758,1,8,0:0:0:0:
283,195,98844,1,8,0:0:0:0:
283,195,98931,1,0,0:0:0:0:
285,200,99103,1,8,0:0:0:0:
288,189,99275,1,8,0:0:0:0:
62,381,99448,1,0,0:0:0:0:
265,209,99620,1,0,0:0:0:0:
265,209,99793,1,8,0:0:0:0:
265,209,99965,1,0,0:0:0:0:
279,198,100310,1,0,0:0:0:0:
279,198,100482,1,8,0:0:0:0:
279,198,100655,1,0,0:0:0:0:
279,198,100741,1,0,0:0:0:0:
279,198,100827,1,8,0:0:0:0:
268,215,100913,1,8,0:0:0:0:
279,198,101000,1,0,0:0:0:0:
279,198,101172,1,8,0:0:0:0:
262,202,101344,1,0,0:0:0:0:
262,202,101431,1,8,0:0:0:0:
262,202,101517,1,0,0:0:0:0:
262,202,101689,1,0,0:0:0:0:
176,282,101862,1,8,0:0:0:0:
176,282,102034,1,0,0:0:0:0:
265,209,102120,1,0,0:0:0:0:
62,381,102206,1,8,0:0:0:0:
265,209,102379,1,0,0:0:0:0:
265,209,102551,1,8,0:0:0:0:
265,209,102724,1,8,0:0:0:0:
279,198,103069,1,0,0:0:0:0:
279,198,103241,1,8,0:0:0:0:
279,198,103413,1,0,0:0:0:0:
279,198,103586,1,8,0:0:0:0:
268,215,103672,1,8,0:0:0:0:
279,198,103758,1,0,0:0:0:0:
248,202,103844,1,0,0:0:0:0:
279,198,103931,1,8,0:0:0:0:
262,202,104103,1,0,0:0:0:0:
262,202,104275,1,8,0:0:0:0:
279,198,104362,1,0,0:0:0:0:
262,202,104448,1,0,0:0:0:0:
176,282,104620,1,8,0:0:0:0:
176,282,104793,1,0,0:0:0:0:
268,208,104879,1,0,0:0:0:0:
268,208,104965,1,8,0:0:0:0:
268,208,105138,1,0,0:0:0:0:
268,208,105310,1,8,0:0:0:0:
268,208,105482,1,0,0:0:0:0:
268,208,105827,1,0,0:0:0:0:
268,208,106000,1,8,0:0:0:0:
268,208,106172,1,0,0:0:0:0:
268,208,106258,1,0,0:0:0:0:
268,208,106344,1,8,0:0:0:0:
283,213,106431,1,8,0:0:0:0:
268,208,106517,1,0,0:0:0:0:
268,208,106689,1,8,0:0:0:0:
275,205,106862,1,0,0:0:0:0:
275,205,107034,1,8,0:0:0:0:
275,205,107120,1,0,0:0:0:0:
275,205,107206,1,0,0:0:0:0:
275,205,107293,1,0,0:0:0:0:
275,205,107379,1,8,0:0:0:0:
275,205,107551,1,8,0:0:0:0:
275,205,107724,1,0,0:0:0:0:
275,205,108069,1,8,0:0:0:0:
275,205,108241,1,0,0:0:0:0:
275,205,108327,1,0,0:0:0:0:
275,205,108413,1,0,0:0:0:0:
283,195,108586,1,0,0:0:0:0:
283,195,108758,1,8,0:0:0:0:
283,195,108931,1,0,0:0:0:0:
283,195,109017,1,0,0:0:0:0:
283,195,109103,1,8,0:0:0:0:
285,200,109189,1,0,0:0:0:0:
283,195,109275,1,8,0:0:0:0:
283,195,109448,1,8,0:0:0:0:
283,195,109620,1,8,0:0:0:0:
283,195,109706,1,0,0:0:0:0:
283,195,109793,1,8,0:0:0:0:
283,195,109879,1,8,0:0:0:0:
283,195,109965,1,0,0:0:0:0:
283,195,110051,1,0,0:0:0:0:
285,200,110138,1,8,0:0:0:0:
248,202,110310,1,8,0:0:0:0:
62,381,110482,1,4,0:0:0:0:
265,209,110655,1,0,0:0:0:0:
265,209,110741,1,0,0:0:0:0:
265,209,110827,1,8,0:0:0:0:
265,209,111000,1,0,0:0:0:0:
259,206,111086,1,0,0:0:0:0:
259,206,111172,1,0,0:0:0:0:
279,198,111344,1,0,0:0:0:0:
279,198,111517,1,8,0:0:0:0:
279,198,111689,1,0,0:0:0:0:
279,198,111775,1,0,0:0:0:0:
279,169,111862,1,8,0:0:0:0:
268,215,111948,1,8,0:0:0:0:
279,198,112034,1,0,0:0:0:0:
279,198,112206,1,8,0:0:0:0:
262,202,112379,1,0,0:0:0:0:
262,202,112465,1,8,0:0:0:0:
259,206,112551,1,8,0:0:0:0:
259,206,112638,1,8,0:0:0:0:
262,202,112724,1,0,0:0:0:0:
176,282,112896,1,8,0:0:0:0:
176,282,113069,1,0,0:0:0:0:
279,198,113155,1,0,0:0:0:0:
62,381,113241,1,8,0:0:0:0:
265,209,113413,1,0,0:0:0:0:
265,209,113586,1,8,0:0:0:0:
284,195,113672,1,0,0:0:0:0:
265,209,113758,1,8,0:0:0:0:
259,206,113844,1,8,0:0:0:0:
259,206,113931,1,0,0:0:0:0:
279,198,114103,1,0,0:0:0:0:
279,198,114275,1,8,0:0:0:0:
279,198,114448,1,0,0:0:0:0:
279,198,114620,1,8,0:0:0:0:
268,215,114706,1,8,0:0:0:0:
279,198,114793,1,0,0:0:0:0:
262,202,114879,1,0,0:0:0:0:
279,198,114965,1,8,0:0:0:0:
262,202,115138,1,0,0:0:0:0:
262,202,115310,1,8,0:0:0:0:
279,198,115396,1,0,0:0:0:0:
262,202,115482,1,0,0:0:0:0:
259,206,115569,1,0,0:0:0:0:
176,282,115655,1,8,0:0:0:0:
176,282,115827,1,0,0:0:0:0:
268,208,116000,1,8,0:0:0:0:
268,208,116172,1,0,0:0:0:0:
268,208,116258,1,0,0:0:0:0:
268,208,116344,1,8,0:0:0:0:
268,208,116517,1,0,0:0:0:0:
259,206,116603,1,8,0:0:0:0:
259,206,116689,1,0,0:0:0:0:
268,208,116862,1,0,0:0:0:0:
268,208,117034,1,8,0:0:0:0:
268,208,117206,1,0,0:0:0:0:
259,206,117293,1,0,0:0:0:0:
268,208,117379,1,8,0:0:0:0:
268,208,117465,1,8,0:0:0:0:
268,208,117551,1,0,0:0:0:0:
268,208,117724,1,8,0:0:0:0:
275,205,117896,1,0,0:0:0:0:
275,205,118069,1,8,0:0:0:0:
275,205,118155,1,8,0:0:0:0:
275,205,118241,1,0,0:0:0:0:
275,205,118327,1,0,0:0:0:0:
275,205,118413,1,8,0:0:0:0:
275,205,118586,1,8,0:0:0:0:
275,205,118758,1,0,0:0:0:0:
283,205,118931,1,0,0:0:0:0:
283,205,119017,1,0,0:0:0:0:
275,205,119103,1,8,0:0:0:0:
275,205,119275,1,0,0:0:0:0:
275,205,119362,1,8,0:0:0:0:
275,205,119448,1,0,0:0:0:0:
283,195,119620,1,0,0:0:0:0:
283,195,119793,1,8,0:0:0:0:
283,195,119965,1,0,0:0:0:0:
283,195,120051,1,0,0:0:0:0:
283,195,120138,1,8,0:0:0:0:
285,200,120224,1,0,0:0:0:0:
283,195,120310,1,8,0:0:0:0:
283,195,120482,1,8,0:0:0:0:
283,195,120655,1,8,0:0:0:0:
283,195,120741,1,0,0:0:0:0:
283,195,120827,1,8,0:0:0:0:
283,195,120913,1,8,0:0:0:0:
283,195,121000,1,0,0:0:0:0:
274,200,121086,1,0,0:0:0:0:
285,200,121172,1,8,0:0:0:0:
288,189,121344,1,8,0:0:0:0:
62,381,121517,1,0,0:0:0:0:
265,209,121689,1,0,0:0:0:0:
265,209,121775,1,0,0:0:0:0:
265,209,121862,1,8,0:0:0:0:
265,209,122034,1,0,0:0:0:0:
285,200,122120,1,8,0:0:0:0:
285,200,122206,1,0,0:0:0:0:
279,198,122379,1,0,0:0:0:0:
279,198,122551,1,8,0:0:0:0:
279,198,122724,1,0,0:0:0:0:
279,198,122810,1,0,0:0:0:0:
279,198,122896,1,8,0:0:0:0:
268,215,122982,1,8,0:0:0:0:
279,198,123069,1,0,0:0:0:0:
259,206,123155,1,0,0:0:0:0:
279,198,123241,1,8,0:0:0:0:
262,202,123413,1,0,0:0:0:0:
262,202,123500,1,8,0:0:0:0:
279,198,123586,1,8,0:0:0:0:
279,198,123672,1,8,0:0:0:0:
262,202,123758,1,0,0:0:0:0:
176,282,123931,1,8,0:0:0:0:
176,282,124103,1,0,0:0:0:0:
262,202,124189,1,0,0:0:0:0:
62,381,124275,1,8,0:0:0:0:
265,209,124448,1,0,0:0:0:0:
255,239,124534,1,0,0:0:0:0:
265,209,124620,1,8,0:0:0:0:
259,206,124706,1,0,0:0:0:0:
265,209,124793,1,8,0:0:0:0:
273,211,124879,1,8,0:0:0:0:
273,211,124965,1,0,0:0:0:0:
279,198,125138,1,0,0:0:0:0:
279,198,125310,1,8,0:0:0:0:
279,198,125482,1,0,0:0:0:0:
248,202,125569,1,0,0:0:0:0:
279,198,125655,1,8,0:0:0:0:
268,215,125741,1,8,0:0:0:0:
279,198,125827,1,0,0:0:0:0:
262,202,125913,1,0,0:0:0:0:
279,198,126000,1,8,0:0:0:0:
262,202,126172,1,0,0:0:0:0:
262,202,126344,1,8,0:0:0:0:
279,198,126431,1,0,0:0:0:0:
262,202,126517,1,0,0:0:0:0:
248,202,126603,1,0,0:0:0:0:
176,282,126689,1,8,0:0:0:0:
261,227,126775,1,0,0:0:0:0:
176,282,126862,1,8,0:0:0:0:
268,208,127034,1,0,0:0:0:0:
262,202,127379,1,0,0:0:0:0:
259,206,127724,1,8,0:0:0:0:
259,206,128069,1,0,0:0:0:0:
262,202,128241,1,8,0:0:0:0:
255,198,128413,1,0,0:0:0:0:
255,186,128500,1,0,0:0:0:0:
257,192,128586,1,0,0:0:0:0:
259,206,128758,1,8,0:0:0:0:
259,206,128931,1,8,0:0:0:0:
266,206,129017,1,0,0:0:0:0:
259,206,129103,1,0,0:0:0:0:
262,202,129275,1,8,0:0:0:0:
262,202,129448,1,8,0:0:0:0:
266,203,129534,1,8,0:0:0:0:
266,203,129620,1,0,0:0:0:0:
259,206,129793,1,8,0:0:0:0:
266,209,129879,1,8,0:0:0:0:
266,206,129965,1,0,0:0:0:0:
266,206,130051,1,0,0:0:0:0:
262,202,130138,1,8,0:0:0:0:
265,209,130310,1,0,0:0:0:0:
259,206,130482,1,8,0:0:0:0:
266,209,130655,1,0,0:0:0:0:
259,206,130741,1,0,0:0:0:0:
259,206,130827,1,0,0:0:0:0:
262,202,131000,1,8,0:0:0:0:
262,202,131172,1,0,0:0:0:0:
265,209,131258,1,0,0:0:0:0:
265,209,131344,1,0,0:0:0:0:
259,206,131517,1,8,0:0:0:0:
259,206,131689,1,0,0:0:0:0:
261,196,131775,1,0,0:0:0:0:
259,206,131862,1,0,0:0:0:0:
274,213,131948,1,0,0:0:0:0:
262,202,132034,1,8,0:0:0:0:
262,202,132206,1,8,0:0:0:0:
265,209,132379,1,8,0:0:0:0:
267,212,132551,1,4,0:0:0:0:
264,222,132896,1,8,0:0:0:0:
264,222,133069,1,0,0:0:0:0:
264,222,133155,1,0,0:0:0:0:
264,222,133241,1,8,0:0:0:0:
264,222,133413,1,0,0:0:0:0:
264,222,133586,1,8,0:0:0:0:
264,222,133758,1,0,0:0:0:0:
264,222,133931,1,0,0:0:0:0:
264,222,134017,1,8,0:0:0:0:
264,222,134103,1,0,0:0:0:0:
264,222,134275,1,8,0:0:0:0:
264,222,134448,1,8,0:0:0:0:
264,222,134534,1,8,0:0:0:0:
264,222,134620,1,0,0:0:0:0:
264,222,134706,1,8,0:0:0:0:
264,222,134793,1,0,0:0:0:0:
264,222,134965,1,8,0:0:0:0:
264,222,135138,1,8,0:0:0:0:
264,222,135310,1,0,0:0:0:0:
264,222,135655,1,8,0:0:0:0:
264,222,135827,1,0,0:0:0:0:
264,222,135913,1,0,0:0:0:0:
264,222,136000,1,0,0:0:0:0:
264,222,136172,1,0,0:0:0:0:
264,222,136344,1,8,0:0:0:0:
264,222,136517,1,0,0:0:0:0:
264,222,136689,1,8,0:0:0:0:
264,222,136775,1,8,0:0:0:0:
264,222,136862,1,0,0:0:0:0:
264,222,137034,1,8,0:0:0:0:
264,222,137206,1,8,0:0:0:0:
264,222,137293,1,0,0:0:0:0:
264,222,137379,1,0,0:0:0:0:
264,222,137551,1,0,0:0:0:0:
264,222,137724,1,8,0:0:0:0:
264,222,137896,1,8,0:0:0:0:
267,212,138069,1,0,0:0:0:0:
264,222,138413,1,8,0:0:0:0:
264,222,138586,1,0,0:0:0:0:
264,222,138672,1,0,0:0:0:0:
264,222,138758,1,8,0:0:0:0:
264,222,138931,1,0,0:0:0:0:
264,222,139103,1,8,0:0:0:0:
264,222,139275,1,0,0:0:0:0:
264,222,139448,1,0,0:0:0:0:
264,222,139534,1,8,0:0:0:0:
264,222,139620,1,0,0:0:0:0:
264,222,139793,1,8,0:0:0:0:
264,222,139965,1,8,0:0:0:0:
264,222,140051,1,8,0:0:0:0:
264,222,140138,1,0,0:0:0:0:
264,222,140224,1,8,0:0:0:0:
264,222,140310,1,0,0:0:0:0:
264,222,140482,1,8,0:0:0:0:
264,222,140655,1,8,0:0:0:0:
264,222,140827,1,0,0:0:0:0:
251,229,141000,1,0,0:0:0:0:
251,229,141086,1,0,0:0:0:0:
264,222,141172,1,8,0:0:0:0:
264,222,141344,1,0,0:0:0:0:
264,222,141431,1,0,0:0:0:0:
264,222,141517,1,0,0:0:0:0:
264,222,141689,1,0,0:0:0:0:
264,222,141862,1,8,0:0:0:0:
264,222,142034,1,0,0:0:0:0:
264,222,142206,1,8,0:0:0:0:
264,222,142293,1,8,0:0:0:0:
264,222,142379,1,0,0:0:0:0:
251,229,142465,1,0,0:0:0:0:
264,222,142551,1,8,0:0:0:0:
264,222,142724,1,0,0:0:0:0:
264,222,142896,1,0,0:0:0:0:
264,222,142982,1,8,0:0:0:0:
264,222,143069,1,0,0:0:0:0:
270,217,143155,1,0,0:0:0:0:
264,222,143241,1,8,0:0:0:0:
264,222,143413,1,8,0:0:0:0:
264,222,143586,1,0,0:0:0:0:
264,222,143931,1,8,0:0:0:0:
264,222,144103,1,0,0:0:0:0:
264,222,144189,1,0,0:0:0:0:
264,222,144275,1,8,0:0:0:0:
264,222,144448,1,0,0:0:0:0:
264,222,144620,1,8,0:0:0:0:
264,222,144793,1,0,0:0:0:0:
264,222,144965,1,0,0:0:0:0:
264,222,145051,1,8,0:0:0:0:
264,222,145138,1,0,0:0:0:0:
264,222,145224,1,0,0:0:0:0:
264,222,145310,1,8,0:0:0:0:
264,222,145482,1,8,0:0:0:0:
264,222,145569,1,8,0:0:0:0:
264,222,145655,1,0,0:0:0:0:
264,222,145741,1,8,0:0:0:0:
264,222,145827,1,0,0:0:0:0:
264,222,145913,1,0,0:0:0:0:
264,222,146000,1,8,0:0:0:0:
264,222,146172,1,8,0:0:0:0:
264,222,146344,1,0,0:0:0:0:
264,222,146689,1,8,0:0:0:0:
264,222,146862,1,0,0:0:0:0:
264,222,146948,1,0,0:0:0:0:
264,222,147034,1,8,0:0:0:0:
264,222,147206,1,0,0:0:0:0:
264,222,147379,1,8,0:0:0:0:
264,222,147551,1,0,0:0:0:0:
269,213,147638,1,0,0:0:0:0:
264,222,147724,1,8,0:0:0:0:
264,222,147810,1,8,0:0:0:0:
264,222,147896,1,0,0:0:0:0:
264,222,148069,1,8,0:0:0:0:
264,222,148241,1,8,0:0:0:0:
264,222,148327,1,0,0:0:0:0:
264,222,148413,1,0,0:0:0:0:
264,222,148586,1,0,0:0:0:0:
264,222,148758,1,8,0:0:0:0:
264,222,148844,1,0,0:0:0:0:
264,222,148931,1,8,0:0:0:0:
267,212,149103,1,0,0:0:0:0:
264,222,149448,1,8,0:0:0:0:
264,222,149620,1,0,0:0:0:0:
264,222,149706,1,0,0:0:0:0:
264,222,149793,1,8,0:0:0:0:
264,222,149965,1,0,0:0:0:0:
264,222,150138,1,8,0:0:0:0:
264,222,150310,1,0,0:0:0:0:
264,222,150482,1,0,0:0:0:0:
264,222,150569,1,8,0:0:0:0:
264,222,150655,1,0,0:0:0:0:
264,222,150741,1,0,0:0:0:0:
264,222,150827,1,8,0:0:0:0:
264,222,151000,1,8,0:0:0:0:
264,222,151086,1,8,0:0:0:0:
264,222,151172,1,0,0:0:0:0:
264,222,151258,1,8,0:0:0:0:
264,222,151344,1,0,0:0:0:0:
264,222,151431,1,0,0:0:0:0:
264,222,151517,1,8,0:0:0:0:
264,222,151689,1,8,0:0:0:0:
264,222,151862,1,0,0:0:0:0:
251,229,152034,1,0,0:0:0:0:
251,229,152120,1,0,0:0:0:0:
264,222,152206,1,8,0:0:0:0:
264,222,152379,1,0,0:0:0:0:
264,222,152465,1,8,0:0:0:0:
264,222,152551,1,0,0:0:0:0:
264,222,152724,1,0,0:0:0:0:
264,222,152896,1,8,0:0:0:0:
264,222,153069,1,0,0:0:0:0:
266,233,153155,1,0,0:0:0:0:
264,222,153241,1,8,0:0:0:0:
264,222,153327,1,8,0:0:0:0:
264,222,153413,1,0,0:0:0:0:
251,229,153500,1,0,0:0:0:0:
264,222,153586,1,8,0:0:0:0:
264,222,153758,1,0,0:0:0:0:
264,222,153931,1,0,0:0:0:0:
264,222,154017,1,8,0:0:0:0:
264,222,154103,1,0,0:0:0:0:
270,217,154189,1,0,0:0:0:0:
264,222,154275,1,8,0:0:0:0:
266,233,154362,1,0,0:0:0:0:
264,222,154448,1,8,0:0:0:0:
264,222,154620,1,4,0:0:0:0:
