osu file format v14

[General]
AudioFilename: audio.mp3
AudioLeadIn: 0
PreviewTime: 54218
Countdown: 0
SampleSet: Soft
StackLeniency: 0.5
Mode: 0
LetterboxInBreaks: 0
WidescreenStoryboard: 1

[Editor]
Bookmarks: 30924,42218,66218,83159,97276,105747,119865
DistanceSpacing: 1.1
BeatDivisor: 4
GridSize: 8
TimelineZoom: 1.200001

[Metadata]
Title:DREAMIN' ON (TV Size)
TitleUnicode:DREAMIN' ON (TV Size)
Artist:Da-iCE
ArtistUnicode:Da-iCE
Creator:iYiyo
Version:Hyper
Source:ONE PIECE
Tags:MeatBoy Chanmann ワンピース pirates toei animation japanese pop j-pop jpop rock j-rock jrock anime opening 23 op op23 Male Vocalist Vocal Monkey D Luffy モンキー D ルフィ Roronoa Zoro ロロノア ゾロ Nami ナミ Nico Robin ニコ ロビン Usopp ウソップ Sanji サンジ Tony Chopper トニーチョッパー Brook ブルック Franky フランキー Jinbe Jimbei ジンベエ Straw Hat Pirates 麦わらの一味 Mugiwara no Ichimi
BeatmapID:3643098
BeatmapSetID:1231755

[Difficulty]
HPDrainRate:5
CircleSize:3.8
OverallDifficulty:6.5
ApproachRate:8
SliderMultiplier:1.5
SliderTickRate:1

[Events]
//Background and Video events
Video,0,"op23.m4v"
0,0,"wano.jpg",0,0
//Break Periods
2,97276,102174
//Storyboard Layer 0 (Background)
//Storyboard Layer 1 (Fail)
//Storyboard Layer 2 (Pass)
//Storyboard Layer 3 (Foreground)
//Storyboard Layer 4 (Overlay)
//Storyboard Sound Samples

[TimingPoints]
1277,352.941176470588,4,2,1,40,1,0
1277,-100,4,2,1,40,0,0
6924,-100,4,2,1,60,0,0
13982,-100,4,2,1,70,0,1
19453,-111.111111111111,4,2,1,50,0,0
30747,-100,4,2,1,60,0,0
42218,-133.333333333333,4,2,1,60,0,0
47512,-100,4,2,1,60,0,0
47865,-100,4,2,1,70,0,0
54924,-83.3333333333333,4,2,1,75,0,1
80335,-100,4,2,1,70,0,0
83159,-100,4,2,1,50,0,0
91629,-100,4,2,1,66,0,0
97276,-200,4,2,1,50,0,0
102924,-200,4,2,1,30,0,0
104865,-200,4,2,1,60,0,0
105218,-100,4,2,1,70,0,0
108571,-83.3333333333333,4,2,1,70,0,1
117041,-100,4,2,1,50,0,0
119865,-100,4,2,1,5,0,0

[Colours]
Combo1 : 181,106,106
Combo2 : 0,128,128
Combo3 : 255,255,89
Combo4 : 0,204,102

[HitObjects]
461,299,1277,5,4,1:2:0:0:
236,301,2688,5,2,0:0:0:0:
247,270,3394,1,2,0:0:0:0:
51,85,4100,5,4,1:2:0:0:
276,83,5511,5,4,1:2:0:0:
265,114,6218,2,0,L|278:199,1,75,12|8,1:2|1:3,0:0:0:0:
199,211,6571,2,0,L|187:136,1,75,8|8,1:3|1:3,0:0:0:0:
60,257,6924,6,0,P|82:286|118:295,1,75,2|0,1:2|0:0,0:0:0:0:
178,351,7276,2,0,P|214:345|240:319,1,75,0|2,1:0|0:0,0:0:0:0:
255,238,7629,2,0,P|281:212|317:206,1,75,0|0,1:0|0:0,0:0:0:0:
377,262,7981,2,0,P|412:271|435:300,1,75,2|0,1:2|0:0,0:0:0:0:
465,168,8335,6,0,L|451:77,1,75,0|2,1:0|0:0,0:0:0:0:
362,42,8688,2,0,L|374:117,1,75,0|0,1:0|0:0,0:0:0:0:
293,130,9041,2,0,L|281:56,1,75,2|0,1:2|0:0,0:0:0:0:
210,132,9394,2,0,L|222:206,1,75,2|0,1:2|0:0,0:0:0:0:
106,332,9747,5,12,1:2:0:0:
27,304,9924,1,8,0:0:0:0:
54,226,10100,1,8,0:0:0:0:
132,253,10276,1,8,1:2:0:0:
132,253,10365,1,8,1:2:0:0:
132,253,10453,2,0,L|128:215,3,37.5,8|8|8|8,1:2|1:2|1:2|1:2,0:0:0:0:
161,185,10806,2,0,L|157:147,2,37.5,8|8|8,1:2|1:2|0:0,1:2:0:0:
230,229,11159,5,8,1:1:0:0:
321,164,11335,1,8,1:1:0:0:
297,112,13982,6,0,P|297:148|319:178,1,75,4|0,1:0|0:0,0:0:0:0:
357,42,14335,1,2,0:0:0:0:
268,23,14512,1,2,1:2:0:0:
206,88,14688,2,0,L|131:78,1,75,8|0,0:2|0:0,0:0:0:0:
0,91,15041,1,2,0:0:0:0:
38,172,15218,6,0,L|112:162,1,75,2|0,1:2|0:0,0:0:0:0:
244,175,15570,1,2,1:2:0:0:
206,256,15747,2,0,L|131:246,1,75,2|2,1:2|0:0,0:0:0:0:
244,175,16100,1,8,0:2:0:0:
295,237,16276,1,0,1:2:0:0:
274,314,16453,1,8,0:2:0:0:
201,347,16629,1,0,1:2:0:0:
131,306,16806,6,0,L|142:231,1,75,4|0,1:2|0:0,0:0:0:0:
156,114,17159,1,0,0:0:0:0:
208,178,17335,2,0,L|283:189,1,75,0|8,1:0|0:0,0:0:0:0:
156,114,17688,1,0,0:0:0:0:
198,43,17865,1,0,0:0:0:0:
250,107,18041,6,0,L|325:118,1,75,0|0,1:0|0:0,0:0:0:0:
390,11,18394,1,0,1:0:0:0:
454,62,18570,2,0,L|465:137,1,75,8|0,0:0|0:0,0:0:0:0:
464,136,18835,1,0,0:0:0:0:
464,136,18924,1,8,0:0:0:0:
405,213,19100,1,2,1:2:0:0:
466,287,19276,1,10,0:2:0:0:
407,364,19453,6,0,P|345:336|278:335,1,134.999995880127,2|0,1:2|0:0,0:0:0:0:
190,339,19982,2,0,P|221:347|249:329,1,67.4999979400635,0|2,1:0|0:0,0:0:0:0:
301,267,20335,1,2,1:2:0:0:
245,207,20512,2,0,P|234:171|229:133,1,67.4999979400635,2|0,0:0|1:0,0:0:0:0:
290,88,20865,6,0,P|324:79|359:101,1,67.4999979400635,2|0,0:0|1:0,0:0:0:0:
398,158,21218,2,0,P|424:182|465:177,1,67.4999979400635,2|0,0:0|1:0,0:0:0:0:
317,170,21571,2,0,L|326:244,1,67.4999979400635,2|0,0:0|1:0,0:0:0:0:
370,304,21924,1,2,0:0:0:0:
209,290,22276,6,0,P|173:279|135:278,1,67.4999979400635,2|0,0:0|1:0,0:0:0:0:
73,320,22629,2,0,P|113:267|102:202,1,134.999995880127,2|0,0:0|0:0,0:0:0:0:
45,145,23159,1,0,1:0:0:0:
177,52,23512,1,2,1:2:0:0:
199,129,23688,6,0,L|185:202,1,67.4999979400635,2|0,0:0|1:0,0:0:0:0:
275,91,24041,2,0,L|218:42,1,67.4999979400635,2|0,0:0|1:0,0:0:0:0:
273,175,24394,2,0,L|343:150,1,67.4999979400635,2|0,0:0|1:0,0:0:0:0:
417,153,24747,2,0,L|403:226,1,67.4999979400635,2|0,0:0|1:0,0:0:0:0:
474,314,25100,6,0,P|441:300|404:304,1,67.4999979400635,2|0,0:0|1:0,0:0:0:0:
348,354,25453,2,0,P|273:360|205:331,1,134.999995880127,2|0,0:0|0:0,0:0:0:0:
136,336,25982,1,0,1:0:0:0:
23,219,26335,1,0,1:0:0:0:
63,148,26512,6,0,P|99:142|136:150,1,67.4999979400635,2|0,0:0|1:0,0:0:0:0:
163,73,26865,2,0,P|199:80|236:75,1,67.4999979400635,2|0,0:0|1:0,0:0:0:0:
303,108,27218,2,0,L|295:182,1,67.4999979400635,2|0,0:0|1:0,0:0:0:0:
376,168,27571,1,2,0:0:0:0:
496,59,27924,1,2,0:0:0:0:
499,140,28100,6,0,P|434:125|426:189,2,134.999995880127,0|0|0,1:2|1:0|1:0,0:0:0:0:
485,337,29159,1,8,0:0:0:0:
476,334,29247,1,8,0:0:0:0:
467,332,29335,1,8,0:1:0:0:
322,267,29688,1,8,0:1:0:0:
79,347,30747,6,0,B|79:313|66:272|66:272|106:287|141:274,1,150,4|0,1:2|1:0,0:0:0:0:
104,198,31276,2,0,P|105:160|98:123,1,75,8|2,0:0|0:0,0:0:0:0:
62,52,31629,1,2,1:2:0:0:
62,52,31806,1,2,1:2:0:0:
133,12,31982,1,8,0:2:0:0:
193,68,32159,6,0,P|229:65|259:42,1,75,2|0,1:2|0:0,0:0:0:0:
331,82,32512,2,0,L|432:61,1,75,2|8,1:2|0:0,0:0:0:0:
462,126,32865,2,0,P|453:162|456:199,2,75,2|0|2,0:2|1:0|1:2,0:0:0:0:
485,46,33394,1,8,0:0:0:0:
407,17,33571,6,0,L|320:25,1,75,2|0,1:2|0:0,0:0:0:0:
250,13,33924,2,0,P|233:86|185:143,1,150,2|0,1:2|0:0,0:0:0:0:
141,209,34453,2,0,L|130:313,1,75,0|0,1:0|1:0,0:0:0:0:
185,347,34806,1,10,0:0:0:0:
249,295,34982,6,0,L|323:302,1,75,2|0,1:2|0:0,0:0:0:0:
392,344,35335,2,0,P|368:315|361:278,1,75,2|8,1:2|0:0,0:0:0:0:
386,199,35688,2,0,L|429:138,2,75,2|0|2,1:2|0:0|1:2,0:0:0:0:
304,218,36218,1,8,0:0:0:0:
248,157,36394,6,0,P|211:163|182:187,1,75,6|0,1:2|0:0,0:0:0:0:
178,269,36747,2,0,P|191:214|114:221,1,150,2|2,1:2|0:0,0:0:0:0:
95,292,37276,1,2,1:2:0:0:
26,245,37453,1,0,1:0:0:0:
49,165,37629,1,8,0:0:0:0:
38,81,37806,6,0,P|60:52|96:43,1,75,2|2,0:0|0:2,0:0:0:0:
142,112,38159,2,0,P|211:130|270:89,1,150,0|2,1:2|0:0,0:0:0:0:
345,50,38688,2,0,L|362:136,1,75,2|0,1:2|0:0,0:0:0:0:
427,42,39041,2,0,L|442:116,1,75,8|2,0:0|1:2,0:0:0:0:
441,198,39394,6,0,P|431:233|428:271,1,75,2|0,1:2|0:0,0:0:0:0:
486,330,39747,2,8,P|415:306|341:315,1,150,10|0,0:0|1:0,0:0:0:0:
264,286,40276,1,0,1:0:0:0:
226,360,40453,2,0,P|189:360|155:345,1,75,10|0,0:0|0:0,0:0:0:0:
72,339,40806,6,0,B|71:254|71:254|38:268|6:260,1,150,2|8,1:2|0:0,0:0:0:0:
32,182,41335,2,0,P|20:165|20:146,2,37.5,10|8|8,0:0|0:0|0:1,0:0:0:0:
122,175,41688,1,8,0:1:0:0:
176,102,41865,1,10,1:2:0:0:
264,116,42041,1,8,0:1:0:0:
326,50,42218,6,0,P|405:40|454:104,1,168.750006437302,6|0,1:2|1:0,0:0:0:0:
409,173,42924,2,0,L|422:284,1,112.500004291535,8|0,0:2|1:0,0:0:0:0:
356,328,43453,1,0,1:0:0:0:
288,288,43629,6,0,P|242:317|192:296,1,112.500004291535,2|0,0:0|1:0,0:0:0:0:
168,220,44159,1,2,1:2:0:0:
228,169,44335,2,0,L|339:184,1,112.500004291535,10|0,0:0|0:0,0:0:0:0:
399,132,44865,1,2,1:2:0:0:
332,89,45041,6,0,P|325:62|332:35,1,56.2500021457673,4|0,1:2|0:0,0:0:0:0:
240,33,45394,1,2,0:0:0:0:
240,33,45571,2,0,P|246:59|239:86,1,56.2500021457673,2|8,1:2|0:0,0:0:0:0:
192,149,45924,2,0,L|122:141,1,56.2500021457673,2|0,1:2|1:0,0:0:0:0:
59,160,46276,6,0,P|51:186|58:213,1,56.2500021457673,2|0,1:2|0:0,0:0:0:0:
98,281,46629,2,0,P|182:275|262:252,1,168.750006437302,10|10,0:0|0:3,0:0:0:0:
366,77,47512,5,10,0:3:0:0:
439,39,47688,1,2,1:2:0:0:
488,105,47865,2,0,B|497:142|497:142|472:170,1,75,2|0,0:0|1:0,0:0:0:0:
397,204,48218,1,10,0:0:0:0:
337,289,48394,2,0,L|352:362,2,75,2|0|0,0:1|1:0|1:0,0:0:0:0:
253,293,48924,5,10,0:0:0:0:
180,331,49100,1,2,0:0:0:0:
131,265,49277,2,0,B|122:228|122:228|147:200,1,75,2|0,1:2|1:0,0:0:0:0:
222,166,49630,1,10,0:0:0:0:
282,81,49806,2,0,L|267:8,2,75,2|0|0,2:1|1:0|1:0,0:0:0:0:
362,98,50335,6,0,P|398:86|435:86,1,75,8|2,0:0|0:0,0:0:0:0:
464,163,50688,2,0,L|443:273,2,112.5,2|2|2,1:2|0:0|0:0,0:0:0:0:
434,85,51394,1,2,1:2:0:0:
352,102,51571,2,0,P|314:102|279:90,1,75,0|8,1:2|0:0,0:0:0:0:
212,41,51924,1,2,0:0:0:0:
181,117,52100,6,0,P|133:172|144:244,1,150,6|8,1:2|0:0,0:0:0:0:
97,312,52629,1,0,0:0:0:0:
168,353,52806,2,0,L|334:319,1,150,2|8,1:2|0:0,0:0:0:0:
393,349,53335,2,0,P|456:318|452:248,1,150,2|8,1:2|1:0,0:0:0:0:
358,185,53865,1,8,1:0:0:0:
358,185,54924,6,0,P|329:153|323:109,1,89.9999972534181,6|0,1:2|0:0,0:0:0:0:
451,150,55276,2,0,L|438:242,1,89.9999972534181,10|0,0:0|0:0,0:0:0:0:
413,325,55629,1,2,1:2:0:0:
332,284,55806,1,2,1:2:0:0:
270,349,55982,1,10,0:2:0:0:
188,307,56159,6,0,P|153:281|109:280,1,89.9999972534181,2|0,0:0|1:0,0:0:0:0:
125,363,56512,2,0,L|178:192,1,179.999994506836,2|0,0:0|0:0,0:0:0:0:
104,138,57041,1,2,1:2:0:0:
184,98,57218,1,2,0:0:0:0:
259,145,57394,1,8,0:0:0:0:
339,105,57571,6,0,B|404:109|404:109|378:220,1,179.999994506836,2|0,0:0|0:0,0:0:0:0:
301,269,58100,2,0,P|308:313|334:349,1,89.9999972534181,10|0,0:2|0:0,0:0:0:0:
236,360,58453,1,2,1:2:0:0:
203,276,58629,1,2,0:0:0:0:
112,276,58806,1,10,0:0:0:0:
78,360,58982,6,0,P|36:357|20:317,1,89.9999972534181,2|0,0:0|1:0,0:0:0:0:
30,228,59335,2,0,P|28:138|22:48,1,179.999994506836,2|0,0:0|0:0,0:0:0:0:
112,37,59865,2,0,P|150:58|195:59,1,89.9999972534181,0|0,1:0|0:0,0:0:0:0:
269,8,60218,1,10,0:0:0:0:
269,8,60394,1,0,0:0:0:0:
349,49,60571,6,0,L|351:138,1,89.9999972534181,6|0,1:2|0:0,0:0:0:0:
418,199,60924,1,8,0:0:0:0:
377,277,61100,2,0,P|290:276|240:205,1,179.999994506836,2|2,0:0|0:0,0:0:0:0:
191,129,61629,2,0,P|151:109|106:112,1,89.9999972534181,10|0,0:0|0:0,0:0:0:0:
40,172,61982,5,0,1:0:0:0:
83,250,62159,2,0,B|130:270|165:249|165:249|128:280|127:333,1,179.999994506836,2|0,0:0|0:0,0:0:0:0:
221,326,62688,2,0,P|265:327|306:309,1,89.9999972534181,2|0,1:2|0:0,0:0:0:0:
393,326,63041,2,0,P|416:288|421:243,1,89.9999972534181,10|0,0:0|0:0,0:0:0:0:
352,184,63394,6,0,P|359:104|438:121,1,179.999994506836,2|10,1:2|0:0,0:0:0:0:
338,207,63924,2,0,B|242:187|242:187|207:212|162:202,1,179.999994506836,2|0,0:0|1:0,0:0:0:0:
186,111,64453,1,8,0:0:0:0:
80,44,64629,6,0,L|99:133,1,89.9999972534181,6|0,1:1|0:0,0:0:0:0:
49,208,64982,1,2,1:1:0:0:
128,251,65159,2,0,L|146:339,1,89.9999972534181,10|0,1:1|0:0,0:0:0:0:
179,177,65512,5,2,1:2:0:0:
255,130,65688,1,10,0:0:0:0:
255,130,65776,1,8,0:0:0:0:
255,130,65865,1,8,1:2:0:0:
344,140,66041,2,0,L|339:184,1,44.999998626709,10|8,0:0|0:0,0:0:0:0:
305,215,66218,6,0,P|307:259|332:295,1,89.9999972534181,6|0,1:2|0:0,0:0:0:0:
447,242,66571,2,0,L|431:153,1,89.9999972534181,10|0,0:0|0:0,0:0:0:0:
394,70,66924,1,2,1:2:0:0:
305,88,67101,1,2,0:0:0:0:
219,61,67276,1,10,0:0:0:0:
135,94,67453,6,0,P|124:138|139:179,1,89.9999972534181,2|0,0:0|1:0,0:0:0:0:
117,273,67806,2,0,P|155:197|239:207,1,179.999994506836,2|0,0:0|0:0,0:0:0:0:
306,268,68336,1,2,1:2:0:0:
386,228,68513,1,2,0:0:0:0:
332,155,68689,1,10,0:0:0:0:
412,115,68865,6,0,B|398:8|398:8|378:39|338:45,1,179.999994506836,2|0,0:0|0:0,0:0:0:0:
260,90,69395,2,0,P|233:53|226:9,1,89.9999972534181,10|0,0:0|0:0,0:0:0:0:
136,17,69748,1,2,1:2:0:0:
62,68,69924,1,0,0:0:0:0:
58,158,70101,1,10,0:2:0:0:
116,225,70276,6,0,P|203:229|265:168,1,179.999994506836,2|0,0:0|0:0,0:0:0:0:
331,106,70806,2,0,P|346:146|389:150,1,89.9999972534181,8|0,0:0|0:0,0:0:0:0:
469,180,71160,2,0,P|476:248|477:315,2,134.999995880127,2|2|2,1:2|0:0|0:0,0:0:0:0:
389,238,71866,6,0,B|360:228|330:205|330:205|307:218|264:219,2,134.999995880127,6|2|2,1:2|0:0|1:2,0:0:0:0:
320,117,72571,2,0,P|381:90|447:97,2,134.999995880127,2|2|2,1:2|0:0|0:0,0:0:0:0:
244,66,73277,5,2,0:0:0:0:
156,85,73453,2,0,B|114:202|114:202|61:182,1,179.999994506836,0|0,1:0|0:0,0:0:0:0:
29,266,73982,1,2,1:2:0:0:
66,348,74159,1,8,0:0:0:0:
66,348,74247,1,8,0:0:0:0:
66,348,74335,2,0,P|88:347|114:333,3,44.999998626709,10|8|8|8,0:0|0:0|0:0|0:0,0:0:0:0:
137,301,74688,6,0,P|220:277|294:324,1,179.999994506836,6|0,1:2|0:0,0:0:0:0:
385,330,75218,1,0,1:0:0:0:
451,270,75394,2,0,L|430:182,1,89.9999972534181,10|0,0:0|1:0,0:0:0:0:
347,217,75747,2,0,L|326:129,1,89.9999972534181,2|0,0:0|0:0,0:0:0:0:
334,39,76100,6,0,P|295:17|250:18,1,89.9999972534181,2|0,1:2|0:0,0:0:0:0:
214,101,76453,2,0,L|112:108,1,89.9999972534181,2|0,0:0|1:0,0:0:0:0:
70,34,76806,1,10,0:0:0:0:
30,114,76982,1,0,1:0:0:0:
63,197,77159,2,0,L|197:187,1,134.999995880127,2|0,0:0|1:0,0:0:0:0:
218,185,77512,5,8,1:0:0:0:
294,137,77688,1,8,0:0:0:0:
378,169,77865,1,8,0:0:0:0:
453,120,78041,1,8,1:2:0:0:
453,120,78129,1,8,1:2:0:0:
453,120,78218,2,8,P|443:101|426:86,3,44.999998626709,8|8|8|8,1:2|1:2|1:2|1:2,0:2:0:0:
472,158,78571,2,8,P|482:177|499:192,3,44.999998626709,8|8|8|8,1:2|1:2|1:2|1:2,0:2:0:0:
495,124,78924,5,8,0:1:0:0:
474,270,79100,1,8,0:1:0:0:
474,270,80335,6,0,L|324:258,1,150,8|0,1:2|1:0,0:0:0:0:
275,325,80865,2,0,P|215:282|142:289,1,150,8|0,0:0|1:0,0:0:0:0:
74,337,81394,1,8,0:0:0:0:
18,276,81571,2,0,L|27:231,1,37.5,0|0,1:0|1:0,0:0:0:0:
20,198,81747,6,0,P|55:189|79:161,2,75,8|0|0,0:0|0:0|1:0,0:0:0:0:
57,83,82276,1,8,0:0:0:0:
138,95,82453,1,0,1:0:0:0:
162,173,82629,2,0,B|230:167|230:167|244:155|244:155|307:150,1,150,8|8,0:0|0:0,0:0:0:0:
369,95,83159,5,8,1:0:0:0:
363,242,83512,2,0,P|325:252|289:239,2,75,2|2|2,1:2|0:0|1:2,0:0:0:0:
244,357,84218,1,2,1:2:0:0:
171,318,84394,6,0,L|97:332,1,75,2|0,0:0|1:2,0:0:0:0:
21,364,84747,2,0,P|66:306|56:234,1,150,2|0,0:0|0:0,0:0:0:0:
37,153,85276,1,0,1:0:0:0:
37,153,85453,1,0,0:0:0:0:
90,91,85629,2,0,P|145:81|191:110,1,112.5,2|0,1:1|0:0,0:0:0:0:
190,132,85982,5,6,1:2:0:0:
333,83,86335,2,0,P|328:46|307:15,2,75,2|2|2,1:2|0:0|1:2,0:0:0:0:
440,209,87041,1,2,1:2:0:0:
371,254,87217,6,0,L|385:328,1,75,2|0,0:0|1:2,0:0:0:0:
319,377,87570,2,0,P|274:319|284:247,1,150,2|0,0:0|0:0,0:0:0:0:
236,179,88099,1,0,1:0:0:0:
236,179,88276,1,0,0:0:0:0:
197,106,88452,2,0,P|142:96|96:125,1,112.5,2|0,1:0|0:0,0:0:0:0:
80,144,88806,5,6,1:2:0:0:
63,290,89159,1,2,1:2:0:0:
130,336,89335,1,2,0:0:0:0:
206,304,89512,2,0,L|318:306,2,112.5,2|2|2,1:2|0:0|0:0,0:0:0:0:
140,253,90218,6,0,L|28:255,2,112.5,2|2|2,1:2|0:0|0:0,0:0:0:0:
214,217,90924,2,0,P|228:182|226:145,1,75,2|0,1:2|0:0,0:0:0:0:
156,102,91276,2,0,L|177:30,1,75,2|0,1:2|0:0,0:0:0:0:
288,23,91629,5,12,1:2:0:0:
366,45,91806,1,0,1:2:0:0:
343,124,91982,1,10,1:2:0:0:
265,101,92159,1,0,1:2:0:0:
217,168,92335,2,0,P|220:204|246:231,1,75,10|0,1:2|1:2,0:0:0:0:
222,310,92688,2,0,P|255:324|291:316,1,75,10|0,1:2|1:2,0:0:0:0:
341,250,93041,5,10,1:2:0:0:
318,171,93218,1,0,1:2:0:0:
397,148,93394,1,10,1:2:0:0:
419,227,93571,1,0,1:2:0:0:
341,250,93747,2,0,P|305:253|276:276,1,75,10|0,1:2|1:2,0:0:0:0:
209,324,94100,2,0,P|172:321|143:298,1,75,10|0,1:2|1:2,0:0:0:0:
96,229,94453,6,8,L|89:173,1,37.5,10|8,1:2|1:2,1:2:0:0:
124,167,94629,2,8,L|117:111,1,37.5,8|8,1:2|1:2,1:2:0:0:
155,109,94806,2,8,P|192:112|226:97,1,75,8|8,1:2|1:2,1:2:0:0:
282,36,95159,2,0,L|319:41,1,37.5,8|8,1:2|1:2,0:0:0:0:
335,79,95335,2,0,L|372:84,1,37.5,8|8,1:2|1:2,0:0:0:0:
377,126,95512,2,0,P|373:163|388:197,1,75,8|8,1:2|1:2,0:0:0:0:
475,299,95865,6,0,P|423:318|370:301,2,112.5,10|2|2,1:3|1:3|1:3,0:0:0:0:
256,192,102924,12,8,105041,0:2:0:0:
181,32,105747,6,0,B|162:68|162:68|146:61|128:61,1,75,8|8,0:2|0:2,0:0:0:0:
49,85,106100,1,8,0:2:0:0:
94,153,106276,1,8,0:2:0:0:
26,201,106453,2,0,L|32:245,3,37.5,8|8|8|8,0:2|0:2|0:2|0:2,0:0:0:0:
72,245,106806,2,0,L|67:319,1,75,8|4,0:2|1:2,0:0:0:0:
181,345,107335,5,4,1:2:0:0:
181,345,107512,1,4,1:2:0:0:
386,260,108571,6,0,L|405:364,1,89.9999972534181,4|0,1:2|0:0,0:0:0:0:
446,190,108924,1,2,0:0:0:0:
357,171,109101,1,2,1:2:0:0:
294,236,109277,2,0,P|261:265|217:264,1,89.9999972534181,8|0,0:0|0:0,0:0:0:0:
125,326,109630,1,2,0:0:0:0:
44,288,109807,6,0,L|56:198,1,89.9999972534181,2|0,1:2|0:0,0:0:0:0:
90,64,110159,1,2,1:2:0:0:
128,145,110336,2,0,L|217:132,1,89.9999972534181,2|2,1:2|1:2,0:0:0:0:
328,256,110689,1,8,0:2:0:0:
277,194,110865,1,0,1:2:0:0:
298,117,111042,1,8,0:2:0:0:
371,84,111218,1,0,1:2:0:0:
441,125,111395,6,0,L|426:213,1,89.9999972534181,4|0,1:2|0:0,0:0:0:0:
393,344,111747,1,2,0:0:0:0:
315,298,111924,2,0,P|271:289|229:303,1,89.9999972534181,2|8,1:2|0:0,0:0:0:0:
94,356,112276,1,0,0:0:0:0:
140,277,112453,1,2,0:0:0:0:
113,191,112629,6,0,P|88:153|48:133,1,89.9999972534181,2|0,1:2|0:0,0:0:0:0:
43,10,112982,1,0,1:2:0:0:
115,62,113159,2,0,L|204:54,1,89.9999972534181,0|2,0:0|1:2,0:0:0:0:
205,54,113424,1,0,1:0:0:0:
205,54,113512,1,10,0:3:0:0:
217,141,113688,1,0,1:0:0:0:
287,181,113865,1,10,0:3:0:0:
362,153,114041,1,0,1:0:0:0:
381,73,114218,6,0,P|337:75|300:100,1,89.9999972534181,4|0,1:2|0:0,0:0:0:0:
217,141,114571,1,2,0:0:0:0:
140,94,114747,1,2,1:2:0:0:
55,124,114924,2,0,P|33:163|37:207,1,89.9999972534181,8|0,0:0|0:0,0:0:0:0:
30,331,115276,1,2,0:0:0:0:
101,276,115453,6,0,L|190:285,1,89.9999972534181,2|0,1:2|0:0,0:0:0:0:
275,254,115806,1,0,1:2:0:0:
312,335,115982,2,0,L|401:344,1,89.9999972534181,0|0,1:2|1:0,0:0:0:0:
401,344,116247,1,0,0:0:0:0:
401,344,116335,1,10,0:3:0:0:
424,256,116512,1,0,1:0:0:0:
350,204,116688,1,10,0:3:0:0:
373,116,116865,1,0,1:0:0:0:
