osu file format v14

[General]
AudioFilename: audio.mp3
AudioLeadIn: 0
PreviewTime: 120707
Countdown: 0
SampleSet: Soft
StackLeniency: 0.7
Mode: 0
LetterboxInBreaks: 0
WidescreenStoryboard: 0

[Editor]
DistanceSpacing: 1.2
BeatDivisor: 4
GridSize: 32
TimelineZoom: 1

[Metadata]
Title:DREAMIN' ON
TitleUnicode:DREAMIN' ON
Artist:Da-iCE
ArtistUnicode:Da-iCE
Creator:Andrea
Version:LOST'S INSANE
Source:ONE PIECE
Tags:osuplayer111 Sekai Sekaii Sekai-nyan [_Lost_] Conner C_O_N_N_E_R Sarawatlism AsuKow Grazuko toei animation japanese pop j-pop jpop rock j-rock jrock anime opening 23 op op23 Male Vocalist Vocal Monkey D Luffy モンキー D ルフィ Roronoa Zoro ロロノア ゾロ Nami ナミ Nico Robin ニコ ロビン Usopp ウソップ Sanji サンジ Tony Chopper トニーチョッパー Brook ブルック Franky フランキー Jinbe Jimbei ジンベエ Straw Hat Pirates 麦わらの一味 Mugiwara no Ichimi
BeatmapID:3768572
BeatmapSetID:1835599

[Difficulty]
HPDrainRate:5.5
CircleSize:4
OverallDifficulty:8
ApproachRate:8.6
SliderMultiplier:1.73
SliderTickRate:1

[Events]
//Background and Video events
0,0,"INSANE BG.jpg",0,0
//Break Periods
2,158495,168930
//Storyboard Layer 0 (Background)
//Storyboard Layer 1 (Fail)
//Storyboard Layer 2 (Pass)
//Storyboard Layer 3 (Foreground)
//Storyboard Layer 4 (Overlay)
//Storyboard Sound Samples

[TimingPoints]
1590,352.941176470588,4,2,2,60,1,0
1590,-142.857142857143,4,2,2,60,0,0
2295,-142.857142857143,4,2,1,60,0,0
3001,-142.857142857143,4,2,2,60,0,0
3618,-142.857142857143,4,2,2,5,0,0
3706,-142.857142857143,4,2,2,60,0,0
5119,-142.857142857143,4,2,1,60,0,0
5825,-142.857142857143,4,2,2,60,0,0
6442,-142.857142857143,4,2,2,5,0,0
6530,-142.857142857143,4,2,2,60,0,0
7237,-133.333333333333,4,2,2,60,0,0
7766,-133.333333333333,4,2,1,60,0,0
7942,-133.333333333333,4,2,2,60,0,0
8295,-133.333333333333,4,2,1,60,0,0
8648,-133.333333333333,4,2,2,60,0,0
9618,-133.333333333333,4,2,2,5,0,0
9707,-133.333333333333,4,2,1,60,0,0
10060,-133.333333333333,4,2,2,70,0,0
10766,-111.111111111111,4,2,2,70,0,0
14119,-111.111111111111,4,2,2,5,0,0
14295,-100,4,2,1,70,0,0
15795,-100,4,2,1,5,0,0
15884,-100,4,2,1,70,0,0
18618,-100,4,2,1,5,0,0
18707,-100,4,2,1,70,0,0
21442,-100,4,2,1,5,0,0
21531,-100,4,2,1,70,0,0
24001,-90.9090909090909,4,2,1,70,0,0
24265,-90.9090909090909,4,2,1,5,0,0
24354,-90.9090909090909,4,2,1,70,0,0
25589,-125,4,2,1,60,0,0
36354,-166.666666666667,4,2,1,60,0,0
36707,-100,4,2,1,70,0,0
36971,-100,4,2,1,5,0,0
37060,-100,4,2,1,70,0,0
38383,-100,4,2,1,5,0,0
38472,-100,4,2,1,70,0,0
39795,-100,4,2,1,5,0,0
39884,-100,4,2,1,70,0,0
41206,-100,4,2,1,5,0,0
41295,-100,4,2,1,70,0,0
42618,-100,4,2,1,5,0,0
42707,-100,4,2,1,70,0,0
47472,-90.9090909090909,4,2,1,70,0,0
47825,-111.111111111111,4,2,1,70,0,0
48178,-142.857142857143,4,2,1,60,0,0
53119,-90.9090909090909,4,2,1,60,0,0
53472,-83.3333333333333,4,2,1,60,0,0
53648,-83.3333333333333,4,2,1,70,0,0
53825,-142.857142857143,4,2,1,70,0,0
54089,-142.857142857143,4,2,1,5,0,0
54178,-142.857142857143,4,2,1,70,0,0
54354,-83.3333333333333,4,2,1,70,0,0
54884,-100,4,2,1,70,0,0
55237,-142.857142857143,4,2,1,70,0,0
55501,-142.857142857143,4,2,1,5,0,0
55589,-142.857142857143,4,2,1,70,0,0
55766,-83.3333333333333,4,2,1,70,0,0
56295,-90.9090909090909,4,2,1,70,0,0
57001,-90.9090909090909,4,2,1,70,0,0
58060,-83.3333333333333,4,2,1,70,0,0
59295,-76.9230769230769,4,2,1,70,0,0
59559,-76.9230769230769,4,2,1,5,0,0
59648,-76.9230769230769,4,2,1,70,0,0
60178,-76.9230769230769,4,2,1,50,0,0
60354,-200,4,2,1,50,0,0
60884,-86.9565217391304,4,2,2,80,0,1
61236,-86.9565217391304,4,2,1,80,0,1
62295,-86.9565217391304,4,2,2,80,0,1
62472,-86.9565217391304,4,2,1,80,0,1
63001,-86.9565217391304,4,2,2,80,0,1
63177,-86.9565217391304,4,2,1,80,0,1
63707,-86.9565217391304,4,2,2,80,0,1
63884,-86.9565217391304,4,2,1,80,0,1
65119,-86.9565217391304,4,2,2,80,0,1
66442,-86.9565217391304,4,2,1,5,0,1
66531,-86.9565217391304,4,2,2,80,0,1
67060,-86.9565217391304,4,2,1,80,0,1
67942,-86.9565217391304,4,2,2,80,0,1
68118,-86.9565217391304,4,2,1,80,0,1
68648,-86.9565217391304,4,2,2,80,0,1
68913,-86.9565217391304,4,2,2,5,0,1
69001,-86.9565217391304,4,2,1,80,0,1
69354,-86.9565217391304,4,2,2,80,0,1
69531,-86.9565217391304,4,2,1,80,0,1
70589,-80,4,2,2,80,0,1
70766,-80,4,2,1,80,0,1
70853,-80,4,2,1,5,0,1
70942,-80,4,2,1,80,0,1
72178,-86.9565217391304,4,2,2,80,0,1
72442,-86.9565217391304,4,2,2,5,0,1
72530,-86.9565217391304,4,2,1,80,0,1
73589,-86.9565217391304,4,2,2,80,0,1
73766,-86.9565217391304,4,2,1,80,0,1
75001,-86.9565217391304,4,2,2,80,0,1
75353,-86.9565217391304,4,2,1,80,0,1
76413,-86.9565217391304,4,2,2,80,0,1
76677,-86.9565217391304,4,2,2,5,0,1
76766,-86.9565217391304,4,2,2,80,0,1
77295,-86.9565217391304,4,2,1,80,0,1
77825,-80,4,2,1,80,0,1
78089,-80,4,2,1,5,0,1
78178,-80,4,2,1,80,0,1
78354,-86.9565217391304,4,2,1,80,0,1
78618,-86.9565217391304,4,2,1,5,0,1
78707,-86.9565217391304,4,2,1,80,0,1
78884,-95.2380952380952,4,2,1,80,0,1
79589,-105.263157894737,4,2,1,80,0,1
80648,-117.647058823529,4,2,2,80,0,1
81000,-117.647058823529,4,2,1,80,0,1
82060,-117.647058823529,4,2,2,80,0,1
82412,-117.647058823529,4,2,1,80,0,1
83472,-117.647058823529,4,2,2,80,0,1
84178,-86.9565217391304,4,2,2,80,0,1
84884,-86.9565217391304,4,2,2,80,0,0
86295,-100,4,2,1,70,0,0
87795,-100,4,2,1,5,0,0
87884,-100,4,2,1,70,0,0
90618,-100,4,2,1,5,0,0
90707,-100,4,2,1,70,0,0
93442,-100,4,2,1,5,0,0
93531,-100,4,2,1,70,0,0
96001,-90.9090909090909,4,2,1,70,0,0
96265,-90.9090909090909,4,2,1,5,0,0
96354,-90.9090909090909,4,2,1,70,0,0
97589,-100,4,2,1,70,0,0
97853,-100,4,2,1,5,0,0
97941,-100,4,2,1,70,0,0
99089,-100,4,2,1,5,0,0
99178,-100,4,2,1,70,0,0
100501,-100,4,2,1,5,0,0
100589,-100,4,2,1,70,0,0
101912,-100,4,2,1,5,0,0
102001,-100,4,2,1,70,0,0
103324,-100,4,2,1,5,0,0
103413,-100,4,2,1,70,0,0
106324,-100,4,2,1,5,0,0
106412,-100,4,2,1,70,0,0
107736,-100,4,2,1,5,0,0
107824,-100,4,2,1,70,0,0
108178,-90.9090909090909,4,2,1,70,0,0
108531,-111.111111111111,4,2,1,70,0,0
108884,-142.857142857143,4,2,1,60,0,0
111265,-142.857142857143,4,2,1,5,0,0
111354,-142.857142857143,4,2,1,60,0,0
113825,-90.9090909090909,4,2,1,60,0,0
114178,-83.3333333333333,4,2,1,60,0,0
114354,-83.3333333333333,4,2,1,70,0,0
114531,-142.857142857143,4,2,1,70,0,0
114795,-142.857142857143,4,2,1,5,0,0
114884,-142.857142857143,4,2,1,70,0,0
115060,-83.3333333333333,4,2,1,70,0,0
115942,-142.857142857143,4,2,1,70,0,0
116472,-83.3333333333333,4,2,1,70,0,0
116736,-83.3333333333333,4,2,1,5,0,0
116825,-83.3333333333333,4,2,1,70,0,0
117001,-90.9090909090909,4,2,1,70,0,0
118766,-83.3333333333333,4,2,1,70,0,0
120001,-76.9230769230769,4,2,1,70,0,0
120265,-76.9230769230769,4,2,1,5,0,0
120354,-76.9230769230769,4,2,1,70,0,0
120884,-76.9230769230769,4,2,1,50,0,0
121060,-200,4,2,1,50,0,0
121589,-86.9565217391304,4,2,2,80,0,1
121941,-86.9565217391304,4,2,1,80,0,1
123000,-86.9565217391304,4,2,2,80,0,1
123177,-86.9565217391304,4,2,1,80,0,1
123706,-86.9565217391304,4,2,2,80,0,1
123882,-86.9565217391304,4,2,1,80,0,1
124412,-86.9565217391304,4,2,2,80,0,1
124589,-86.9565217391304,4,2,1,80,0,1
125824,-86.9565217391304,4,2,2,80,0,1
127148,-86.9565217391304,4,2,1,5,0,1
127236,-86.9565217391304,4,2,2,80,0,1
127765,-86.9565217391304,4,2,1,80,0,1
128647,-86.9565217391304,4,2,2,80,0,1
128823,-86.9565217391304,4,2,1,80,0,1
129353,-86.9565217391304,4,2,2,80,0,1
129530,-86.9565217391304,4,2,1,80,0,1
129617,-86.9565217391304,4,2,1,5,0,1
129706,-86.9565217391304,4,2,1,80,0,1
130060,-86.9565217391304,4,2,2,80,0,1
130236,-86.9565217391304,4,2,1,80,0,1
131295,-80,4,2,2,80,0,1
131471,-80,4,2,1,80,0,1
131559,-80,4,2,1,5,0,1
131647,-80,4,2,1,80,0,1
132884,-86.9565217391304,4,2,2,80,0,1
133236,-86.9565217391304,4,2,1,80,0,1
134294,-86.9565217391304,4,2,2,80,0,1
134471,-86.9565217391304,4,2,1,80,0,1
135706,-86.9565217391304,4,2,2,80,0,1
136058,-86.9565217391304,4,2,1,80,0,1
137118,-86.9565217391304,4,2,2,80,0,1
137382,-86.9565217391304,4,2,2,5,0,1
137471,-86.9565217391304,4,2,2,80,0,1
138000,-86.9565217391304,4,2,1,80,0,1
138531,-80,4,2,1,80,0,1
138795,-80,4,2,1,5,0,1
138884,-80,4,2,1,80,0,1
139060,-86.9565217391304,4,2,1,80,0,1
139324,-86.9565217391304,4,2,1,5,0,1
139412,-86.9565217391304,4,2,1,80,0,1
139589,-95.2380952380952,4,2,1,80,0,1
140295,-105.263157894737,4,2,1,80,0,1
141353,-105.263157894737,4,2,2,80,0,1
141705,-105.263157894737,4,2,1,80,0,1
142059,-117.647058823529,4,2,1,80,0,1
142765,-117.647058823529,4,2,2,80,0,1
143117,-117.647058823529,4,2,1,80,0,1
144178,-117.647058823529,4,2,2,80,0,1
144354,-117.647058823529,4,2,1,80,0,1
146295,-86.9565217391304,4,2,1,80,0,1
147001,-86.9565217391304,4,2,1,70,0,0
155119,-133.333333333333,4,2,1,70,0,0
155384,-133.333333333333,4,2,1,5,0,0
155472,-86.9565217391304,4,2,1,70,0,0
155736,-86.9565217391304,4,2,1,5,0,0
155825,-86.9565217391304,4,2,1,70,0,0
156884,-80,4,2,1,70,0,0
157148,-80,4,2,1,5,0,0
157237,-80,4,2,1,70,0,0
158295,-80,4,2,1,60,0,0
169589,-117.647058823529,4,2,1,60,0,0
170559,-117.647058823529,4,2,1,5,0,0
170648,-117.647058823529,4,2,1,60,0,0
177618,-117.647058823529,4,2,1,5,0,0
177707,-117.647058823529,4,2,1,60,0,0
178060,-117.647058823529,4,2,1,70,0,0
178766,-86.9565217391304,4,2,1,70,0,0
181237,-80,4,2,1,70,0,0
182295,-76.9230769230769,4,2,1,50,0,0
183707,-142.857142857143,4,2,1,60,0,0
189354,-142.857142857143,4,2,1,50,0,0
191472,-142.857142857143,4,2,1,70,0,0
191648,-166.666666666667,4,2,1,70,0,0
192001,-166.666666666667,4,2,1,5,0,0
192178,-166.666666666667,4,2,1,70,0,0
192884,-90.9090909090909,4,2,1,70,0,0
193413,-80,4,2,1,70,0,0
193677,-80,4,2,1,5,0,0
193766,-80,4,2,1,70,0,0
194295,-80,4,2,1,50,0,0
194472,-200,4,2,1,50,0,0
195001,-86.9565217391304,4,2,1,80,0,1
196413,-86.9565217391304,4,2,2,80,0,1
196589,-86.9565217391304,4,2,1,80,0,1
197119,-86.9565217391304,4,2,2,80,0,1
197295,-86.9565217391304,4,2,1,80,0,1
197825,-86.9565217391304,4,2,2,80,0,1
198001,-86.9565217391304,4,2,1,80,0,1
199237,-86.9565217391304,4,2,2,80,0,1
200560,-86.9565217391304,4,2,1,5,0,1
200648,-86.9565217391304,4,2,2,80,0,1
201178,-86.9565217391304,4,2,1,80,0,1
202060,-86.9565217391304,4,2,2,80,0,1
202236,-86.9565217391304,4,2,1,80,0,1
202766,-86.9565217391304,4,2,2,80,0,1
203031,-86.9565217391304,4,2,2,5,0,1
203119,-86.9565217391304,4,2,1,80,0,1
203472,-86.9565217391304,4,2,2,80,0,1
203648,-86.9565217391304,4,2,1,80,0,1
204707,-80,4,2,2,80,0,1
204883,-80,4,2,1,80,0,1
204971,-80,4,2,1,5,0,1
205060,-80,4,2,1,80,0,1
206296,-86.9565217391304,4,2,2,80,0,1
206648,-86.9565217391304,4,2,1,80,0,1
207707,-86.9565217391304,4,2,2,80,0,1
207883,-86.9565217391304,4,2,1,80,0,1
208324,-86.9565217391304,4,2,1,5,0,1
208412,-86.9565217391304,4,2,1,80,0,1
209119,-86.9565217391304,4,2,2,80,0,1
209471,-86.9565217391304,4,2,1,80,0,1
210531,-86.9565217391304,4,2,2,80,0,1
210795,-86.9565217391304,4,2,2,5,0,1
210884,-86.9565217391304,4,2,2,80,0,1
211413,-86.9565217391304,4,2,1,80,0,1
211942,-80,4,2,1,80,0,1
212207,-80,4,2,1,5,0,1
212295,-80,4,2,1,80,0,1
212472,-86.9565217391304,4,2,1,80,0,1
212736,-86.9565217391304,4,2,1,5,0,1
212825,-86.9565217391304,4,2,1,80,0,1
213001,-95.2380952380952,4,2,1,80,0,1
213707,-105.263157894737,4,2,1,80,0,1
214766,-117.647058823529,4,2,2,80,0,1
215118,-117.647058823529,4,2,1,80,0,1
216178,-117.647058823529,4,2,2,80,0,1
216530,-117.647058823529,4,2,1,80,0,1
217590,-117.647058823529,4,2,2,80,0,1
218296,-86.9565217391304,4,2,2,80,0,1
219001,-86.9565217391304,4,2,2,80,0,0
220413,-100,4,2,1,70,0,0
221913,-100,4,2,1,5,0,0
222002,-100,4,2,1,70,0,0
224736,-100,4,2,1,5,0,0
224825,-100,4,2,1,70,0,0
227560,-100,4,2,1,5,0,0
227649,-100,4,2,1,70,0,0

[Colours]
Combo1 : 101,105,154
Combo2 : 170,85,85
Combo3 : 210,108,136

[HitObjects]
171,96,1590,6,0,B|108:-6|7:22|22:151|110:117,1,242.199992608643,6|2,1:0|2:0,2:0:0:0:
323,96,3001,2,0,B|385:-6|486:22|471:151|383:117,1,242.199992608643,2|2,2:0|2:0,2:0:0:0:
118,357,4413,6,0,B|109:297|75:197|75:197|111:241|161:246,1,242.199992608643,6|2,1:0|2:0,2:0:0:0:
394,357,5825,2,0,B|403:297|437:197|437:197|401:241|351:246,1,242.199992608643,6|6,1:0|1:0,2:0:0:0:
312,193,6707,1,8,3:0:0:0:
334,117,6884,2,0,P|374:123|401:135,1,60.5499981521607,8|8,3:0|3:0,2:0:0:0:
185,0,7237,6,0,P|158:66|190:120,1,129.75000494957,6|0,1:0|1:0,2:0:0:0:
234,181,7766,1,2,2:0:0:0:
168,233,7942,2,0,P|136:225|104:218,1,64.8750024747849,2|0,1:0|2:0,2:0:0:0:
230,293,8295,2,0,P|261:285|293:278,1,64.8750024747849,2|2,1:0|2:0,2:0:0:0:
418,240,8648,6,0,P|386:232|354:225,1,64.8750024747849,2|0,1:0|2:0,2:0:0:0:
430,320,9001,2,0,P|461:312|493:305,1,64.8750024747849,0|0,1:0|2:0,2:0:0:0:
512,216,9354,2,0,P|479:225|413:241,1,97.3125037121774,2|0,1:0|2:0,2:0:0:0:
417,239,9707,2,0,P|424:207|431:175,1,64.8750024747849,2|2,1:0|2:0,2:0:0:0:
239,68,10060,5,6,1:0:0:0:
335,145,10237,1,8,2:0:0:0:
168,120,10413,1,8,2:0:0:0:
335,28,10589,1,8,2:0:0:0:
335,28,10678,1,8,2:0:0:0:
335,28,10766,6,0,P|327:57|320:78,3,38.9249988121033,8|8|8|8,2:0|2:0|2:0|2:0,2:0:0:0:
335,145,11119,2,0,P|328:167|325:185,3,38.9249988121033,8|8|8|8,2:0|2:0|2:0|2:0,2:0:0:0:
344,266,11472,5,8,2:0:0:0:
168,120,11648,1,8,2:0:0:0:
256,192,12707,12,0,14119,2:0:0:0:
168,120,14295,6,0,B|220:95|255:138|247:137|278:185|342:161,1,173,6|2,1:0|2:0,2:0:0:0:
410,106,14825,1,0,1:0:0:0:
354,18,15001,2,0,P|303:29|254:36,1,86.5,10|0,2:0|2:0,2:0:0:0:
410,106,15354,1,2,2:0:0:0:
490,0,15531,6,0,L|490:132,1,129.75,0|0,1:0|2:0,2:0:0:0:
490,157,15884,1,0,1:0:0:0:
403,214,16060,1,0,1:0:0:0:
474,321,16237,1,2,2:0:0:0:
474,321,16325,1,2,2:0:0:0:
474,321,16413,2,0,P|480:278|490:236,1,86.5,8|0,2:0|1:0,2:0:0:0:
311,315,16766,2,0,P|362:304|411:297,1,86.5,2|0,2:0|1:0,2:0:0:0:
253,247,17119,6,0,B|197:231|172:271|184:270|158:317|88:306,1,173,4|2,1:0|2:0,2:0:0:0:
26,234,17648,1,0,1:0:0:0:
101,144,17825,2,0,P|120:184|110:232,1,86.5,10|0,2:0|2:0,2:0:0:0:
18,127,18178,1,2,2:0:0:0:
193,0,18354,6,0,L|193:134,1,129.75,0|0,1:0|2:0,2:0:0:0:
193,151,18707,1,0,1:0:0:0:
270,64,18884,1,2,1:0:0:0:
349,171,19060,1,2,1:0:0:0:
349,171,19148,1,0,1:0:0:0:
349,171,19237,2,0,P|299:141|268:144,1,86.5,8|0,2:0|1:0,2:0:0:0:
392,244,19589,1,2,1:0:0:0:
257,278,19766,1,0,1:0:0:0:
257,278,19854,1,0,1:0:0:0:
257,278,19942,6,0,P|287:231|395:247,1,173,4|2,1:0|2:0,2:0:0:0:
452,328,20472,1,0,1:0:0:0:
354,364,20648,2,0,P|368:320|376:275,1,86.5,10|0,2:0|2:0,2:0:0:0:
183,312,21001,1,2,2:0:0:0:
257,127,21178,6,0,L|257:269,1,129.75,0|0,1:0|2:0,2:0:0:0:
257,278,21531,1,0,1:0:0:0:
173,202,21707,1,2,1:0:0:0:
94,326,21884,1,2,2:0:0:0:
94,326,21972,1,2,2:0:0:0:
94,326,22060,2,0,P|143:312|182:302,1,86.5,8|0,2:0|1:0,2:0:0:0:
173,202,22413,2,0,P|124:216|85:226,1,86.5,2|0,2:0|1:0,2:0:0:0:
257,127,22766,6,0,P|298:137|340:149,1,86.5,6|0,1:0|2:0,2:0:0:0:
386,243,23119,1,2,2:0:0:0:
448,160,23295,1,0,1:0:0:0:
386,243,23472,2,0,P|344:232|302:220,1,86.5,10|0,2:0|2:0,2:0:0:0:
257,127,23825,1,2,2:0:0:0:
340,6,24001,6,0,L|340:152,1,142.725004355621,2|0,1:0|2:0,2:0:0:0:
340,149,24354,1,2,1:0:0:0:
239,46,24531,1,0,1:0:0:0:
148,157,24707,1,2,1:0:0:0:
148,157,24795,1,0,1:0:0:0:
148,157,24884,2,0,P|204:138|252:126,1,95.1500029037476,8|2,2:0|2:0,2:0:0:0:
88,58,25237,1,0,1:0:0:0:
28,217,25413,1,2,1:0:0:0:
28,217,25501,1,2,1:0:0:0:
28,217,25589,6,0,B|75:203|100:229|96:229|121:253|162:243,1,138.4,4|0,1:0|1:0,2:0:0:0:
232,204,26119,1,2,2:0:0:0:
295,257,26295,2,0,P|329:248|361:237,1,69.2,0|2,1:0|2:0,2:0:0:0:
374,154,26648,2,0,P|340:163|308:174,1,69.2,0|2,1:0|2:0,2:0:0:0:
151,97,27001,6,0,P|196:68|266:135,1,138.4,0|0,1:0|1:0,2:0:0:0:
307,174,27531,1,2,2:0:0:0:
209,247,27707,2,0,P|217:213|227:180,1,69.2,0|2,1:0|2:0,2:0:0:0:
287,276,28060,2,0,P|278:309|268:342,1,69.2,0|2,1:0|2:0,2:0:0:0:
123,353,28413,6,0,P|176:339|208:331,1,69.2,0|2,1:0|2:0,2:0:0:0:
209,247,28766,2,0,P|144:266|64:286,2,138.4,0|0|0,1:0|1:0|1:0,2:0:0:0:
264,185,29648,1,2,2:0:0:0:
202,128,29825,6,0,P|159:140|132:152,1,69.2,0|2,1:0|2:0,2:0:0:0:
264,185,30178,2,0,P|297:176|330:165,1,69.2,0|2,1:0|2:0,2:0:0:0:
381,87,30531,1,0,1:0:0:0:
318,32,30707,1,2,2:0:0:0:
381,87,30884,2,0,P|394:48|406:14,1,69.2,0|2,1:0|2:0,2:0:0:0:
443,144,31237,6,0,P|430:183|418:217,1,69.2,0|2,1:0|2:0,2:0:0:0:
352,256,31589,2,0,B|402:251|423:285|417:284|435:315|473:313,2,138.4,0|0|0,1:0|1:0|1:0,2:0:0:0:
297,319,32472,1,2,2:0:0:0:
211,259,32648,6,0,P|261:246|286:236,1,69.2,0|2,1:0|2:0,2:0:0:0:
145,299,33001,2,0,P|112:287|78:279,1,69.2,0|2,1:0|2:0,2:0:0:0:
31,183,33354,2,0,P|63:194|97:202,1,69.2,0|2,1:0|2:0,2:0:0:0:
198,120,33707,2,0,P|180:157|172:193,1,69.2,0|2,1:0|2:0,2:0:0:0:
277,239,34060,6,0,B|227:234|206:268|212:267|194:298|156:296,2,138.4,0|0|0,1:0|1:0|1:0,2:0:0:0:
344,189,34942,1,2,2:0:0:0:
198,120,35119,1,2,1:0:0:0:
198,120,35207,1,0,1:0:0:0:
198,120,35295,5,8,2:0:0:0:
327,310,35648,1,8,2:0:0:0:
327,310,36354,6,0,P|365:300|385:295,1,51.8999984161377,2|2,2:0|2:0,2:0:0:0:
485,201,36707,6,0,B|408:224|408:224|372:210|377:178,1,129.75,6|0,1:0|2:0,2:0:0:0:
377,168,37060,1,0,1:0:0:0:
473,46,37237,2,0,P|462:87|450:134,1,86.5,8|2,2:0|2:0,2:0:0:0:
306,58,37589,2,0,P|347:47|394:35,1,86.5,2|0,1:0|1:0,2:0:0:0:
252,127,37942,1,8,2:0:0:0:
172,0,38119,6,0,L|172:153,1,129.75,2|0,1:0|2:0,2:0:0:0:
172,157,38472,1,0,1:0:0:0:
23,129,38648,2,0,P|66:97|104:97,1,86.5,8|2,2:0|2:0,2:0:0:0:
100,263,39001,2,0,P|74:225|87:185,1,86.5,0|2,1:0|1:0,2:0:0:0:
185,244,39354,1,8,2:0:0:0:
73,350,39531,6,0,B|124:342|124:342|155:351|155:351|206:341,1,129.75,2|0,1:0|2:0,2:0:0:0:
228,335,39884,1,0,1:0:0:0:
354,239,40060,2,0,P|309:248|262:259,1,86.5,8|0,2:0|2:0,2:0:0:0:
410,355,40413,2,0,P|436:317|423:277,1,86.5,0|0,1:0|1:0,2:0:0:0:
269,257,40766,1,10,2:0:0:0:
368,88,40942,6,0,B|360:137|360:137|366:164|366:164|356:215,1,129.75,0|0,1:0|2:0,2:0:0:0:
354,239,41295,1,0,1:0:0:0:
274,146,41472,1,8,2:0:0:0:
354,239,41648,1,2,1:0:0:0:
172,170,41825,2,0,P|214:160|256:151,1,86.5,2|0,1:0|1:0,2:0:0:0:
274,146,42089,1,0,1:0:0:0:
274,146,42178,1,10,2:0:0:0:
115,250,42354,6,0,P|66:200|80:141,1,129.75,4|0,1:0|2:0,2:0:0:0:
90,122,42707,1,0,1:0:0:0:
256,151,42884,2,0,P|214:160|172:170,1,86.5,8|2,2:0|2:0,2:0:0:0:
66,34,43237,2,0,B|120:14|148:54|135:54|176:91|224:79,1,173,0|8,1:0|2:0,2:0:0:0:
303,12,43766,1,2,1:0:0:0:
381,129,43942,6,0,P|392:73|401:40,1,86.5,2|0,1:0|1:0,2:0:0:0:
419,33,44207,1,0,1:0:0:0:
419,33,44295,2,0,P|408:89|399:122,1,86.5,10|0,2:0|2:0,2:0:0:0:
310,216,44648,2,0,P|299:174|291:131,1,86.5,2|0,1:0|1:0,2:0:0:0:
290,112,44913,1,0,1:0:0:0:
290,112,45001,1,10,2:0:0:0:
413,206,45178,1,0,1:0:0:0:
234,292,45354,6,0,B|292:273|314:322|307:322|334:360|391:349,2,173,2|10|0,1:0|2:0|1:0,2:0:0:0:
153,358,46237,1,0,1:0:0:0:
108,264,46413,1,10,2:0:0:0:
11,346,46589,1,2,2:0:0:0:
11,346,46678,1,2,2:0:0:0:
11,346,46766,6,0,B|117:326|117:326|128:286|100:255,1,173,2|8,1:0|2:0,2:0:0:0:
0,153,47295,1,8,2:0:0:0:
0,153,47384,1,8,2:0:0:0:
0,153,47472,6,0,P|16:222|25:260,1,95.1500029037476,8|8,2:0|2:0,2:0:0:0:
113,102,47825,6,0,P|104:140|97:179,1,77.8499976242066,8|8,2:0|2:0,2:0:0:0:
67,39,48178,6,0,P|125:16|169:50,1,121.099996304321,6|0,1:0|1:0,2:0:0:0:
206,123,48707,1,0,1:0:0:0:
301,0,48884,2,0,P|293:59|286:132,1,121.099996304321,8|0,2:0|1:0,2:0:0:0:
265,207,49413,1,0,1:0:0:0:
265,207,49589,6,0,P|307:193|332:186,1,60.5499981521607,2|8,2:0|2:0,2:0:0:0:
207,265,49942,2,0,P|177:256|149:246,1,60.5499981521607,0|0,1:0|1:0,2:0:0:0:
262,332,50295,2,0,B|304:321|324:346|319:347|341:369|380:362,1,121.099996304321,10|0,2:0|1:0,2:0:0:0:
436,315,50825,1,0,1:0:0:0:
382,176,51001,6,0,P|321:193|255:209,1,121.099996304321,4|2,1:0|1:0,2:0:0:0:
197,169,51531,1,0,1:0:0:0:
244,104,51707,2,0,P|281:109|305:116,2,60.5499981521607,8|2|0,2:0|2:0|1:0,2:0:0:0:
162,94,52237,6,0,P|177:43|182:17,1,60.5499981521607,2|0,1:0|2:0,2:0:0:0:
112,0,52589,2,0,P|97:51|92:77,1,60.5499981521607,8|0,2:0|1:0,2:0:0:0:
26,102,52942,1,0,1:0:0:0:
119,232,53119,6,0,P|109:186|96:130,1,95.1500029037476,12|0,2:0|2:0,2:0:0:0:
200,0,53472,6,0,P|187:50|173:105,1,103.799996832275,8|2,2:0|1:0,2:0:0:0:
340,147,53825,6,0,P|272:162|230:171,1,90.8249972282411,4|0,1:0|2:0,2:0:0:0:
225,171,54178,1,8,2:0:0:0:
394,279,54354,6,0,P|424:229|410:171,1,103.799996832275,10|0,1:0|1:0,2:0:0:0:
227,245,54707,5,0,1:0:0:0:
323,362,54884,2,0,P|312:311|304:270,1,86.5,10|0,2:0|1:0,2:0:0:0:
123,357,55237,6,0,P|186:342|225:334,1,90.8249972282411,0|0,1:0|2:0,2:0:0:0:
231,332,55589,1,8,2:0:0:0:
218,158,55766,6,0,P|165:173|105:186,1,103.799996832275,10|0,1:0|1:0,2:0:0:0:
305,277,56119,5,0,1:0:0:0:
141,266,56295,2,0,P|195:252|249:239,1,95.1500029037476,8|2,2:0|2:0,2:0:0:0:
334,126,56648,6,0,P|287:137|241:149,1,95.1500029037476,4|2,1:0|2:0,2:0:0:0:
218,158,56913,1,2,2:0:0:0:
218,158,57001,1,8,2:0:0:0:
361,218,57178,1,2,2:0:0:0:
361,13,57354,2,0,P|349:59|337:105,1,95.1500029037476,2|0,1:0|1:0,2:0:0:0:
334,126,57619,1,0,1:0:0:0:
334,126,57707,1,8,2:0:0:0:
240,20,57884,1,2,2:0:0:0:
94,185,58060,6,0,B|158:162|196:211|187:213|226:254|285:233,1,207.599993664551,4|8,1:0|2:0,2:0:0:0:
334,126,58589,1,0,2:0:0:0:
242,40,58766,2,0,P|191:44|148:80,1,103.799996832275,2|0,1:0|1:0,2:0:0:0:
253,147,59119,1,8,2:0:0:0:
360,0,59295,6,0,L|360:177,1,168.674992278672,4|0,1:0|2:0,2:0:0:0:
360,204,59648,1,8,2:0:0:0:
469,60,59825,1,8,2:0:0:0:
469,60,60178,5,2,2:0:0:0:
493,130,60354,2,0,P|457:105|415:99,1,86.5,2|2,2:0|2:0,2:0:0:0:
347,307,60884,6,0,B|448:275|448:275|475:231|440:185,1,198.95000379467,6|10,1:0|2:0,2:0:0:0:
329,131,61413,1,0,2:0:0:0:
264,231,61589,2,0,P|346:207|378:199,1,99.4750018973351,0|2,1:0|2:0,2:0:0:0:
222,323,61942,2,0,P|173:310|126:295,1,99.4750018973351,8|2,2:0|2:0,2:0:0:0:
85,175,62295,6,0,B|151:149|187:196|176:199|216:244|267:230,1,198.95000379467,2|8,1:0|2:0,2:0:0:0:
329,131,62825,1,0,2:0:0:0:
210,48,63001,2,0,P|231:105|243:157,1,99.4750018973351,2|2,1:0|2:0,2:0:0:0:
346,243,63354,1,8,2:0:0:0:
479,94,63531,1,2,2:0:0:0:
479,94,63619,1,2,2:0:0:0:
479,94,63707,6,0,B|360:65|360:65|321:90|330:140,2,198.95000379467,2|8|0,1:0|2:0|1:0,2:0:0:0:
406,198,64589,1,2,2:0:0:0:
491,270,64766,2,0,P|502:213|513:172,1,99.4750018973351,8|2,2:0|2:0,2:0:0:0:
406,0,65119,6,0,L|406:198,1,198.95000379467,2|8,1:0|2:0,2:0:0:0:
359,309,65648,1,0,2:0:0:0:
245,242,65825,2,0,P|299:208|346:215,1,99.4750018973351,2|0,1:0|2:0,2:0:0:0:
186,338,66178,2,0,P|115:350|78:269,1,149.212502846003,8|0,2:0|2:0,2:0:0:0:
80,261,66531,6,0,B|146:235|182:282|171:285|211:330|262:316,1,198.95000379467,6|8,1:0|2:0,2:0:0:0:
332,210,67060,1,2,2:0:0:0:
242,137,67237,2,0,P|226:187|247:236,1,99.4750018973351,0|2,1:0|2:0,2:0:0:0:
335,116,67589,2,0,P|351:66|330:17,1,99.4750018973351,8|0,2:0|2:0,2:0:0:0:
162,67,67942,6,0,P|234:52|273:40,1,99.4750018973351,2|2,1:0|2:0,2:0:0:0:
117,149,68295,2,0,P|69:135|20:126,1,99.4750018973351,8|0,2:0|2:0,2:0:0:0:
117,0,68648,2,0,L|117:151,1,149.212502846003,2|0,1:0|2:0,2:0:0:0:
115,183,69001,2,0,P|155:144|202:143,1,99.4750018973351,8|0,2:0|2:0,2:0:0:0:
312,256,69354,6,0,B|210:236|210:236|170:188|216:139,1,198.95000379467,2|8,1:0|2:0,2:0:0:0:
346,180,69884,1,2,2:0:0:0:
315,33,70060,2,0,P|291:88|280:140,1,99.4750018973351,0|0,1:0|1:0,2:0:0:0:
499,146,70413,1,8,2:0:0:0:
420,0,70589,6,0,B|420:175,1,162.1875,6|0,1:0|2:0,2:0:0:0:
421,192,70942,1,2,1:0:0:0:
257,221,71119,2,0,P|304:178|360:187,1,108.125,8|0,2:0|2:0,2:0:0:0:
298,300,71472,5,0,1:0:0:0:
179,168,71648,1,8,2:0:0:0:
179,168,71737,1,8,2:0:0:0:
179,168,71825,1,8,2:0:0:0:
119,322,72001,1,8,2:0:0:0:
119,322,72089,1,8,2:0:0:0:
119,322,72178,6,0,B|240:296|240:296|265:259|233:214,1,198.95000379467,6|10,1:0|2:0,2:0:0:0:
113,118,72707,1,2,2:0:0:0:
90,224,72884,2,0,P|137:187|192:186,1,99.4750018973351,0|2,1:0|2:0,2:0:0:0:
296,125,73237,2,0,P|247:116|211:83,1,99.4750018973351,8|2,2:0|2:0,2:0:0:0:
332,226,73589,6,0,P|377:168|497:188,2,198.95000379467,2|8|0,1:0|2:0|1:0,2:0:0:0:
314,345,74472,1,2,2:0:0:0:
468,319,74648,2,0,P|416:301|365:293,1,99.4750018973351,8|2,2:0|2:0,2:0:0:0:
238,378,75001,6,0,P|292:330|249:215,1,198.95000379467,2|10,1:0|2:0,2:0:0:0:
181,149,75531,1,0,2:0:0:0:
259,220,75707,2,0,P|310:214|349:183,1,99.4750018973351,0|2,1:0|2:0,2:0:0:0:
354,65,76060,2,0,P|303:71|263:101,1,99.4750018973351,8|2,2:0|2:0,2:0:0:0:
181,0,76413,6,0,L|181:172,1,149.212502846003,2|0,1:0|2:0,2:0:0:0:
183,168,76766,2,0,P|143:135|85:138,1,99.4750018973351,8|0,2:0|2:0,2:0:0:0:
188,255,77119,1,2,1:0:0:0:
31,249,77295,1,2,2:0:0:0:
31,249,77384,1,2,2:0:0:0:
31,249,77472,2,0,P|71:216|129:219,1,99.4750018973351,10|0,2:0|2:0,2:0:0:0:
268,354,77825,6,0,B|171:335|171:335|149:299|177:266,1,162.1875,6|0,1:0|2:0,2:0:0:0:
188,255,78178,1,8,2:0:0:0:
376,179,78354,6,0,B|291:195|291:195|264:228|290:266,1,149.212502846003,2|0,1:0|2:0,2:0:0:0:
290,274,78707,1,0,1:0:0:0:
512,271,78884,6,0,B|453:259|428:304|443:303|411:349|341:337,1,181.649994456482,12|0,2:0|1:0,2:0:0:0:
290,274,79413,5,0,1:0:0:0:
376,179,79589,2,0,L|468:195,1,82.1749978056908,8|0,2:0|2:0,2:0:0:0:
225,205,79942,5,2,1:0:0:0:
293,62,80119,1,8,2:0:0:0:
295,71,80207,1,8,2:0:0:0:
298,80,80295,1,8,2:0:0:0:
301,89,80384,1,8,2:0:0:0:
302,98,80472,1,8,2:0:0:0:
306,106,80560,1,8,2:0:0:0:
309,116,80648,6,0,B|264:110|243:145|252:148|226:183|174:177,1,147.050002804756,6|2,1:0|2:0,2:0:0:0:
115,119,81178,1,0,1:0:0:0:
157,42,81354,2,0,P|213:53|244:60,1,73.5250014023781,10|0,2:0|1:0,2:0:0:0:
309,116,81707,2,0,P|365:105|396:98,1,73.5250014023781,2|0,2:0|2:0,2:0:0:0:
454,0,82060,6,0,B|426:43|461:78|461:78|471:120|448:152,1,147.050002804756,2|2,1:0|2:0,2:0:0:0:
389,195,82589,1,0,1:0:0:0:
474,217,82766,2,0,P|436:196|395:195,1,73.5250014023781,10|0,2:0|1:0,2:0:0:0:
330,242,83119,1,2,2:0:0:0:
242,161,83295,1,0,1:0:0:0:
242,161,83384,1,0,1:0:0:0:
242,161,83472,5,6,1:0:0:0:
330,242,83648,1,8,2:0:0:0:
154,167,83825,1,8,2:0:0:0:
326,63,84001,1,8,2:0:0:0:
326,63,84089,1,8,2:0:0:0:
326,63,84178,6,0,P|319:99|316:117,3,49.7375009486675,8|8|8|8,2:0|2:0|2:0|2:0,2:0:0:0:
339,193,84531,2,0,P|332:229|329:247,3,49.7375009486675,8|8|8|8,2:0|2:0|2:0|2:0,2:0:0:0:
320,319,84884,5,8,2:0:0:0:
154,167,85060,1,8,2:0:0:0:
154,167,86295,6,0,P|194:118|298:154,1,173,6|2,1:0|2:0,2:0:0:0:
357,221,86825,1,0,1:0:0:0:
262,301,87001,2,0,P|272:245|280:204,1,86.5,8|0,2:0|2:0,2:0:0:0:
412,291,87354,1,2,2:0:0:0:
357,75,87531,6,0,L|357:224,1,129.75,0|0,1:0|2:0,2:0:0:0:
357,221,87884,1,0,1:0:0:0:
441,134,88060,1,0,1:0:0:0:
512,238,88237,1,2,2:0:0:0:
512,238,88325,1,2,2:0:0:0:
512,238,88413,2,0,P|484:219|424:218,1,86.5,8|0,2:0|1:0,2:0:0:0:
443,371,88766,2,0,B|463:331|463:331|447:291,1,86.5,2|0,2:0|1:0,2:0:0:0:
357,221,89119,6,0,B|301:205|276:245|288:244|262:291|192:280,1,173,4|2,1:0|2:0,2:0:0:0:
113,224,89648,1,0,1:0:0:0:
104,327,89825,2,0,P|143:303|190:298,1,86.5,8|0,2:0|2:0,2:0:0:0:
28,262,90178,1,2,2:0:0:0:
97,83,90354,6,0,B|124:111|127:147|127:147|106:174|108:210,1,129.75,0|0,1:0|2:0,2:0:0:0:
113,224,90707,1,0,1:0:0:0:
39,142,90884,1,0,1:0:0:0:
199,198,91060,1,2,1:0:0:0:
199,198,91148,1,2,1:0:0:0:
199,198,91237,2,0,P|247:187|305:172,1,86.5,8|0,2:0|1:0,2:0:0:0:
359,108,91589,1,2,1:0:0:0:
200,4,91766,1,0,1:0:0:0:
200,4,91854,1,0,1:0:0:0:
200,4,91942,6,0,L|200:195,1,173,4|2,1:0|2:0,2:0:0:0:
259,262,92472,1,0,1:0:0:0:
367,198,92648,2,0,P|320:188|278:176,1,86.5,8|0,2:0|2:0,2:0:0:0:
181,256,93001,1,2,2:0:0:0:
274,352,93178,6,0,P|321:303|275:268,1,129.75,0|0,1:0|2:0,2:0:0:0:
259,262,93531,1,0,1:0:0:0:
367,198,93707,1,2,1:0:0:0:
260,94,93884,1,2,2:0:0:0:
260,94,93972,1,2,2:0:0:0:
260,94,94060,2,0,P|274:143|284:182,1,86.5,8|0,2:0|1:0,2:0:0:0:
352,37,94413,2,0,P|310:26|269:14,1,86.5,2|0,2:0|1:0,2:0:0:0:
419,125,94766,6,0,P|429:83|441:41,1,86.5,4|0,1:0|2:0,2:0:0:0:
260,94,95119,1,2,2:0:0:0:
367,198,95295,1,0,1:0:0:0:
199,200,95472,2,0,P|241:188|283:177,1,86.5,8|2,2:0|2:0,2:0:0:0:
101,156,95825,1,0,2:0:0:0:
187,32,96001,6,0,B|201:67|177:108|177:108|173:153|186:172,1,142.725004355621,0|0,1:0|2:0,2:0:0:0:
199,200,96354,1,2,1:0:0:0:
260,94,96531,1,0,1:0:0:0:
128,248,96707,1,2,1:0:0:0:
128,248,96795,1,0,1:0:0:0:
128,248,96884,2,0,P|112:191|97:144,1,95.1500029037476,8|8,2:0|3:0,2:0:0:0:
232,277,97237,1,8,3:0:0:0:
52,322,97413,1,8,3:0:0:0:
52,322,97501,1,8,3:0:0:0:
52,322,97589,6,0,B|111:298|139:337|134:337|165:371|216:356,1,173,4|8,1:0|2:0,2:0:0:0:
310,271,98119,1,2,2:0:0:0:
373,372,98295,2,0,P|315:352|270:347,1,86.5,0|0,1:0|1:0,2:0:0:0:
430,297,98648,1,8,2:0:0:0:
232,277,98825,6,0,B|275:283|296:253|293:253|317:226|356:238,1,129.75,2|0,1:0|2:0,2:0:0:0:
372,245,99178,1,0,1:0:0:0:
281,169,99354,1,8,2:0:0:0:
383,75,99531,1,2,2:0:0:0:
383,75,99619,1,2,2:0:0:0:
383,75,99707,2,0,P|369:137|363:168,1,86.5,0|0,1:0|1:0,2:0:0:0:
201,109,100060,1,8,2:0:0:0:
280,0,100237,6,0,L|280:149,1,129.75,2|0,1:0|2:0,2:0:0:0:
281,169,100589,1,0,1:0:0:0:
201,109,100766,1,8,2:0:0:0:
281,169,100942,1,2,2:0:0:0:
219,264,101119,2,0,P|190:228|203:177,1,86.5,0|0,1:0|1:0,2:0:0:0:
304,249,101472,1,8,2:0:0:0:
177,345,101648,6,0,B|227:336|227:336|259:348|259:348|329:336,1,129.75,2|0,1:0|2:0,2:0:0:0:
330,333,102001,1,0,1:0:0:0:
219,264,102178,1,8,2:0:0:0:
324,148,102354,2,0,P|313:204|306:255,1,86.5,2|0,1:0|2:0,2:0:0:0:
202,91,102707,2,0,P|211:133|217:176,1,86.5,0|8,1:0|2:0,2:0:0:0:
401,53,103060,6,0,B|351:44|351:44|319:56|319:56|275:48,1,129.75,4|0,1:0|2:0,2:0:0:0:
253,27,103413,1,0,1:0:0:0:
128,117,103589,2,0,P|170:118|202:90,1,86.5,8|2,2:0|2:0,2:0:0:0:
48,0,103942,2,0,L|48:175,1,173,0|8,1:0|2:0,2:0:0:0:
132,234,104472,1,0,1:0:0:0:
0,319,104648,6,0,P|35:294|77:292,1,86.5,2|2,2:0|1:0,2:0:0:0:
104,308,104913,1,2,2:0:0:0:
104,308,105001,2,0,P|139:333|181:335,1,86.5,8|2,2:0|2:0,2:0:0:0:
295,251,105354,1,2,1:0:0:0:
196,167,105531,1,0,1:0:0:0:
196,167,105619,1,0,1:0:0:0:
196,167,105707,2,0,P|209:225|216:259,1,86.5,10|0,2:0|1:0,2:0:0:0:
324,325,106060,6,0,P|411:306|495:291,2,173,2|8|0,1:0|2:0|1:0,2:0:0:0:
214,251,106942,1,0,1:0:0:0:
313,166,107119,2,0,P|300:224|293:258,1,86.5,10|2,2:0|2:0,2:0:0:0:
148,359,107472,6,0,P|135:288|108:168,1,173,2|8,1:0|2:0,2:0:0:0:
215,73,108001,1,8,2:0:0:0:
215,73,108089,1,8,2:0:0:0:
215,73,108178,6,0,P|202:131|195:169,1,95.1500029037476,8|8,2:0|2:0,2:0:0:0:
108,99,108531,6,0,P|121:41|128:11,1,77.8499976242066,8|8,2:0|2:0,2:0:0:0:
305,9,108884,6,0,L|305:143,1,121.099996304321,6|0,1:0|1:0,2:0:0:0:
371,189,109413,1,0,1:0:0:0:
277,253,109589,2,0,P|304:212|391:223,1,121.099996304321,8|0,2:0|1:0,2:0:0:0:
425,268,110119,1,0,1:0:0:0:
392,343,110295,6,0,P|355:333|323:330,1,60.5499981521607,2|8,2:0|2:0,2:0:0:0:
217,265,110648,2,0,P|247:261|276:252,1,60.5499981521607,0|0,1:0|1:0,2:0:0:0:
163,332,111001,2,0,P|116:323|46:312,1,90.8249972282411,10|0,2:0|2:0,2:0:0:0:
65,298,111354,2,0,P|106:306|132:311,1,60.5499981521607,0|0,1:0|1:0,2:0:0:0:
195,191,111707,6,0,P|162:159|80:176,1,121.099996304321,4|2,1:0|1:0,2:0:0:0:
24,117,112237,1,0,1:0:0:0:
91,58,112413,2,0,P|85:28|75:0,2,60.5499981521607,8|2|0,2:0|2:0|1:0,2:0:0:0:
223,101,112942,6,0,P|167:88|147:84,1,60.5499981521607,2|0,1:0|2:0,2:0:0:0:
167,0,113295,2,0,P|223:13|243:17,1,60.5499981521607,8|0,2:0|1:0,2:0:0:0:
308,82,113648,1,0,1:0:0:0:
468,12,113825,6,0,P|406:25|368:32,1,95.1500029037476,12|0,2:0|2:0,2:0:0:0:
340,154,114178,6,0,P|402:141|448:134,1,103.799996832275,8|2,2:0|1:0,2:0:0:0:
276,222,114531,6,0,P|221:212|170:202,1,90.8249972282411,4|0,1:0|2:0,2:0:0:0:
168,195,114884,1,8,2:0:0:0:
340,323,115060,6,0,P|369:263|349:216,1,103.799996832275,10|0,1:0|1:0,2:0:0:0:
135,281,115413,5,0,1:0:0:0:
248,131,115589,2,0,P|282:198|266:235,1,103.799996832275,10|2,2:0|2:0,2:0:0:0:
210,350,115942,6,0,P|221:299|227:270,1,60.5499981521607,0|2,1:0|1:0,2:0:0:0:
168,195,116295,1,8,2:0:0:0:
52,358,116472,6,0,P|7:279|38:209,1,155.699995248413,10|0,1:0|2:0,2:0:0:0:
53,197,116825,1,0,1:0:0:0:
86,41,117001,6,0,P|99:95|113:149,1,95.1500029037476,8|2,2:0|2:0,2:0:0:0:
296,223,117354,2,0,P|250:211|204:200,1,95.1500029037476,4|2,1:0|2:0,2:0:0:0:
168,195,117619,1,2,2:0:0:0:
168,195,117707,1,8,2:0:0:0:
337,112,117884,1,2,2:0:0:0:
220,25,118060,6,0,P|233:79|247:133,1,95.1500029037476,2|0,1:0|1:0,2:0:0:0:
400,188,118413,2,0,P|412:142|423:96,1,95.1500029037476,8|0,2:0|2:0,2:0:0:0:
319,0,118766,6,0,L|319:215,1,207.599993664551,4|8,1:0|2:0,2:0:0:0:
234,299,119295,1,0,2:0:0:0:
398,332,119472,2,0,P|355:292|303:289,1,103.799996832275,2|2,1:0|1:0,2:0:0:0:
182,361,119825,1,8,2:0:0:0:
53,241,120001,6,0,B|97:235|162:198|162:198|139:220|134:256,1,168.674992278672,4|0,1:0|2:0,2:0:0:0:
158,269,120354,1,8,2:0:0:0:
33,110,120531,1,8,2:0:0:0:
33,110,120884,5,2,2:0:0:0:
0,181,121060,2,0,P|33:154|87:147,1,86.5,2|2,2:0|2:0,2:0:0:0:
133,13,121589,6,0,B|109:132|109:132|136:171|181:165,1,198.95000379467,6|10,1:0|2:0,2:0:0:0:
280,221,122118,1,0,2:0:0:0:
342,102,122294,2,0,P|294:116|246:129,1,99.4750018973351,0|2,1:0|2:0,2:0:0:0:
374,235,122647,2,0,P|421:219|469:207,1,99.4750018973351,8|2,2:0|2:0,2:0:0:0:
374,11,123000,6,0,B|375:214,1,198.95000379467,2|8,1:0|2:0,2:0:0:0:
293,298,123530,1,0,2:0:0:0:
461,348,123706,2,0,P|420:315|356:318,1,99.4750018973351,2|2,1:0|2:0,2:0:0:0:
252,372,124059,1,8,2:0:0:0:
150,258,124236,1,2,2:0:0:0:
150,258,124324,1,2,2:0:0:0:
150,258,124412,6,0,B|267:229|267:229|305:255|291:304,2,198.95000379467,2|8|0,1:0|2:0|1:0,2:0:0:0:
56,333,125294,1,2,2:0:0:0:
46,160,125471,2,0,P|58:208|71:256,1,99.4750018973351,8|2,2:0|2:0,2:0:0:0:
85,67,125824,6,0,P|177:22|244:97,1,198.95000379467,2|8,1:0|2:0,2:0:0:0:
331,156,126353,1,0,2:0:0:0:
218,198,126531,2,0,P|230:149|243:101,1,99.4750018973351,2|0,1:0|2:0,2:0:0:0:
422,0,126884,2,0,L|422:160,1,149.212502846003,8|0,2:0|2:0,2:0:0:0:
433,173,127236,6,0,P|351:146|294:234,1,198.95000379467,6|8,1:0|2:0,2:0:0:0:
333,339,127765,1,2,2:0:0:0:
456,293,127942,2,0,P|407:264|358:265,1,99.4750018973351,0|2,1:0|2:0,2:0:0:0:
202,256,128295,2,0,P|251:252|292:226,1,99.4750018973351,8|0,2:0|2:0,2:0:0:0:
149,334,128647,6,0,P|101:320|52:311,1,99.4750018973351,2|2,1:0|2:0,2:0:0:0:
4,196,129001,2,0,P|51:209|100:218,1,99.4750018973351,8|0,2:0|2:0,2:0:0:0:
182,0,129353,2,0,L|182:151,1,149.212502846003,2|0,1:0|2:0,2:0:0:0:
180,183,129706,2,0,P|220:144|267:143,1,99.4750018973351,8|2,2:0|2:0,2:0:0:0:
388,267,130060,6,0,B|258:228|258:228|294:227|329:198,1,198.95000379467,2|8,1:0|2:0,2:0:0:0:
418,143,130589,1,2,2:0:0:0:
473,271,130765,2,0,P|482:222|493:173,1,99.4750018973351,0|0,1:0|1:0,2:0:0:0:
316,207,131118,1,8,2:0:0:0:
401,0,131295,6,0,L|401:177,1,162.1875,6|0,1:0|2:0,2:0:0:0:
401,190,131647,1,2,1:0:0:0:
232,146,131824,2,0,P|275:110|339:121,1,108.125,8|0,2:0|2:0,2:0:0:0:
218,260,132177,5,0,1:0:0:0:
110,152,132353,1,8,2:0:0:0:
110,152,132442,1,8,2:0:0:0:
110,152,132530,1,8,2:0:0:0:
15,361,132706,1,8,2:0:0:0:
15,361,132794,1,8,2:0:0:0:
15,361,132884,6,0,B|-19:244|-19:244|4:208|51:217,1,198.95000379467,6|10,1:0|2:0,2:0:0:0:
112,334,133412,1,2,2:0:0:0:
218,260,133589,2,0,P|156:247|112:238,1,99.4750018973351,0|2,1:0|2:0,2:0:0:0:
289,334,133942,2,0,P|337:323|386:313,1,99.4750018973351,8|2,2:0|2:0,2:0:0:0:
402,198,134294,6,0,B|322:213|322:213|292:242|292:242|202:264,2,198.95000379467,2|8|0,1:0|2:0|1:0,2:0:0:0:
489,278,135177,1,2,2:0:0:0:
512,95,135353,2,0,P|494:147|486:198,1,99.4750018973351,8|2,2:0|2:0,2:0:0:0:
402,0,135706,6,0,L|402:206,1,198.95000379467,2|10,1:0|2:0,2:0:0:0:
354,309,136236,1,0,2:0:0:0:
229,242,136412,2,0,P|271:230|332:213,1,99.4750018973351,0|2,1:0|2:0,2:0:0:0:
146,293,136766,2,0,P|104:281|43:264,1,99.4750018973351,8|2,2:0|2:0,2:0:0:0:
19,106,137118,6,0,P|101:93|143:153,1,149.212502846003,2|0,1:0|2:0,2:0:0:0:
154,163,137471,2,0,P|158:111|164:51,1,99.4750018973351,8|0,2:0|2:0,2:0:0:0:
63,186,137824,1,2,1:0:0:0:
249,34,138000,1,2,2:0:0:0:
249,34,138089,1,2,2:0:0:0:
249,34,138178,2,0,P|244:83|240:133,1,99.4750018973351,10|0,2:0|2:0,2:0:0:0:
347,207,138531,6,0,B|246:183|246:183|217:208|228:259,1,162.1875,6|0,1:0|2:0,2:0:0:0:
240,269,138883,1,8,2:0:0:0:
430,345,139060,6,0,B|338:366|338:366|309:342|320:290,1,149.212502846003,2|0,1:0|2:0,2:0:0:0:
321,296,139412,1,0,1:0:0:0:
471,152,139589,6,0,P|384:135|349:217,1,181.649994456482,12|0,2:0|1:0,2:0:0:0:
440,263,140118,5,0,1:0:0:0:
478,159,140295,2,0,P|470:111|462:59,1,82.1749978056908,8|0,2:0|2:0,2:0:0:0:
346,206,140647,5,2,1:0:0:0:
219,16,140824,1,8,2:0:0:0:
228,14,140912,1,8,2:0:0:0:
237,11,141000,1,8,2:0:0:0:
246,8,141089,1,8,2:0:0:0:
255,7,141177,1,8,2:0:0:0:
263,3,141265,1,8,2:0:0:0:
273,0,141353,6,0,B|273:173,1,164.349995611382,6|2,1:0|2:0,2:0:0:0:
222,237,141883,1,0,1:0:0:0:
124,166,142059,2,0,P|159:158|196:151,1,73.5250014023781,10|0,2:0|1:0,2:0:0:0:
294,251,142412,2,0,P|238:240|207:233,1,73.5250014023781,2|0,2:0|2:0,2:0:0:0:
361,317,142765,6,0,P|400:263|380:186,1,147.050002804756,2|2,1:0|2:0,2:0:0:0:
311,136,143294,1,0,1:0:0:0:
375,75,143471,2,0,P|420:89|454:95,1,73.5250014023781,10|0,2:0|1:0,2:0:0:0:
311,136,143824,1,2,2:0:0:0:
250,57,144001,1,0,1:0:0:0:
250,57,144089,1,0,1:0:0:0:
250,57,144178,6,0,P|170:44|131:103,1,147.050002804756,6|2,1:0|2:0,2:0:0:0:
69,151,144707,1,2,1:0:0:0:
152,179,144884,2,0,P|141:125|136:94,1,73.5250014023781,10|0,2:0|1:0,2:0:0:0:
71,233,145237,1,2,2:0:0:0:
180,280,145413,1,0,1:0:0:0:
180,280,145501,1,0,1:0:0:0:
180,280,145589,5,6,1:0:0:0:
8,290,145766,1,8,2:0:0:0:
152,179,145942,1,8,2:0:0:0:
147,361,146119,1,8,2:0:0:0:
147,361,146207,1,8,2:0:0:0:
147,361,146295,6,0,P|96:348|89:347,3,49.7375009486675,8|8|8|8,2:0|2:0|2:0|2:0,2:0:0:0:
8,290,146648,2,0,P|32:284|56:277,3,49.7375009486675,8|8|8|8,2:0|2:0|2:0|2:0,2:0:0:0:
108,212,147001,6,0,B|172:186|211:237|200:240|236:283|296:258,1,198.95000379467,6|8,1:0|2:0,2:0:0:0:
389,195,147531,1,2,2:0:0:0:
305,93,147707,2,0,P|292:148|317:191,1,99.4750018973351,0|2,1:0|2:0,2:0:0:0:
462,127,148060,2,0,P|475:72|450:29,1,99.4750018973351,8|2,2:0|2:0,2:0:0:0:
262,23,148413,5,0,1:0:0:0:
384,115,148589,1,2,2:0:0:0:
262,23,148766,2,0,P|200:25|171:56,1,99.4750018973351,8|2,2:0|2:0,2:0:0:0:
115,170,149119,2,0,P|177:168|206:137,1,99.4750018973351,0|2,1:0|2:0,2:0:0:0:
15,112,149472,1,8,2:0:0:0:
113,0,149648,1,2,2:0:0:0:
113,0,149737,1,2,2:0:0:0:
113,0,149825,6,0,L|113:219,1,198.95000379467,0|8,1:0|2:0,2:0:0:0:
200,281,150354,1,2,2:0:0:0:
110,360,150531,2,0,P|44:341|3:337,1,99.4750018973351,0|2,1:0|2:0,2:0:0:0:
200,281,150884,2,0,P|249:273|296:258,1,99.4750018973351,8|2,2:0|2:0,2:0:0:0:
371,175,151237,5,0,1:0:0:0:
466,250,151413,1,2,2:0:0:0:
491,74,151589,2,0,P|469:128|456:170,1,99.4750018973351,8|2,2:0|2:0,2:0:0:0:
296,258,151942,2,0,P|280:210|261:164,1,99.4750018973351,0|2,1:0|2:0,2:0:0:0:
466,250,152295,1,8,2:0:0:0:
371,0,152472,1,2,2:0:0:0:
371,0,152560,1,2,2:0:0:0:
371,0,152648,6,0,L|371:204,1,198.95000379467,0|8,1:0|2:0,2:0:0:0:
458,324,153178,1,2,2:0:0:0:
294,327,153354,2,0,P|341:292|395:294,1,99.4750018973351,0|2,1:0|2:0,2:0:0:0:
195,359,153707,2,0,P|146:353|108:321,1,99.4750018973351,8|2,2:0|2:0,2:0:0:0:
155,175,154060,5,0,1:0:0:0:
244,254,154237,1,2,2:0:0:0:
83,227,154413,1,8,2:0:0:0:
256,151,154589,1,2,2:0:0:0:
121,65,154766,2,0,P|141:127|150:166,1,99.4750018973351,0|2,1:0|2:0,2:0:0:0:
326,222,155119,6,0,P|337:180|355:119,1,97.3125037121774,8|0,2:0|2:0,2:0:0:0:
356,118,155472,6,0,B|263:154|263:154|237:141|238:110,1,149.212502846003,14|0,2:0|2:0,2:0:0:0:
241,85,155825,1,0,1:0:0:0:
413,203,156001,1,10,2:0:0:0:
464,72,156178,2,0,P|400:95|355:110,1,99.4750018973351,0|0,1:0|1:0,2:0:0:0:
319,236,156531,2,0,P|383:213|428:198,1,99.4750018973351,14|0,2:0|1:2,2:0:0:0:
427,223,156795,1,0,1:2:0:0:
427,223,156884,6,0,B|380:205|351:241|362:244|323:281|269:263,1,162.1875,10|0,2:0|2:0,2:0:0:0:
239,252,157237,1,10,2:0:0:0:
361,337,157413,1,8,2:0:0:0:
163,238,157589,1,10,2:0:0:0:
356,118,157766,1,10,2:0:0:0:
163,238,157942,1,8,2:0:0:0:
427,223,158119,1,8,2:0:0:0:
231,75,158295,5,4,1:0:0:0:
231,75,169589,6,0,P|308:54|356:103,1,147.050002804756,4|2,1:0|1:0,2:0:0:0:
280,145,170119,1,2,2:0:0:0:
180,0,170295,2,0,P|192:81|196:127,1,110.287502103567,0|0,1:0|2:0,2:0:0:0:
201,138,170648,1,2,1:0:0:0:
109,70,170825,1,2,2:0:0:0:
63,180,171001,6,0,P|97:153|134:153,1,73.5250014023781,0|0,1:0|2:0,2:0:0:0:
124,292,171354,2,0,P|88:287|61:263,1,73.5250014023781,2|0,1:0|2:0,2:0:0:0:
174,222,171707,1,0,1:0:0:0:
234,286,171884,1,2,2:0:0:0:
234,286,171972,1,2,2:0:0:0:
234,286,172060,2,0,P|277:272|312:265,1,73.5250014023781,2|2,1:0|2:0,2:0:0:0:
461,169,172413,6,0,P|407:142|357:216,1,147.050002804756,4|2,1:0|1:0,2:0:0:0:
392,277,172942,1,0,2:0:0:0:
477,253,173119,2,0,P|480:179|488:103,1,147.050002804756,0|2,1:0|1:0,2:0:0:0:
431,38,173648,1,2,2:0:0:0:
370,102,173825,6,0,P|325:95|294:85,1,73.5250014023781,0|0,1:0|2:0,2:0:0:0:
263,0,174178,2,0,P|308:7|339:17,1,73.5250014023781,2|0,1:0|2:0,2:0:0:0:
216,94,174531,1,0,1:0:0:0:
160,26,174707,1,0,2:0:0:0:
106,179,174884,1,2,1:0:0:0:
103,171,174972,1,0,1:0:0:0:
99,162,175060,1,2,1:0:0:0:
94,153,175148,1,2,1:0:0:0:
89,142,175237,6,0,B|142:123|165:158|160:161|188:186|230:174,1,147.050002804756,4|2,1:0|1:0,2:0:0:0:
299,222,175766,1,0,2:0:0:0:
250,295,175942,2,0,P|199:282|165:277,1,73.5250014023781,0|2,1:0|2:0,2:0:0:0:
163,262,176207,1,2,2:0:0:0:
163,262,176295,2,0,P|214:275|248:280,1,73.5250014023781,2|2,1:0|2:0,2:0:0:0:
331,335,176648,6,0,P|382:322|416:317,1,73.5250014023781,0|2,1:0|2:0,2:0:0:0:
416,302,176913,1,2,2:0:0:0:
416,302,177001,2,0,P|365:315|331:320,1,73.5250014023781,2|0,1:0|2:0,2:0:0:0:
191,175,177354,2,0,P|258:177|292:215,1,110.287502103567,0|0,1:0|2:0,2:0:0:0:
299,222,177707,2,0,P|306:173|314:143,1,73.5250014023781,2|2,1:0|2:0,2:0:0:0:
314,122,177972,1,2,2:0:0:0:
314,122,178060,5,4,1:0:0:0:
191,175,178237,1,0,1:0:0:0:
391,169,178413,1,2,1:0:0:0:
240,55,178589,1,0,1:0:0:0:
391,169,178766,2,0,P|465:152|495:146,1,99.4750018973351,2|0,1:0|1:0,2:0:0:0:
491,27,179119,2,0,P|417:44|387:50,1,99.4750018973351,2|0,1:0|1:0,2:0:0:0:
314,122,179472,5,2,1:0:0:0:
228,39,179648,1,0,1:0:0:0:
314,122,179825,1,2,1:0:0:0:
147,69,180001,1,0,1:0:0:0:
205,238,180178,2,0,P|214:189|226:141,1,99.4750018973351,2|0,1:0|1:0,2:0:0:0:
55,43,180531,2,0,P|67:91|76:139,1,99.4750018973351,2|0,1:0|1:0,2:0:0:0:
40,338,180884,5,10,2:0:0:0:
54,314,180972,1,8,2:0:0:0:
74,296,181060,1,8,2:0:0:0:
100,287,181148,1,8,2:0:0:0:
126,288,181237,2,0,P|163:301|187:321,3,54.0625,8|8|8|8,2:0|2:0|2:0|2:0,2:0:0:0:
261,342,181589,5,8,2:0:0:0:
292,357,181677,1,8,2:0:0:0:
325,363,181765,1,8,2:0:0:0:
359,354,181853,1,8,2:0:0:0:
386,335,181942,2,0,P|416:295|427:258,3,54.0625,8|8|8|8,2:0|2:0|2:0|2:0,2:0:0:0:
392,206,182295,6,0,B|328:218|328:218|295:247|295:247|225:262,2,168.674992278672,2|2|2,2:0|2:0|2:0,2:0:0:0:
392,206,183707,6,0,B|492:163|530:5|372:-40|313:39|334:101,1,363.299988912964,6|2,1:0|2:0,2:0:0:0:
256,283,185119,6,0,B|169:299|161:193|228:128|326:158|320:259|310:264|362:300|420:287,1,363.299988912964,6|2,1:0|2:0,2:0:0:0:
247,64,186531,6,0,B|166:-4|30:12|20:198|143:205|194:100,1,363.299988912964,6|2,1:0|2:0,2:0:0:0:
84,367,187942,6,0,P|3:331|91:238,1,242.199992608643,6|6,1:0|1:0,2:0:0:0:
135,300,188825,1,8,3:0:0:0:
241,242,189001,2,0,P|195:234|157:227,1,60.5499981521607,8|8,3:0|3:0,2:0:0:0:
309,304,189354,5,2,2:0:0:0:
309,304,191295,1,0,1:0:0:0:
309,304,191384,1,0,1:0:0:0:
309,304,191472,5,8,1:0:0:0:
262,140,191648,6,0,P|252:189|240:246,1,103.799996832275,8|0,1:0|2:0,2:0:0:0:
195,79,192178,5,12,2:0:0:0:
336,171,192354,1,8,2:0:0:0:
147,146,192531,1,8,2:0:0:0:
328,26,192707,1,8,2:0:0:0:
328,26,192795,1,8,2:0:0:0:
328,26,192884,6,0,P|314:57|308:79,1,47.5750014518738,8|8,2:0|2:0,2:0:0:0:
262,140,193060,2,0,P|276:109|282:87,1,47.5750014518738,8|8,2:0|2:0,2:0:0:0:
168,12,193237,2,0,L|184:66,1,47.5750014518738,8|8,2:0|2:0,2:0:0:0:
41,163,193413,6,0,B|112:177|112:177|133:204|133:204|206:217,1,162.1875,12|0,2:0|2:0,2:0:0:0:
221,220,193766,1,12,2:0:0:0:
102,73,193942,1,12,2:0:0:0:
102,73,194295,5,2,2:0:0:0:
168,14,194472,2,0,P|141:57|139:104,1,86.5,2|2,2:0|2:0,2:0:0:0:
221,220,195001,6,0,B|344:183|344:183|359:135|319:101,1,198.95000379467,6|10,1:0|2:0,2:0:0:0:
219,77,195531,1,0,2:0:0:0:
348,4,195707,2,0,P|333:55|319:117,1,99.4750018973351,0|2,1:0|2:0,2:0:0:0:
510,99,196060,2,0,P|462:83|414:71,1,99.4750018973351,8|2,2:0|2:0,2:0:0:0:
405,306,196413,6,0,P|471:261|420:161,1,198.95000379467,2|8,1:0|2:0,2:0:0:0:
324,219,196943,1,0,2:0:0:0:
228,130,197119,2,0,P|276:117|322:99,1,99.4750018973351,2|2,1:0|2:0,2:0:0:0:
146,201,197472,1,8,2:0:0:0:
207,352,197649,1,2,2:0:0:0:
207,352,197737,1,2,2:0:0:0:
207,352,197825,6,0,B|236:233|236:233|211:194|161:203,2,198.95000379467,2|8|0,1:0|2:0|1:0,2:0:0:0:
76,228,198707,1,2,2:0:0:0:
34,349,198884,2,0,P|82:336|130:327,1,99.4750018973351,8|2,2:0|2:0,2:0:0:0:
322,302,199237,6,0,B|186:265|186:265|220:254|251:220,1,198.95000379467,2|8,1:0|2:0,2:0:0:0:
351,214,199766,1,0,2:0:0:0:
289,84,199943,2,0,P|268:133|287:182,1,99.4750018973351,2|0,1:0|2:0,2:0:0:0:
458,251,200296,2,0,P|497:172|467:114,1,149.212502846003,8|0,2:0|2:0,2:0:0:0:
455,102,200648,6,0,B|399:87|365:136|382:138|345:187|264:173,1,198.95000379467,6|8,1:0|2:0,2:0:0:0:
180,108,201178,1,2,2:0:0:0:
112,222,201355,2,0,P|153:191|209:188,1,99.4750018973351,0|2,1:0|2:0,2:0:0:0:
108,323,201707,2,0,P|59:316|20:287,1,99.4750018973351,8|2,2:0|2:0,2:0:0:0:
220,266,202060,6,0,P|206:313|197:362,1,99.4750018973351,2|2,1:0|2:0,2:0:0:0:
112,222,202413,2,0,P|102:173|89:125,1,99.4750018973351,8|0,2:0|2:0,2:0:0:0:
201,3,202766,2,0,L|201:154,1,149.212502846003,2|2,1:0|2:0,2:0:0:0:
199,186,203119,2,0,P|239:147|286:146,1,99.4750018973351,8|0,2:0|2:0,2:0:0:0:
280,351,203472,6,0,B|310:222|310:222|318:273|344:293,1,198.95000379467,2|8,1:0|2:0,2:0:0:0:
418,369,204002,1,2,2:0:0:0:
450,254,204178,2,0,P|397:272|343:289,1,99.4750018973351,0|0,1:0|1:0,2:0:0:0:
280,351,204531,1,8,2:0:0:0:
131,276,204707,6,0,P|201:212|266:245,1,162.1875,6|0,1:0|2:0,2:0:0:0:
277,254,205060,1,2,1:0:0:0:
72,334,205237,2,0,P|48:286|68:226,1,108.125,8|0,2:0|2:0,2:0:0:0:
139,131,205590,5,0,1:0:0:0:
277,254,205766,1,8,2:0:0:0:
277,254,205855,1,8,2:0:0:0:
277,254,205943,1,8,2:0:0:0:
359,73,206119,1,8,2:0:0:0:
359,73,206207,1,8,2:0:0:0:
359,73,206296,6,0,B|238:99|238:99|213:136|245:181,1,198.95000379467,6|10,1:0|2:0,2:0:0:0:
365,250,206825,1,0,2:0:0:0:
476,183,207002,2,0,P|423:158|379:158,1,99.4750018973351,0|2,1:0|2:0,2:0:0:0:
386,338,207354,2,0,P|439:336|485:313,1,99.4750018973351,8|2,2:0|2:0,2:0:0:0:
277,254,207707,6,0,B|208:233|157:281|157:281|148:323|105:339,2,198.95000379467,2|8|0,1:0|2:0|1:0,2:0:0:0:
374,157,208590,1,2,2:0:0:0:
259,71,208766,2,0,P|277:123|287:178,1,99.4750018973351,8|2,2:0|2:0,2:0:0:0:
495,82,209119,6,0,P|452:18|337:61,1,198.95000379467,2|10,1:0|2:0,2:0:0:0:
285,166,209649,1,0,2:0:0:0:
163,97,209825,2,0,P|211:86|258:70,1,99.4750018973351,0|2,1:0|2:0,2:0:0:0:
96,179,210178,2,0,P|44:161|-11:151,1,99.4750018973351,8|2,2:0|2:0,2:0:0:0:
127,282,210531,6,0,P|185:229|252:241,1,149.212502846003,2|0,1:0|2:0,2:0:0:0:
266,252,210884,2,0,L|266:365,1,99.4750018973351,8|0,2:0|2:0,2:0:0:0:
363,168,211237,1,2,1:0:0:0:
436,290,211413,1,2,2:0:0:0:
436,290,211502,1,2,2:0:0:0:
436,290,211590,2,0,P|396:257|338:260,1,99.4750018973351,10|0,2:0|2:0,2:0:0:0:
181,215,211942,6,0,B|278:196|278:196|300:160|271:128,1,162.1875,4|0,1:0|2:0,2:0:0:0:
261,116,212296,1,8,2:0:0:0:
79,32,212472,6,0,B|164:48|164:48|191:81|165:119,1,149.212502846003,2|0,1:0|2:0,2:0:0:0:
165,127,212825,1,0,1:0:0:0:
48,261,213001,6,0,B|18:136|18:136|44:161|94:176,1,181.649994456482,12|0,2:0|1:0,2:0:0:0:
181,215,213531,5,0,1:0:0:0:
116,366,213707,2,0,L|132:274,1,82.1749978056908,8|0,2:0|2:0,2:0:0:0:
279,333,214060,5,2,1:0:0:0:
279,164,214237,1,8,2:0:0:0:
277,173,214325,1,8,2:0:0:0:
274,182,214413,1,8,2:0:0:0:
271,191,214502,1,8,2:0:0:0:
270,200,214590,1,8,2:0:0:0:
266,208,214678,1,8,2:0:0:0:
263,218,214766,6,0,B|308:212|329:247|320:250|346:285|398:279,1,147.050002804756,6|2,1:0|2:0,2:0:0:0:
466,236,215296,1,0,1:0:0:0:
432,154,215472,2,0,P|376:165|345:172,1,73.5250014023781,10|0,2:0|1:0,2:0:0:0:
304,99,215825,2,0,P|360:88|391:81,1,73.5250014023781,2|0,2:0|2:0,2:0:0:0:
243,26,216178,6,0,P|171:7|119:67,1,147.050002804756,2|2,1:0|2:0,2:0:0:0:
77,128,216707,1,0,1:0:0:0:
155,194,216884,2,0,P|168:149|153:114,1,73.5250014023781,10|0,2:0|1:0,2:0:0:0:
69,211,217237,1,2,2:0:0:0:
162,276,217413,1,0,1:0:0:0:
162,276,217502,1,0,1:0:0:0:
162,276,217590,5,6,1:0:0:0:
0,257,217766,1,8,2:0:0:0:
160,124,217943,1,8,2:0:0:0:
230,330,218119,1,8,2:0:0:0:
230,330,218207,1,8,2:0:0:0:
230,330,218296,6,0,P|266:323|284:320,3,49.7375009486675,8|8|8|8,2:0|2:0|2:0|2:0,2:0:0:0:
339,275,218649,2,0,P|375:282|393:285,3,49.7375009486675,8|8|8|8,2:0|2:0|2:0|2:0,2:0:0:0:
465,308,219002,5,8,2:0:0:0:
254,181,219178,1,8,2:0:0:0:
254,181,220413,6,0,B|202:156|167:199|175:198|144:246|80:222,1,173,6|2,1:0|2:0,2:0:0:0:
15,161,220943,1,0,1:0:0:0:
71,74,221119,2,0,P|122:85|171:92,1,86.5,8|0,2:0|2:0,2:0:0:0:
254,181,221472,1,2,2:0:0:0:
372,46,221649,6,0,P|305:31|257:80,1,129.75,0|0,1:0|2:0,2:0:0:0:
252,89,222002,1,0,1:0:0:0:
338,145,222178,1,0,1:0:0:0:
269,265,222355,1,2,2:0:0:0:
269,265,222443,1,2,2:0:0:0:
269,265,222531,2,0,P|263:222|253:180,1,86.5,8|0,2:0|1:0,2:0:0:0:
429,115,222884,2,0,P|418:166|411:215,1,86.5,2|0,2:0|1:0,2:0:0:0:
476,282,223237,6,0,B|420:266|395:306|407:305|381:352|311:341,1,173,4|2,1:0|2:0,2:0:0:0:
269,265,223766,1,0,1:0:0:0:
169,368,223943,2,0,P|204:345|260:344,1,86.5,8|0,2:0|2:0,2:0:0:0:
79,191,224296,1,2,2:0:0:0:
33,283,224472,6,0,B|83:274|83:274|118:286|118:286|175:274,1,129.75,0|0,1:0|2:0,2:0:0:0:
185,271,224825,1,0,2:0:0:0:
79,191,225002,1,0,1:0:0:0:
191,102,225178,1,2,1:0:0:0:
191,102,225266,1,0,1:0:0:0:
191,102,225355,2,0,P|161:152|164:183,1,86.5,8|0,2:0|1:0,2:0:0:0:
350,131,225707,1,2,1:0:0:0:
266,0,225884,1,0,1:0:0:0:
266,0,225972,1,0,1:0:0:0:
266,0,226060,6,0,L|266:175,1,173,4|2,1:0|2:0,2:0:0:0:
335,251,226590,1,0,1:0:0:0:
429,156,226766,2,0,P|388:132|345:132,1,86.5,8|0,2:0|2:0,2:0:0:0:
251,252,227119,1,2,2:0:0:0:
410,365,227296,6,0,P|455:305|421:242,1,129.75,0|0,1:0|2:0,2:0:0:0:
417,233,227649,1,0,1:0:0:0:
289,332,227825,1,2,1:0:0:0:
201,147,228001,1,2,2:0:0:0:
201,147,228090,1,2,2:0:0:0:
201,147,228178,5,10,2:0:0:0:
335,251,228354,1,0,1:0:0:0:
114,207,228531,1,10,2:0:0:0:
333,70,228707,1,10,2:0:0:0:
