osu file format v14

[General]
AudioFilename: audio.mp3
AudioLeadIn: 0
PreviewTime: 120707
Countdown: 0
SampleSet: Soft
StackLeniency: 0.3
Mode: 0
LetterboxInBreaks: 0
WidescreenStoryboard: 1

[Editor]
Bookmarks: 1590,14295,25589,36707,48178,60884,72178,86295,97589,108884,121589,132884,147001,158295,169589,182295,195001,206295,220413,228707
DistanceSpacing: 1.4
BeatDivisor: 4
GridSize: 4
TimelineZoom: 1.5

[Metadata]
Title:DREAMIN' ON
TitleUnicode:DREAMIN' ON
Artist:Da-iCE
ArtistUnicode:Da-iCE
Creator:Andrea
Version:ANDREA & ASUKO'S HARD
Source:ONE PIECE
Tags:osuplayer111 Sekai Sekaii Sekai-nyan [_Lost_] Conner C_O_N_N_E_R Sarawatlism AsuKow Grazuko toei animation japanese pop j-pop jpop rock j-rock jrock anime opening 23 op op23 Male Vocalist Vocal Monkey D Luffy モンキー D ルフィ Roronoa Zoro ロロノア ゾロ Nami ナミ Nico Robin ニコ ロビン Usopp ウソップ Sanji サンジ Tony Chopper トニーチョッパー Brook ブルック Franky フランキー Jinbe Jimbei ジンベエ Straw Hat Pirates 麦わらの一味 Mugiwara no Ichimi
BeatmapID:3768571
BeatmapSetID:1835599

[Difficulty]
HPDrainRate:5
CircleSize:3.5
OverallDifficulty:7
ApproachRate:8
SliderMultiplier:1.4
SliderTickRate:1

[Events]
//Background and Video events
0,0,"HARD BG.jpg",0,0
//Break Periods
2,158495,168839
//Storyboard Layer 0 (Background)
//Storyboard Layer 1 (Fail)
//Storyboard Layer 2 (Pass)
//Storyboard Layer 3 (Foreground)
//Storyboard Layer 4 (Overlay)
//Storyboard Sound Samples

[TimingPoints]
1590,352.941176470588,4,2,2,60,1,0
1590,-125,4,2,2,60,0,0
2648,-125,4,2,1,60,0,0
2913,-125,4,2,2,5,0,0
3001,-125,4,2,2,60,0,0
3618,-125,4,2,2,5,0,0
3707,-125,4,2,2,60,0,0
4324,-125,4,2,2,5,0,0
4413,-125,4,2,2,60,0,0
5472,-125,4,2,1,60,0,0
5736,-125,4,2,2,5,0,0
5825,-125,4,2,2,60,0,0
6442,-125,4,2,2,5,0,0
6531,-125,4,2,2,60,0,0
7237,-111.111111111111,4,2,2,60,0,0
7589,-111.111111111111,4,2,1,60,0,0
7942,-111.111111111111,4,2,2,60,0,0
8295,-111.111111111111,4,2,1,60,0,0
8472,-111.111111111111,4,2,1,60,0,0
8648,-111.111111111111,4,2,2,60,0,0
8825,-111.111111111111,4,2,1,60,0,0
9354,-111.111111111111,4,2,2,60,0,0
9707,-111.111111111111,4,2,1,60,0,0
10060,-100,4,2,2,70,0,0
10237,-100,4,2,1,70,0,0
14295,-100,4,2,1,70,0,0
25589,-111.111111111111,4,2,1,60,0,0
36707,-100,4,2,1,70,0,0
46678,-100,4,2,1,5,0,0
46766,-100,4,2,1,70,0,0
48178,-111.111111111111,4,2,1,60,0,0
53648,-100,4,2,1,70,0,0
54354,-83.3333333333333,4,2,1,70,0,0
54707,-100,4,2,1,70,0,0
55766,-83.3333333333333,4,2,1,70,0,0
56119,-100,4,2,1,70,0,0
57001,-100,4,2,1,70,0,0
58678,-100,4,2,1,5,0,0
58766,-100,4,2,1,70,0,0
60178,-125,4,2,1,50,0,0
60884,-90.9090909090909,4,2,2,80,0,1
61148,-90.9090909090909,4,2,2,5,0,1
61237,-90.9090909090909,4,2,1,80,0,1
62295,-90.9090909090909,4,2,2,80,0,1
62472,-90.9090909090909,4,2,1,80,0,1
63001,-90.9090909090909,4,2,2,80,0,1
63178,-90.9090909090909,4,2,1,80,0,1
63707,-90.9090909090909,4,2,2,80,0,1
63884,-90.9090909090909,4,2,1,80,0,1
63972,-90.9090909090909,4,2,1,5,0,1
64060,-90.9090909090909,4,2,1,80,0,1
65119,-90.9090909090909,4,2,2,80,0,1
65295,-90.9090909090909,4,2,1,80,0,1
65825,-90.9090909090909,4,2,2,80,0,1
66354,-90.9090909090909,4,2,1,80,0,1
66442,-90.9090909090909,4,2,1,5,0,1
66531,-90.9090909090909,4,2,2,80,0,1
66884,-90.9090909090909,4,2,1,80,0,1
67942,-90.9090909090909,4,2,2,80,0,1
68119,-90.9090909090909,4,2,1,80,0,1
68648,-90.9090909090909,4,2,2,80,0,1
68825,-90.9090909090909,4,2,1,80,0,1
69354,-90.9090909090909,4,2,2,80,0,1
69531,-90.9090909090909,4,2,1,80,0,1
70589,-90.9090909090909,4,2,2,80,0,1
70766,-90.9090909090909,4,2,1,80,0,1
72178,-90.9090909090909,4,2,2,80,0,1
72442,-90.9090909090909,4,2,2,5,0,1
72531,-90.9090909090909,4,2,1,80,0,1
73589,-90.9090909090909,4,2,2,80,0,1
73766,-90.9090909090909,4,2,1,80,0,1
74207,-90.9090909090909,4,2,1,5,0,1
74295,-90.9090909090909,4,2,1,80,0,1
75001,-90.9090909090909,4,2,2,80,0,1
75266,-90.9090909090909,4,2,2,5,0,1
75354,-90.9090909090909,4,2,1,80,0,1
76413,-90.9090909090909,4,2,2,80,0,1
77295,-90.9090909090909,4,2,1,80,0,1
79854,-90.9090909090909,4,2,1,5,0,1
79942,-90.9090909090909,4,2,1,80,0,1
80648,-100,4,2,2,80,0,1
81001,-100,4,2,1,80,0,1
82060,-100,4,2,2,80,0,1
82413,-100,4,2,1,80,0,1
83472,-90.9090909090909,4,2,2,80,0,1
83648,-90.9090909090909,4,2,1,80,0,1
84884,-125,4,2,1,80,0,0
86295,-100,4,2,1,70,0,0
97589,-100,4,2,1,70,0,0
97853,-100,4,2,1,5,0,0
97942,-100,4,2,1,70,0,0
106324,-100,4,2,1,5,0,0
106413,-100,4,2,1,70,0,0
107736,-100,4,2,1,5,0,0
107825,-100,4,2,1,70,0,0
108884,-111.111111111111,4,2,1,60,0,0
114354,-100,4,2,1,70,0,0
115060,-83.3333333333333,4,2,1,70,0,0
115589,-100,4,2,1,70,0,0
116472,-83.3333333333333,4,2,1,70,0,0
117001,-100,4,2,1,70,0,0
119384,-100,4,2,1,5,0,0
119472,-100,4,2,1,70,0,0
120884,-125,4,2,1,50,0,0
121589,-90.9090909090909,4,2,2,80,0,1
121854,-90.9090909090909,4,2,2,5,0,1
121942,-90.9090909090909,4,2,1,80,0,1
123000,-90.9090909090909,4,2,2,80,0,1
123177,-90.9090909090909,4,2,1,80,0,1
123706,-90.9090909090909,4,2,2,80,0,1
123883,-90.9090909090909,4,2,1,80,0,1
124412,-90.9090909090909,4,2,2,80,0,1
124589,-90.9090909090909,4,2,1,80,0,1
124678,-90.9090909090909,4,2,1,5,0,1
124766,-90.9090909090909,4,2,1,80,0,1
125824,-90.9090909090909,4,2,2,80,0,1
127059,-90.9090909090909,4,2,1,80,0,1
127236,-90.9090909090909,4,2,2,80,0,1
127589,-90.9090909090909,4,2,1,80,0,1
128647,-90.9090909090909,4,2,2,80,0,1
128824,-90.9090909090909,4,2,1,80,0,1
129353,-90.9090909090909,4,2,2,80,0,1
129530,-90.9090909090909,4,2,1,80,0,1
130059,-90.9090909090909,4,2,2,80,0,1
130236,-90.9090909090909,4,2,1,80,0,1
131294,-90.9090909090909,4,2,2,80,0,1
131471,-90.9090909090909,4,2,1,80,0,1
131559,-90.9090909090909,4,2,1,5,0,1
131648,-90.9090909090909,4,2,1,80,0,1
132884,-90.9090909090909,4,2,2,80,0,1
133148,-90.9090909090909,4,2,2,5,0,1
133237,-90.9090909090909,4,2,1,80,0,1
134294,-90.9090909090909,4,2,2,80,0,1
134471,-90.9090909090909,4,2,1,80,0,1
135706,-90.9090909090909,4,2,2,80,0,1
135972,-90.9090909090909,4,2,2,5,0,1
136060,-90.9090909090909,4,2,1,80,0,1
137118,-90.9090909090909,4,2,2,80,0,1
137384,-90.9090909090909,4,2,2,5,0,1
137472,-90.9090909090909,4,2,2,80,0,1
138000,-90.9090909090909,4,2,1,80,0,1
140560,-90.9090909090909,4,2,1,5,0,1
140648,-90.9090909090909,4,2,1,80,0,1
141354,-100,4,2,2,80,0,1
141706,-100,4,2,1,80,0,1
142765,-100,4,2,2,80,0,1
143118,-100,4,2,1,80,0,1
144178,-90.9090909090909,4,2,2,80,0,1
144354,-90.9090909090909,4,2,1,80,0,1
147001,-100,4,2,1,70,0,0
149737,-100,4,2,1,5,0,0
149825,-100,4,2,1,70,0,0
152560,-100,4,2,1,5,0,0
152648,-100,4,2,1,70,0,0
155384,-100,4,2,1,5,0,0
155472,-100,4,2,1,70,0,0
156795,-100,4,2,1,5,0,0
156884,-100,4,2,1,70,0,0
158295,-125,4,2,1,60,0,0
169589,-111.111111111111,4,2,1,60,0,0
178060,-100,4,2,1,70,0,0
182295,-125,4,2,1,50,0,0
183707,-125,4,2,1,60,0,0
189354,-125,4,2,1,50,0,0
191472,-111.111111111111,4,2,1,70,0,0
192089,-111.111111111111,4,2,1,5,0,0
192178,-100,4,2,1,70,0,0
193678,-111.111111111111,4,2,1,5,0,0
193766,-100,4,2,1,70,0,0
194295,-125,4,2,1,50,0,0
195001,-90.9090909090909,4,2,1,80,0,1
195266,-90.9090909090909,4,2,1,5,0,1
195354,-90.9090909090909,4,2,1,80,0,1
196412,-90.9090909090909,4,2,2,80,0,1
196589,-90.9090909090909,4,2,1,80,0,1
197118,-90.9090909090909,4,2,2,80,0,1
197295,-90.9090909090909,4,2,1,80,0,1
197824,-90.9090909090909,4,2,2,80,0,1
198001,-90.9090909090909,4,2,1,80,0,1
198089,-90.9090909090909,4,2,1,5,0,1
198178,-90.9090909090909,4,2,1,80,0,1
199236,-90.9090909090909,4,2,2,80,0,1
199413,-90.9090909090909,4,2,1,80,0,1
199942,-90.9090909090909,4,2,2,80,0,1
200471,-90.9090909090909,4,2,1,80,0,1
200560,-90.9090909090909,4,2,1,5,0,1
200648,-90.9090909090909,4,2,2,80,0,1
201001,-90.9090909090909,4,2,1,80,0,1
202059,-90.9090909090909,4,2,2,80,0,1
202236,-90.9090909090909,4,2,1,80,0,1
202765,-90.9090909090909,4,2,2,80,0,1
202942,-90.9090909090909,4,2,1,80,0,1
203471,-90.9090909090909,4,2,2,80,0,1
203648,-90.9090909090909,4,2,1,80,0,1
204706,-90.9090909090909,4,2,2,80,0,1
204883,-90.9090909090909,4,2,1,80,0,1
206295,-90.9090909090909,4,2,2,80,0,1
206560,-90.9090909090909,4,2,2,5,0,1
206648,-90.9090909090909,4,2,1,80,0,1
207706,-90.9090909090909,4,2,2,80,0,1
207883,-90.9090909090909,4,2,1,80,0,1
208324,-90.9090909090909,4,2,1,5,0,1
208413,-90.9090909090909,4,2,1,80,0,1
209118,-90.9090909090909,4,2,2,80,0,1
209471,-90.9090909090909,4,2,1,80,0,1
210530,-90.9090909090909,4,2,2,80,0,1
211412,-90.9090909090909,4,2,1,80,0,1
213972,-90.9090909090909,4,2,1,5,0,1
214060,-90.9090909090909,4,2,1,80,0,1
214766,-100,4,2,2,80,0,1
215118,-100,4,2,1,80,0,1
216177,-100,4,2,2,80,0,1
216530,-100,4,2,1,80,0,1
217589,-90.9090909090909,4,2,2,80,0,1
217766,-90.9090909090909,4,2,1,80,0,1
219001,-125,4,2,1,80,0,0
220413,-100,4,2,1,70,0,0

[Colours]
Combo1 : 227,172,138
Combo2 : 249,187,119
Combo3 : 253,140,140

[HitObjects]
60,104,1590,6,0,P|212:48|272:180,1,336,6|2,1:0|0:0,0:0:0:0:
252,320,3001,2,0,B|364:292|364:352|476:320,1,224,2|2,0:0|0:0,0:0:0:0:
460,32,4413,6,0,B|372:48|372:48|348:144|280:132|280:132|272:76|224:40,1,336,6|2,1:0|0:0,0:0:0:0:
92,96,5825,2,0,P|44:152|64:300,1,224,6|6,1:0|1:0,0:0:0:0:
112,352,6707,1,8,3:0:0:0:
112,352,6884,1,8,3:0:0:0:
160,292,7060,1,8,3:0:0:0:
263,331,7237,6,0,P|327:347|383:319,1,125.999996154785,6|0,1:0|1:0,0:0:0:0:
455,279,7766,2,0,L|423:147,1,125.999996154785,2|0,0:0|0:0,0:0:0:0:
372,84,8295,2,0,P|340:92|308:80,1,62.9999980773926,2|2,1:0|0:0,0:0:0:0:
256,16,8648,1,2,1:0:0:0:
200,82,8825,2,0,B|160:52|160:52|80:68,1,125.999996154785,2|0,0:0|0:0,0:0:0:0:
68,152,9354,2,0,B|82:226|82:226|52:266,1,125.999996154785,2|2,1:0|1:0,0:0:0:0:
88,348,9884,5,2,0:0:0:0:
88,348,9972,1,2,0:0:0:0:
88,348,10060,2,0,L|160:356,1,70,6|8,1:0|0:0,0:0:0:0:
236,296,10413,1,8,0:0:0:0:
312,236,10589,5,8,0:0:0:0:
312,236,10678,1,8,0:0:0:0:
312,236,10766,2,0,L|348:260,3,35,8|8|8|8,0:0|0:0|0:0|0:0,0:0:0:0:
352,304,11119,2,0,L|388:328,3,35,8|8|8|8,0:0|0:0|0:0|0:0,0:0:0:0:
424,348,11472,5,8,0:0:0:0:
484,272,11648,1,8,0:0:0:0:
256,192,12707,12,6,14295,1:0:0:0:
512,98,14648,5,2,0:0:0:0:
437,162,14825,2,0,P|369:143|301:125,1,140,2|0,1:0|0:0,0:0:0:0:
239,49,15354,1,2,0:0:0:0:
149,92,15531,6,0,P|121:153|156:211,1,140,2|0,1:0|1:0,0:0:0:0:
236,267,16060,1,0,1:0:0:0:
179,347,16237,1,2,0:0:0:0:
179,347,16325,1,2,0:0:0:0:
179,347,16413,2,0,P|123:332|86:324,1,70,10|0,0:0|1:0,0:0:0:0:
17,359,16766,1,2,0:0:0:0:
17,359,16942,1,0,1:0:0:0:
0,262,17119,6,0,P|21:195|41:128,1,140,4|2,1:0|0:0,0:0:0:0:
3,37,17648,2,0,P|63:6|125:33,1,140,2|0,1:0|0:0,0:0:0:0:
220,3,18178,1,2,0:0:0:0:
296,62,18354,6,0,P|278:112|238:220,1,140,2|0,1:0|1:0,0:0:0:0:
176,261,18884,1,0,1:0:0:0:
248,326,19060,1,2,1:0:0:0:
248,326,19148,1,0,1:0:0:0:
248,326,19237,2,0,L|322:314,1,70,10|0,0:0|1:0,0:0:0:0:
391,378,19589,1,2,1:0:0:0:
391,378,19766,1,0,1:0:0:0:
486,354,19942,6,0,P|513:293|481:233,1,140,4|2,1:0|0:0,0:0:0:0:
509,138,20472,2,0,P|438:156|364:173,1,140,2|0,1:0|0:0,0:0:0:0:
295,232,21001,1,2,0:0:0:0:
211,180,21178,6,0,P|189:86|235:52,1,140,2|0,1:0|1:0,0:0:0:0:
293,6,21707,1,2,1:0:0:0:
376,57,21884,1,2,0:0:0:0:
376,57,21972,1,2,0:0:0:0:
376,57,22060,2,0,P|400:40|452:38,1,70,10|0,0:0|1:0,0:0:0:0:
511,111,22413,1,2,0:0:0:0:
511,111,22589,1,0,1:0:0:0:
454,191,22766,6,0,P|438:152|423:114,2,70,6|0|2,1:0|0:0|0:0,0:0:0:0:
504,273,23295,2,0,P|456:226|388:233,1,140,2|2,1:0|0:0,0:0:0:0:
323,307,23825,1,2,0:0:0:0:
251,240,24001,6,0,P|268:172|284:103,1,140,2|2,1:0|1:0,0:0:0:0:
220,27,24531,1,0,1:0:0:0:
136,78,24707,1,2,1:0:0:0:
136,78,24795,1,0,1:0:0:0:
136,78,24884,1,8,0:0:0:0:
66,9,25060,1,2,0:0:0:0:
66,9,25237,1,0,1:0:0:0:
3,84,25413,1,2,0:0:0:0:
72,140,25589,6,0,P|60:188|76:268,1,125.999996154785,4|0,1:0|1:0,0:0:0:0:
132,332,26119,2,0,L|196:316,1,62.9999980773926,2|0,0:0|1:0,0:0:0:0:
280,296,26472,2,0,B|328:304|328:304|352:324|352:324|404:332,1,125.999996154785,2|2,0:0|0:0,0:0:0:0:
484,336,27001,1,0,1:0:0:0:
448,256,27178,2,0,P|440:196|472:128,1,125.999996154785,2|2,0:0|0:0,0:0:0:0:
500,56,27707,1,0,1:0:0:0:
412,68,27884,2,0,L|288:32,1,125.999996154785,2|2,0:0|0:0,0:0:0:0:
216,76,28413,6,0,L|240:144,1,62.9999980773926,0|2,1:0|0:0,0:0:0:0:
212,220,28766,2,0,P|160:188|92:188,2,125.999996154785,0|0|0,1:0|1:0|1:0,0:0:0:0:
280,276,29648,2,0,P|332:308|400:308,1,125.999996154785,2|2,0:0|0:0,0:0:0:0:
472,260,30178,1,0,1:0:0:0:
440,180,30354,2,0,L|412:116,1,62.9999980773926,2|0,0:0|1:0,0:0:0:0:
328,124,30707,2,0,L|300:60,1,62.9999980773926,2|0,0:0|1:0,0:0:0:0:
216,44,31060,6,0,B|184:80|184:80|100:64,1,125.999996154785,2|2,0:0|0:0,0:0:0:0:
48,132,31589,2,0,B|33:208|33:208|69:240,2,125.999996154785,0|0|0,1:0|1:0|1:0,0:0:0:0:
107,65,32472,2,0,P|128:40|156:24,1,62.9999980773926,2|0,0:0|1:0,0:0:0:0:
232,68,32825,2,0,P|257:89|273:117,1,62.9999980773926,2|0,0:0|1:0,0:0:0:0:
268,204,33178,2,0,B|324:184|324:220|408:200,1,125.999996154785,2|2,0:0|0:0,0:0:0:0:
456,264,33707,1,0,1:0:0:0:
456,264,33884,1,2,0:0:0:0:
400,332,34060,6,0,B|331:315|331:351|275:331,2,125.999996154785,0|0|0,1:0|1:0|1:0,0:0:0:0:
456,264,34942,1,2,0:0:0:0:
508,192,35119,1,2,1:0:0:0:
508,192,35207,1,0,1:0:0:0:
508,192,35295,1,8,0:0:0:0:
380,72,35648,1,8,0:0:0:0:
316,236,36001,5,2,0:0:0:0:
316,236,36089,1,2,0:0:0:0:
316,236,36178,1,2,0:0:0:0:
260,304,36354,2,0,P|220:316|200:316,1,62.9999980773926,2|2,0:0|0:0,0:0:0:0:
100,318,36707,6,0,P|92:342|77:390,1,70,6|0,1:0|0:0,0:0:0:0:
3,321,37060,2,0,P|11:297|26:249,1,70,0|8,1:0|0:0,0:0:0:0:
108,202,37413,1,2,0:0:0:0:
108,202,37589,1,2,1:0:0:0:
77,108,37766,2,0,P|47:115|1:128,1,70,0|8,1:0|0:0,0:0:0:0:
117,25,38119,6,0,P|150:33|184:42,1,70,2|0,1:0|0:0,0:0:0:0:
278,70,38472,2,0,P|311:60|345:52,1,70,2|8,1:0|0:0,0:0:0:0:
439,83,38825,2,0,P|449:50|443:16,1,70,2|0,0:0|1:0,0:0:0:0:
370,125,39178,2,0,P|379:150|402:207,1,70,2|8,1:0|0:0,0:0:0:0:
453,269,39531,6,0,P|401:222|328:244,1,140,2|0,1:0|1:0,0:0:0:0:
239,239,40060,2,0,P|246:262|263:313,1,70,8|0,0:0|0:0,0:0:0:0:
329,376,40413,1,0,1:0:0:0:
329,376,40589,1,0,1:0:0:0:
419,337,40766,1,10,0:0:0:0:
506,377,40942,6,0,P|523:346|519:312,1,70,2|0,1:0|0:0,0:0:0:0:
510,214,41295,2,0,P|476:225|443:237,1,70,2|8,1:0|0:0,0:0:0:0:
359,287,41648,2,0,P|326:275|292:263,1,70,2|0,1:0|0:0,0:0:0:0:
201,300,42001,2,0,P|193:240|218:216,1,70,2|8,1:0|0:0,0:0:0:0:
215,138,42354,6,0,P|244:146|294:160,1,70,4|0,1:0|0:0,0:0:0:0:
364,210,42707,2,0,P|417:189|434:168,1,70,2|8,1:0|0:0,0:0:0:0:
500,117,43060,1,2,0:0:0:0:
428,29,43237,2,0,B|349:15|366:68|297:63,1,140,2|8,1:0|0:0,0:0:0:0:
203,34,43766,1,2,1:0:0:0:
137,106,43942,6,0,P|84:88|15:67,2,105,2|2|2,1:0|0:0|0:0,0:0:0:0:
207,174,44648,2,0,P|235:146|307:138,2,105,2|2|2,1:0|0:0|1:0,0:0:0:0:
145,250,45354,6,0,P|118:241|77:229,1,70,2|0,1:0|0:0,0:0:0:0:
2,166,45707,2,0,P|37:222|3:279,1,140,10|2,0:0|1:0,0:0:0:0:
27,375,46237,1,0,1:0:0:0:
121,350,46413,2,0,P|182:324|219:351,1,105,10|0,0:0|0:0,0:0:0:0:
223,352,46766,6,0,P|240:284|257:216,1,140,2|8,1:0|0:0,0:0:0:0:
190,144,47295,1,8,0:0:0:0:
190,144,47384,1,8,0:0:0:0:
190,144,47472,2,0,P|197:111|206:75,1,70,8|8,0:0|0:0,0:0:0:0:
288,20,47825,1,8,0:0:0:0:
356,92,48001,1,8,0:0:0:0:
416,172,48178,6,0,P|416:224|384:296,1,125.999996154785,6|0,1:0|1:0,0:0:0:0:
332,360,48707,1,0,1:0:0:0:
296,280,48884,2,0,L|164:264,1,125.999996154785,8|0,0:0|1:0,0:0:0:0:
84,256,49413,1,0,1:0:0:0:
128,180,49589,6,0,P|140:144|136:116,1,62.9999980773926,2|8,0:0|0:0,0:0:0:0:
112,36,49942,1,0,1:0:0:0:
200,48,50119,1,0,1:0:0:0:
200,48,50295,2,0,B|252:40|252:40|276:52|276:52|328:44,1,125.999996154785,10|0,0:0|1:0,0:0:0:0:
408,32,50825,1,0,1:0:0:0:
480,84,51001,6,0,P|448:116|436:200,1,125.999996154785,4|2,1:0|1:0,0:0:0:0:
428,280,51531,2,0,L|364:264,1,62.9999980773926,0|8,1:0|0:0,0:0:0:0:
308,328,51884,2,0,L|244:312,1,62.9999980773926,2|0,0:0|1:0,0:0:0:0:
160,296,52237,2,0,P|108:312|44:288,1,125.999996154785,2|8,1:0|0:0,0:0:0:0:
20,204,52766,1,0,1:0:0:0:
72,132,52942,1,0,1:0:0:0:
28,56,53119,2,0,L|96:32,1,62.9999980773926,12|0,0:0|0:0,0:0:0:0:
168,4,53472,1,8,0:0:0:0:
204,96,53648,5,2,1:0:0:0:
204,96,53737,1,2,1:0:0:0:
204,96,53825,2,0,P|264:88|336:128,1,140,4|8,1:0|0:0,0:0:0:0:
280,232,54354,6,0,B|344:216|344:216|380:232|380:232|440:216,1,167.999994873047,10|0,1:0|1:0,0:0:0:0:
472,124,54884,1,10,0:0:0:0:
400,60,55060,5,0,1:0:0:0:
400,60,55148,1,0,1:0:0:0:
400,60,55237,2,0,P|348:32|264:40,1,140,0|8,1:0|0:0,0:0:0:0:
220,144,55766,6,0,B|156:160|156:160|120:144|120:144|60:160,1,167.999994873047,10|0,1:0|1:0,0:0:0:0:
16,248,56295,1,8,0:0:0:0:
84,320,56472,5,2,0:0:0:0:
84,320,56560,1,2,0:0:0:0:
84,320,56648,2,0,P|124:344|184:344,2,105,4|2|2,1:0|0:0|0:0,0:0:0:0:
152,252,57354,2,0,P|151:200|176:154,2,105,2|2|2,1:0|0:0|0:0,0:0:0:0:
181,344,58060,6,0,L|252:328,1,70,4|0,1:0|0:0,0:0:0:0:
344,304,58413,2,0,P|404:316|448:296,1,105,8|0,0:0|0:0,0:0:0:0:
472,288,58766,2,0,L|452:216,1,70,2|0,1:0|1:0,0:0:0:0:
424,128,59119,1,8,0:0:0:0:
396,36,59295,2,0,P|364:48|328:44,1,70,4|0,1:0|1:0,0:0:0:0:
256,108,59648,1,8,0:0:0:0:
184,44,59825,1,8,0:0:0:0:
67,156,60178,5,2,0:0:0:0:
67,156,60354,2,0,P|111:184|123:248,1,112,2|2,0:0|0:0,0:0:0:0:
177,354,60884,6,0,P|118:366|37:383,1,115.50000352478,6|0,1:0|0:0,0:0:0:0:
53,380,61237,2,0,P|25:354|27:316,1,77.0000023498536,10|0,0:0|0:0,0:0:0:0:
74,222,61589,1,0,1:0:0:0:
74,222,61766,1,2,0:0:0:0:
8,136,61942,1,8,0:0:0:0:
44,34,62119,6,0,P|76:43|123:57,1,77.0000023498536,2|2,0:0|1:0,0:0:0:0:
218,94,62472,2,0,B|280:81|280:81|308:96|308:96|382:83,1,154.000004699707,2|0,0:0|0:0,0:0:0:0:
437,4,63001,1,2,1:0:0:0:
437,4,63178,1,2,0:0:0:0:
511,81,63354,1,8,0:0:0:0:
447,168,63531,1,2,0:0:0:0:
510,253,63707,6,0,P|462:282|407:271,1,115.50000352478,2|0,1:0|0:0,0:0:0:0:
394,262,64060,2,0,P|337:227|310:235,1,77.0000023498536,8|0,0:0|0:0,0:0:0:0:
249,298,64413,1,0,1:0:0:0:
249,298,64589,1,2,0:0:0:0:
168,225,64766,1,8,0:0:0:0:
227,135,64942,6,0,P|257:142|305:152,1,77.0000023498536,2|2,0:0|1:0,0:0:0:0:
194,51,65295,2,0,P|111:68|43:82,1,154.000004699707,2|0,0:0|0:0,0:0:0:0:
2,174,65825,2,0,P|17:205|33:252,1,77.0000023498536,2|0,1:0|0:0,0:0:0:0:
138,255,66178,2,0,P|75:279|65:330,1,115.50000352478,8|2,0:0|0:0,0:0:0:0:
71,340,66531,6,0,P|134:325|237:302,1,154.000004699707,6|8,1:0|0:0,0:0:0:0:
319,351,67060,2,0,B|396:328|373:388|466:372,1,154.000004699707,2|2,0:0|0:0,0:0:0:0:
509,274,67589,2,0,L|425:292,1,77.0000023498536,8|0,0:0|0:0,0:0:0:0:
334,246,67942,5,2,1:0:0:0:
410,169,68119,2,0,P|429:79|443:10,1,154.000004699707,2|0,0:0|0:0,0:0:0:0:
334,5,68648,2,0,L|315:83,1,77.0000023498536,2|2,1:0|0:0,0:0:0:0:
241,159,69001,2,0,P|193:133|153:148,1,77.0000023498536,8|0,0:0|0:0,0:0:0:0:
182,246,69354,6,0,P|256:227|331:208,1,154.000004699707,2|8,1:0|0:0,0:0:0:0:
388,116,69884,2,0,P|461:108|510:165,1,154.000004699707,2|0,0:0|1:0,0:0:0:0:
511,273,70413,1,8,0:0:0:0:
456,365,70589,6,0,P|430:274|412:214,1,154.000004699707,6|2,1:0|1:0,0:0:0:0:
362,121,71119,2,0,B|275:109|306:166|220:163,1,154.000004699707,8|0,0:0|1:0,0:0:0:0:
126,208,71648,1,8,0:0:0:0:
126,208,71737,1,8,0:0:0:0:
126,208,71825,1,8,0:0:0:0:
38,164,72001,1,8,0:0:0:0:
38,164,72089,1,8,0:0:0:0:
38,164,72178,6,0,L|56:44,1,115.50000352478,6|0,1:0|0:0,0:0:0:0:
80,32,72531,2,0,P|112:52|152:52,1,77.0000023498536,10|2,0:0|0:0,0:0:0:0:
256,64,72884,1,0,1:0:0:0:
256,64,73060,1,2,0:0:0:0:
240,172,73237,1,8,0:0:0:0:
340,136,73413,6,0,L|416:144,1,77.0000023498536,2|2,0:0|1:0,0:0:0:0:
492,220,73766,1,2,0:0:0:0:
412,292,73942,2,0,P|360:280|300:300,1,115.50000352478,8|0,0:0|0:0,0:0:0:0:
272,312,74295,1,0,1:0:0:0:
176,360,74472,1,2,0:0:0:0:
176,360,74560,1,2,0:0:0:0:
176,360,74648,1,8,0:0:0:0:
96,288,74825,1,2,0:0:0:0:
192,240,75001,6,0,P|216:188|204:132,1,115.50000352478,2|0,1:0|0:0,0:0:0:0:
188,104,75354,2,0,L|264:76,1,77.0000023498536,10|0,0:0|0:0,0:0:0:0:
168,20,75707,2,0,L|92:48,1,77.0000023498536,0|2,1:0|0:0,0:0:0:0:
28,128,76060,1,8,0:0:0:0:
28,128,76237,1,2,0:0:0:0:
112,196,76413,2,0,P|144:232|144:340,1,154.000004699707,2|8,1:0|0:0,0:0:0:0:
52,288,76942,1,0,0:0:0:0:
112,196,77119,6,0,L|232:176,1,115.50000352478,2|2,1:0|0:0,0:0:0:0:
256,172,77472,1,10,0:0:0:0:
348,228,77648,1,2,0:0:0:0:
420,148,77825,2,0,P|440:116|448:72,1,77.0000023498536,6|2,1:0|0:0,0:0:0:0:
448,56,78089,1,2,0:0:0:0:
444,32,78178,2,0,L|368:20,1,77.0000023498536,8|2,0:0|1:0,0:0:0:0:
268,64,78531,6,0,L|192:52,1,77.0000023498536,2|0,1:0|1:0,0:0:0:0:
100,108,78884,1,12,0:0:0:0:
100,108,79060,1,2,0:0:0:0:
12,172,79237,2,0,P|0:208|4:248,1,77.0000023498536,0|0,1:0|1:0,0:0:0:0:
80,320,79589,6,0,P|136:344|196:336,1,115.50000352478,8|0,0:0|0:0,0:0:0:0:
216,332,79942,1,2,1:0:0:0:
296,260,80119,1,8,0:0:0:0:
296,260,80207,1,8,0:0:0:0:
296,260,80295,2,0,L|340:272,3,38.5000011749268,8|8|8|8,0:0|0:0|0:0|0:0,0:0:0:0:
368,280,80648,6,0,P|412:236|424:160,1,140,6|2,1:0|0:0,0:0:0:0:
408,64,81178,1,0,1:0:0:0:
328,120,81354,2,0,L|256:100,1,70,10|0,0:0|1:0,0:0:0:0:
168,176,81707,2,0,L|240:196,1,70,2|0,0:0|0:0,0:0:0:0:
316,252,82060,6,0,P|380:240|456:272,1,140,2|2,1:0|0:0,0:0:0:0:
504,348,82589,1,0,1:0:0:0:
412,380,82766,2,0,L|272:352,1,140,10|2,0:0|0:0,0:0:0:0:
180,332,83295,5,0,1:0:0:0:
180,332,83384,1,0,1:0:0:0:
180,332,83472,1,6,1:0:0:0:
128,240,83648,1,8,0:0:0:0:
56,320,83825,1,8,0:0:0:0:
4,224,84001,5,8,0:0:0:0:
4,224,84089,1,8,0:0:0:0:
4,224,84178,2,0,L|20:184,3,38.5000011749268,8|8|8|8,0:0|0:0|0:0|0:0,0:0:0:0:
52,164,84531,2,0,L|68:124,3,38.5000011749268,8|8|8|8,0:0|0:0|0:0|0:0,0:0:0:0:
100,98,84884,5,8,0:0:0:0:
200,144,85060,1,8,0:0:0:0:
200,144,86295,5,6,1:0:0:0:
355,24,86648,1,2,0:0:0:0:
420,96,86825,2,0,P|361:60|295:78,1,140,2|0,1:0|0:0,0:0:0:0:
212,25,87354,1,2,0:0:0:0:
141,93,87531,6,0,P|155:144|180:232,1,140,2|2,1:0|1:0,0:0:0:0:
123,309,88060,1,0,1:0:0:0:
206,378,88237,1,2,0:0:0:0:
206,378,88325,1,2,0:0:0:0:
206,378,88413,2,0,P|262:363|299:355,1,70,8|0,0:0|1:0,0:0:0:0:
368,326,88766,1,2,0:0:0:0:
368,326,88942,1,0,1:0:0:0:
452,376,89119,6,0,P|473:309|427:249,1,140,4|2,1:0|0:0,0:0:0:0:
356,197,89648,2,0,P|319:139|341:75,1,140,0|0,1:0|0:0,0:0:0:0:
408,3,90178,1,2,0:0:0:0:
504,20,90354,6,0,P|486:70|446:178,1,140,0|0,1:0|1:0,0:0:0:0:
437,254,90884,1,0,1:0:0:0:
356,197,91060,1,2,1:0:0:0:
356,197,91148,1,2,1:0:0:0:
356,197,91237,2,0,L|282:209,1,70,8|0,0:0|1:0,0:0:0:0:
227,286,91589,1,2,1:0:0:0:
227,286,91766,1,0,1:0:0:0:
156,217,91942,6,0,P|123:157|150:95,1,140,4|2,1:0|0:0,0:0:0:0:
221,26,92472,2,0,P|150:44|76:61,1,140,2|0,1:0|0:0,0:0:0:0:
6,118,93001,1,2,0:0:0:0:
90,167,93178,6,0,P|78:219|57:314,1,140,2|0,1:0|1:0,0:0:0:0:
124,376,93707,1,2,1:0:0:0:
211,326,93884,1,2,0:0:0:0:
211,326,93972,1,2,0:0:0:0:
211,326,94060,2,0,P|214:296|192:249,1,70,8|0,0:0|1:0,0:0:0:0:
144,185,94413,1,2,0:0:0:0:
144,185,94589,1,0,1:0:0:0:
224,128,94766,6,0,P|240:89|255:51,2,70,4|0|2,1:0|0:0|0:0,0:0:0:0:
276,210,95295,2,0,B|345:184|334:236|412:221,1,140,2|2,1:0|0:0,0:0:0:0:
493,275,95825,1,2,0:0:0:0:
510,178,96001,6,0,P|493:110|477:41,1,140,2|2,1:0|1:0,0:0:0:0:
384,8,96531,1,0,1:0:0:0:
318,80,96707,1,2,1:0:0:0:
318,80,96795,1,0,1:0:0:0:
318,80,96884,1,8,0:0:0:0:
386,156,97060,1,8,3:0:0:0:
386,156,97237,1,8,3:0:0:0:
308,214,97413,1,8,3:0:0:0:
368,292,97589,6,0,P|320:296|248:348,1,140,4|8,1:0|0:0,0:0:0:0:
152,324,98119,1,2,0:0:0:0:
152,324,98207,1,2,0:0:0:0:
152,324,98295,2,0,L|80:300,1,70,0|0,1:0|1:0,0:0:0:0:
16,232,98648,1,8,0:0:0:0:
96,176,98825,6,0,P|140:128|140:48,1,140,2|0,1:0|1:0,0:0:0:0:
232,16,99354,1,8,0:0:0:0:
308,76,99531,2,0,L|380:88,1,70,2|0,0:0|1:0,0:0:0:0:
448,156,99884,1,0,1:0:0:0:
448,156,100060,1,8,0:0:0:0:
376,224,100237,6,0,B|312:200|312:248|240:224,1,140,2|0,1:0|1:0,0:0:0:0:
152,176,100766,2,0,P|112:216|92:296,1,140,8|0,0:0|1:0,0:0:0:0:
148,376,101295,1,0,1:0:0:0:
148,376,101472,1,8,0:0:0:0:
228,320,101648,6,0,L|376:300,1,140,2|0,1:0|1:0,0:0:0:0:
464,288,102178,1,8,0:0:0:0:
432,196,102354,2,0,B|444:140|444:140|464:120|464:120|472:64,1,140,2|0,1:0|1:0,0:0:0:0:
392,8,102884,1,8,0:0:0:0:
304,52,103060,6,0,P|288:104|208:152,1,140,4|0,1:0|1:0,0:0:0:0:
128,120,103589,1,8,0:0:0:0:
44,172,103766,2,0,L|24:244,1,70,2|0,0:0|1:0,0:0:0:0:
76,324,104119,1,0,1:0:0:0:
156,268,104295,1,8,0:0:0:0:
216,348,104472,5,0,1:0:0:0:
216,348,104560,1,0,1:0:0:0:
216,348,104648,2,0,P|264:328|324:340,2,105,2|2|2,0:0|0:0|0:0,0:0:0:0:
156,268,105354,2,0,L|204:164,2,105,2|2|2,1:0|0:0|1:0,0:0:0:0:
76,324,106060,2,0,P|36:288|16:204,1,140,2|8,1:0|0:0,0:0:0:0:
92,24,106766,5,0,1:0:0:0:
92,24,106942,1,0,1:0:0:0:
148,104,107119,2,0,L|220:112,1,70,10|2,0:0|0:0,0:0:0:0:
276,192,107472,2,0,L|420:208,1,140,2|8,1:0|0:0,0:0:0:0:
484,276,108001,5,8,0:0:0:0:
484,276,108089,1,8,0:0:0:0:
484,276,108178,2,0,L|473:345,1,70,8|8,0:0|0:0,0:0:0:0:
384,384,108531,1,8,0:0:0:0:
300,332,108707,1,8,0:0:0:0:
213,289,108884,6,0,P|158:292|121:351,1,125.999996154785,6|0,1:0|1:0,0:0:0:0:
37,374,109413,1,0,1:0:0:0:
8,290,109590,2,0,P|25:213|37:161,1,125.999996154785,8|0,0:0|1:0,0:0:0:0:
79,90,110119,1,0,1:0:0:0:
2,47,110295,6,0,P|48:-3|114:6,1,125.999996154785,2|0,0:0|1:0,0:0:0:0:
175,48,110825,1,0,1:0:0:0:
255,14,111001,2,0,P|242:62|223:140,1,125.999996154785,10|0,0:0|1:0,0:0:0:0:
157,195,111531,1,0,1:0:0:0:
217,258,111707,6,0,B|265:245|265:245|286:253|286:253|343:238,1,125.999996154785,4|2,1:0|1:0,0:0:0:0:
391,310,112237,2,0,P|406:280|423:249,1,62.9999980773926,0|8,1:0|0:0,0:0:0:0:
504,228,112589,2,0,P|489:198|472:167,1,62.9999980773926,2|0,0:0|1:0,0:0:0:0:
491,85,112942,6,0,P|456:135|396:145,1,125.999996154785,2|8,1:0|0:0,0:0:0:0:
315,109,113472,1,0,1:0:0:0:
315,109,113648,1,0,1:0:0:0:
241,158,113825,2,0,L|217:90,1,62.9999980773926,12|0,0:0|0:0,0:0:0:0:
169,26,114178,1,8,0:0:0:0:
108,104,114354,5,2,1:0:0:0:
108,104,114443,1,2,1:0:0:0:
108,103,114531,2,0,P|87:168|128:221,1,140,4|8,1:0|0:0,0:0:0:0:
237,267,115060,6,0,B|289:238|327:273|317:270|352:306|398:274,1,167.999994873047,10|0,1:0|1:0,0:0:0:0:
491,255,115590,5,10,0:0:0:0:
512,358,115766,1,2,0:0:0:0:
512,358,115854,1,2,0:0:0:0:
512,358,115943,2,0,P|436:370|349:383,1,140,0|8,1:0|0:0,0:0:0:0:
258,351,116472,6,0,B|206:322|168:357|178:354|143:390|96:358,1,167.999994873047,10|0,1:0|1:0,0:0:0:0:
31,290,117001,1,8,0:0:0:0:
112,233,117178,5,2,0:0:0:0:
112,233,117266,1,2,0:0:0:0:
112,233,117354,2,0,P|75:194|12:209,2,105,4|2|2,1:0|0:0|0:0,0:0:0:0:
186,168,118060,2,0,P|223:129|286:144,2,105,2|2|2,1:0|0:0|0:0,0:0:0:0:
217,260,118766,6,0,P|249:252|288:244,1,70,4|0,1:0|0:0,0:0:0:0:
355,312,119119,2,0,P|391:259|366:201,1,105,8|0,0:0|0:0,0:0:0:0:
373,216,119472,2,0,P|350:161|355:140,1,70,2|2,1:0|1:0,0:0:0:0:
277,87,119825,1,8,0:0:0:0:
372,67,120001,2,0,P|380:28|386:-2,1,70,4|2,1:0|0:0,0:0:0:0:
435,123,120354,1,8,0:0:0:0:
512,43,120531,1,8,0:0:0:0:
499,214,120884,5,2,0:0:0:0:
499,214,121060,2,0,B|447:212|447:212|432:219|432:219|378:218,1,112,2|2,0:0|0:0,0:0:0:0:
318,331,121589,6,0,P|270:303|210:311,1,115.50000352478,6|0,1:0|0:0,0:0:0:0:
182,319,121942,2,0,L|154:243,1,77.0000023498536,10|0,0:0|0:0,0:0:0:0:
68,180,122295,1,0,1:0:0:0:
68,180,122472,1,2,0:0:0:0:
128,88,122648,1,8,0:0:0:0:
220,148,122825,6,0,P|256:136|284:104,1,77.0000023498536,2|2,0:0|1:0,0:0:0:0:
348,20,123178,1,2,0:0:0:0:
408,108,123354,2,0,L|472:256,1,154.000004699707,8|2,0:0|1:0,0:0:0:0:
436,352,123884,1,2,0:0:0:0:
436,352,124060,1,8,0:0:0:0:
352,284,124237,1,2,0:0:0:0:
272,356,124413,6,0,P|240:328|168:320,1,115.50000352478,2|0,1:0|0:0,0:0:0:0:
136,324,124766,2,0,P|132:284|120:248,1,77.0000023498536,8|0,0:0|0:0,0:0:0:0:
44,172,125119,1,2,1:0:0:0:
44,172,125295,1,2,0:0:0:0:
84,72,125472,1,8,0:0:0:0:
168,140,125648,6,0,P|204:128|240:96,1,77.0000023498536,2|2,0:0|1:0,0:0:0:0:
296,16,126001,1,0,0:0:0:0:
388,76,126178,2,0,P|360:128|376:224,1,154.000004699707,8|2,0:0|1:0,0:0:0:0:
452,292,126707,1,0,0:0:0:0:
376,372,126884,2,0,L|300:360,1,77.0000023498536,8|2,0:0|0:0,0:0:0:0:
200,288,127237,6,0,B|212:228|212:228|240:208|240:208|252:144,1,154.000004699707,6|8,1:0|0:0,0:0:0:0:
268,44,127766,2,0,P|224:40|188:52,1,77.0000023498536,2|0,0:0|1:0,0:0:0:0:
104,108,128119,1,2,0:0:0:0:
16,168,128295,2,0,P|64:208|76:300,1,154.000004699707,8|2,0:0|1:0,0:0:0:0:
168,356,128825,2,0,L|248:332,1,77.0000023498536,2|8,0:0|0:0,0:0:0:0:
344,300,129178,1,0,0:0:0:0:
268,224,129354,6,0,B|224:164|272:148|216:76,1,154.000004699707,2|8,1:0|0:0,0:0:0:0:
300,8,129884,1,2,0:0:0:0:
404,32,130060,2,0,B|448:92|400:108|456:180,1,154.000004699707,2|8,1:0|0:0,0:0:0:0:
492,276,130589,1,2,0:0:0:0:
420,356,130766,2,0,L|340:336,1,77.0000023498536,0|0,1:0|1:0,0:0:0:0:
240,316,131119,1,8,0:0:0:0:
312,216,131295,6,0,P|352:160|344:72,1,154.000004699707,6|2,1:0|1:0,0:0:0:0:
232,36,131825,2,0,L|80:76,1,154.000004699707,8|0,0:0|1:0,0:0:0:0:
32,168,132354,1,8,0:0:0:0:
32,168,132442,1,8,0:0:0:0:
32,168,132531,1,8,0:0:0:0:
92,260,132707,1,8,0:0:0:0:
92,260,132795,1,8,0:0:0:0:
92,260,132884,6,0,P|140:243|211:221,1,115.50000352478,6|0,1:0|0:0,0:0:0:0:
210,220,133237,2,0,P|236:249|237:286,1,77.0000023498536,10|0,0:0|0:0,0:0:0:0:
187,384,133590,1,0,1:0:0:0:
187,384,133766,1,2,0:0:0:0:
91,333,133943,1,8,0:0:0:0:
0,381,134119,6,0,P|10:340|21:299,1,77.0000023498536,2|2,0:0|1:0,0:0:0:0:
98,232,134472,1,2,0:0:0:0:
72,127,134648,2,0,P|34:139|-11:155,1,77.0000023498536,8|0,0:0|0:0,0:0:0:0:
84,35,135001,1,0,1:0:0:0:
183,98,135178,1,2,0:0:0:0:
183,98,135266,1,2,0:0:0:0:
183,98,135354,1,8,0:0:0:0:
257,19,135531,1,2,0:0:0:0:
345,77,135707,6,0,P|386:39|442:41,1,115.50000352478,2|0,1:0|0:0,0:0:0:0:
452,50,136060,2,0,P|439:85|425:122,1,77.0000023498536,10|0,0:0|0:0,0:0:0:0:
493,206,136413,2,0,P|460:230|417:234,1,77.0000023498536,0|2,1:0|0:0,0:0:0:0:
333,186,136766,1,8,0:0:0:0:
333,186,136943,1,2,0:0:0:0:
227,215,137119,6,0,P|189:254|201:308,1,115.50000352478,2|0,1:0|0:0,0:0:0:0:
209,320,137472,2,0,P|240:308|287:296,1,77.0000023498536,8|0,0:0|0:0,0:0:0:0:
358,374,137825,2,0,P|400:340|473:351,1,115.50000352478,2|2,1:0|0:0,0:0:0:0:
468,349,138178,1,10,0:0:0:0:
407,260,138354,1,2,0:0:0:0:
505,214,138531,6,0,P|496:166|487:128,1,77.0000023498536,6|2,1:0|0:0,0:0:0:0:
488,128,138795,1,2,0:0:0:0:
482,117,138884,2,0,P|447:100|409:103,1,77.0000023498536,8|2,0:0|1:0,0:0:0:0:
349,13,139237,2,0,P|311:23|266:36,1,77.0000023498536,0|0,1:0|1:0,0:0:0:0:
195,106,139590,1,12,0:0:0:0:
195,106,139766,1,2,0:0:0:0:
89,84,139942,6,0,P|102:46|119:3,1,77.0000023498536,0|0,1:0|1:0,0:0:0:0:
0,116,140295,2,0,P|11:161|32:234,1,115.50000352478,8|0,0:0|0:0,0:0:0:0:
36,238,140648,1,2,1:0:0:0:
72,349,140825,1,8,0:0:0:0:
72,349,140913,1,8,0:0:0:0:
72,349,141001,2,0,L|116:337,3,38.5000011749268,8|8|8|8,0:0|0:0|0:0|0:0,0:0:0:0:
120,344,141354,6,0,B|195:323|176:372|254:366,1,140,6|2,1:0|0:0,0:0:0:0:
339,317,141884,1,0,1:0:0:0:
273,244,142060,2,0,P|238:254|205:262,1,70,10|0,0:0|1:0,0:0:0:0:
307,166,142413,2,0,P|342:176|374:184,1,70,2|0,0:0|0:0,0:0:0:0:
441,256,142766,6,0,P|482:202|464:138,1,140,2|2,1:0|0:0,0:0:0:0:
433,44,143295,1,0,1:0:0:0:
336,21,143472,2,0,P|266:40|192:57,1,140,10|2,0:0|0:0,0:0:0:0:
143,137,144001,1,0,1:0:0:0:
143,137,144090,1,0,1:0:0:0:
143,137,144178,6,0,P|152:165|171:217,1,77.0000023498536,6|2,1:0|0:0,0:0:0:0:
102,295,144531,1,2,0:0:0:0:
102,295,144707,1,2,1:0:0:0:
181,368,144884,2,0,P|214:358|264:342,1,77.0000023498536,10|0,0:0|1:0,0:0:0:0:
285,241,145237,2,0,P|321:252|358:263,1,77.0000023498536,2|0,0:0|1:0,0:0:0:0:
370,270,145501,1,0,1:0:0:0:
382,276,145589,5,6,1:0:0:0:
443,364,145766,1,8,0:0:0:0:
443,364,145942,1,8,0:0:0:0:
510,279,146119,1,8,0:0:0:0:
510,279,146207,1,8,0:0:0:0:
510,279,146295,2,0,L|500:235,3,38.5000011749268,8|8|8|8,0:0|0:0|0:0|0:0,0:0:0:0:
500,215,146648,2,0,L|510:171,3,38.5000011749268,8|8|8|8,0:0|0:0|0:0|0:0,0:0:0:0:
496,148,147001,6,0,P|456:144|428:128,1,70,6|2,1:0|0:0,0:0:0:0:
356,64,147354,1,8,0:0:0:0:
356,64,147531,1,2,0:0:0:0:
300,144,147707,2,0,L|324:220,1,70,0|2,1:0|0:0,0:0:0:0:
348,304,148060,1,8,0:0:0:0:
348,304,148237,1,2,0:0:0:0:
256,276,148413,6,0,P|220:288|196:308,1,70,0|2,1:0|0:0,0:0:0:0:
116,364,148766,2,0,L|52:228,1,140,8|0,0:0|1:0,0:0:0:0:
20,148,149295,1,2,0:0:0:0:
116,160,149472,2,0,P|156:140|184:84,1,105,8|0,0:0|0:0,0:0:0:0:
192,60,149825,6,0,L|264:80,1,70,0|2,1:0|0:0,0:0:0:0:
344,32,150178,1,8,0:0:0:0:
344,32,150354,1,2,0:0:0:0:
408,104,150531,2,0,P|388:136|380:168,1,70,0|2,1:0|0:0,0:0:0:0:
364,264,150884,6,0,P|408:272|480:340,1,140,8|0,0:0|1:0,0:0:0:0:
384,364,151413,1,2,0:0:0:0:
292,328,151589,2,0,L|276:248,1,70,8|2,0:0|0:0,0:0:0:0:
212,188,151942,1,0,1:0:0:0:
212,188,152119,1,2,0:0:0:0:
156,268,152295,2,0,P|104:276|56:256,1,105,8|0,0:0|0:0,0:0:0:0:
32,240,152648,6,0,L|64:176,1,70,0|2,1:0|0:0,0:0:0:0:
108,88,153001,1,8,0:0:0:0:
108,88,153178,1,2,0:0:0:0:
200,52,153354,2,0,P|228:76|244:108,1,70,0|2,1:0|0:0,0:0:0:0:
288,192,153707,6,0,L|416:124,1,140,8|0,0:0|1:0,0:0:0:0:
508,148,154237,1,2,0:0:0:0:
476,240,154413,2,0,P|496:268|504:308,1,70,8|2,0:0|0:0,0:0:0:0:
424,360,154766,1,0,1:0:0:0:
424,360,154942,1,2,0:0:0:0:
332,324,155119,2,0,P|316:272|328:224,1,105,8|0,0:0|0:0,0:0:0:0:
340,200,155472,6,0,L|204:152,1,140,14|0,0:0|1:0,0:0:0:0:
160,68,156001,2,0,P|104:32|32:40,1,140,10|0,0:0|1:0,0:0:0:0:
12,136,156531,1,14,0:0:0:0:
12,136,156707,1,0,0:0:0:0:
80,224,156884,6,0,L|64:292,1,70,10|10,0:0|0:0,0:0:0:0:
116,376,157237,1,10,0:0:0:0:
116,376,157413,1,8,0:0:0:0:
200,324,157589,1,10,0:0:0:0:
284,272,157766,1,10,0:0:0:0:
356,340,157942,1,8,0:0:0:0:
440,288,158119,1,8,0:0:0:0:
492,352,158295,5,4,1:0:0:0:
0,352,169589,6,0,P|55:334|125:312,1,125.999996154785,4|2,1:0|1:0,0:0:0:0:
187,371,170119,1,2,0:0:0:0:
252,313,170295,2,0,P|270:254|233:206,1,125.999996154785,0|2,1:0|1:0,0:0:0:0:
165,148,170825,6,0,P|129:160|27:190,1,125.999996154785,2|0,0:0|0:0,0:0:0:0:
8,104,171354,2,0,P|36:95|83:81,1,62.9999980773926,2|0,1:0|0:0,0:0:0:0:
139,32,171707,2,0,P|169:41|199:50,1,62.9999980773926,0|0,1:0|0:0,0:0:0:0:
266,108,172060,1,2,1:0:0:0:
342,64,172237,1,2,0:0:0:0:
342,64,172325,1,2,0:0:0:0:
342,64,172413,6,0,P|408:14|446:25,1,125.999996154785,4|2,1:0|1:0,0:0:0:0:
506,85,172942,1,0,0:0:0:0:
445,150,173119,2,0,P|412:138|384:129,1,62.9999980773926,0|0,1:0|0:0,0:0:0:0:
318,186,173472,1,2,1:0:0:0:
378,250,173648,6,0,P|411:238|439:229,1,62.9999980773926,2|0,0:0|1:0,0:0:0:0:
504,284,174001,2,0,P|511:341|457:380,1,125.999996154785,2|0,0:0|0:0,0:0:0:0:
370,384,174531,2,0,P|346:342|335:322,1,62.9999980773926,0|0,1:0|0:0,0:0:0:0:
378,250,174884,2,0,P|402:256|448:266,1,62.9999980773926,2|2,1:0|0:0,0:0:0:0:
327,179,175237,6,0,P|302:185|257:195,1,62.9999980773926,4|0,1:0|0:0,0:0:0:0:
189,150,175589,1,2,1:0:0:0:
189,150,175766,1,0,0:0:0:0:
121,206,175942,2,0,P|84:179|29:191,2,94.499997116089,0|2|2,1:0|0:0|0:0,0:0:0:0:
129,212,176560,1,2,0:0:0:0:
135,220,176648,6,0,P|125:247|110:291,1,62.9999980773926,0|0,1:0|0:0,0:0:0:0:
145,362,177001,2,0,P|183:376|216:367,1,62.9999980773926,2|0,1:0|0:0,0:0:0:0:
292,381,177354,2,0,P|278:334|273:306,1,62.9999980773926,0|0,1:0|0:0,0:0:0:0:
239,239,177707,2,0,P|252:192|258:164,1,62.9999980773926,2|2,1:0|0:0,0:0:0:0:
332,117,178060,5,4,1:0:0:0:
332,117,178237,1,0,1:0:0:0:
271,39,178413,2,0,P|233:48|191:60,1,70,2|0,1:0|1:0,0:0:0:0:
118,143,178766,1,2,1:0:0:0:
118,143,178942,1,0,1:0:0:0:
10,83,179119,2,0,P|24:48|37:16,1,70,2|0,1:0|1:0,0:0:0:0:
149,0,179472,6,0,P|137:30|119:81,1,70,2|0,1:0|1:0,0:0:0:0:
41,159,179825,1,2,1:0:0:0:
41,159,180001,1,0,1:0:0:0:
129,221,180178,2,0,P|163:208|205:194,1,70,2|0,1:0|1:0,0:0:0:0:
65,298,180531,2,0,P|31:285|-11:271,1,70,2|0,1:0|1:0,0:0:0:0:
120,364,180884,6,0,P|152:351|185:340,1,70,10|8,0:0|0:0,0:0:0:0:
275,299,181237,2,0,L|310:311,3,35,8|8|8|8,0:0|0:0|0:0|0:0,0:0:0:0:
320,321,181589,2,0,L|353:309,3,35,8|8|8|8,0:0|0:0|0:0|0:0,0:0:0:0:
379,298,181942,2,0,L|412:309,3,35,8|8|8|8,0:0|0:0|0:0|0:0,0:0:0:0:
444,320,182295,6,0,P|468:284|476:232,1,84,2|2,0:0|0:0,0:0:0:0:
444,132,182825,1,2,0:0:0:0:
388,188,183001,1,2,0:0:0:0:
388,188,183178,2,0,P|356:184|292:132,1,112,2|2,0:0|0:0,0:0:0:0:
272,60,183707,5,6,1:0:0:0:
272,60,185119,1,6,1:0:0:0:
272,60,186531,1,6,1:0:0:0:
272,60,187942,1,6,1:0:0:0:
272,60,188648,5,6,1:0:0:0:
204,100,188825,1,8,3:0:0:0:
204,100,189001,1,8,3:0:0:0:
136,140,189178,1,8,3:0:0:0:
64,172,189354,6,0,P|48:208|44:284,1,112,2|0,0:0|0:0,0:0:0:0:
108,324,189884,2,0,P|163:324|215:344,1,112,2|0,0:0|0:0,0:0:0:0:
296,344,190413,2,0,P|348:324|404:324,1,112,2|0,0:0|0:0,0:0:0:0:
468,279,190942,2,0,P|467:224|448:172,1,112,2|0,0:0|1:0,0:0:0:0:
432,144,191384,1,0,1:0:0:0:
432,144,191472,6,0,L|364:172,1,62.9999980773926,8|8,1:0|1:0,0:0:0:0:
312,232,191825,2,0,P|272:252|216:248,1,94.499997116089,2|0,0:0|0:0,0:0:0:0:
192,244,192178,5,12,0:0:0:0:
160,152,192354,1,8,0:0:0:0:
80,208,192531,1,8,0:0:0:0:
32,120,192707,5,8,0:0:0:0:
32,120,192795,1,8,0:0:0:0:
32,120,192884,2,0,L|48:80,3,35,8|8|8|8,0:0|0:0|0:0|0:0,0:0:0:0:
80,64,193237,1,8,0:0:0:0:
80,64,193325,1,8,0:0:0:0:
80,64,193413,6,0,P|124:96|184:96,1,105,12|0,0:0|0:0,0:0:0:0:
208,88,193766,1,12,0:0:0:0:
232,204,193942,1,12,0:0:0:0:
356,76,194295,5,2,0:0:0:0:
356,76,194472,2,0,P|408:64|464:88,1,112,2|2,0:0|0:0,0:0:0:0:
509,192,195001,6,0,P|445:170|389:152,1,115.50000352478,6|0,1:0|0:0,0:0:0:0:
389,156,195354,2,0,P|366:187|370:225,1,77.0000023498536,10|0,0:0|0:0,0:0:0:0:
453,301,195707,1,0,1:0:0:0:
453,301,195884,1,2,0:0:0:0:
370,369,196060,1,8,0:0:0:0:
270,326,196237,6,0,P|280:289|291:252,1,77.0000023498536,2|2,0:0|1:0,0:0:0:0:
285,143,196589,2,0,P|226:100|155:122,1,154.000004699707,2|0,0:0|0:0,0:0:0:0:
61,77,197119,1,2,1:0:0:0:
61,77,197296,1,2,0:0:0:0:
0,166,197472,1,8,0:0:0:0:
95,216,197649,1,2,0:0:0:0:
55,305,197825,6,0,P|99:270|155:277,1,115.50000352478,2|0,1:0|0:0,0:0:0:0:
164,283,198178,2,0,P|151:319|138:355,1,77.0000023498536,8|2,0:0|0:0,0:0:0:0:
252,270,198531,1,0,1:0:0:0:
252,270,198707,1,2,0:0:0:0:
178,190,198884,1,8,0:0:0:0:
250,110,199060,6,0,P|243:80|233:32,1,77.0000023498536,2|2,0:0|1:0,0:0:0:0:
314,181,199413,2,0,B|391:193|377:133|460:153,1,154.000004699707,2|0,0:0|0:0,0:0:0:0:
503,76,199943,2,0,P|490:39|473:4,1,77.0000023498536,2|0,1:0|0:0,0:0:0:0:
366,5,200295,2,0,P|299:11|275:54,1,115.50000352478,8|0,0:0|0:0,0:0:0:0:
276,58,200649,6,0,P|213:43|110:20,1,154.000004699707,6|8,1:0|0:0,0:0:0:0:
23,58,201178,2,0,P|-2:126|46:181,1,154.000004699707,2|2,0:0|0:0,0:0:0:0:
121,259,201707,2,0,P|131:220|144:174,1,77.0000023498536,8|0,0:0|0:0,0:0:0:0:
214,104,202060,5,2,1:0:0:0:
310,153,202237,2,0,P|359:207|332:275,1,154.000004699707,2|0,0:0|0:0,0:0:0:0:
261,356,202766,2,0,P|217:344|186:337,1,77.0000023498536,2|2,1:0|0:0,0:0:0:0:
76,384,203119,2,0,P|58:350|67:314,1,77.0000023498536,8|0,0:0|0:0,0:0:0:0:
62,206,203472,6,0,P|136:224|211:244,1,154.000004699707,2|8,1:0|0:0,0:0:0:0:
319,249,204001,2,0,P|336:159|287:120,1,154.000004699707,2|0,0:0|1:0,0:0:0:0:
190,96,204531,1,8,0:0:0:0:
262,16,204707,6,0,B|349:4|318:61|404:58,1,154.000004699707,6|2,1:0|1:0,0:0:0:0:
502,11,205237,2,0,P|487:63|458:178,1,154.000004699707,8|0,0:0|1:0,0:0:0:0:
512,265,205766,1,8,0:0:0:0:
512,265,205855,1,8,0:0:0:0:
512,265,205943,1,8,0:0:0:0:
440,345,206119,1,8,0:0:0:0:
440,345,206207,1,8,0:0:0:0:
440,345,206295,6,0,L|320:328,1,115.50000352478,6|0,1:0|0:0,0:0:0:0:
288,324,206648,2,0,P|304:280|304:248,1,77.0000023498536,10|0,0:0|0:0,0:0:0:0:
248,156,207001,1,0,1:0:0:0:
180,240,207178,1,2,0:0:0:0:
140,140,207354,1,8,0:0:0:0:
76,224,207531,6,0,P|37:222|2:207,1,77.0000023498536,2|2,0:0|1:0,0:0:0:0:
36,104,207884,1,2,0:0:0:0:
72,4,208060,2,0,L|224:36,1,154.000004699707,8|0,0:0|1:0,0:0:0:0:
328,52,208589,1,2,0:0:0:0:
328,52,208678,1,2,0:0:0:0:
328,52,208766,1,8,0:0:0:0:
396,136,208942,1,2,0:0:0:0:
312,204,209119,6,0,P|332:268|284:352,1,154.000004699707,2|10,1:0|0:0,0:0:0:0:
188,364,209648,1,0,0:0:0:0:
88,324,209825,2,0,L|64:248,1,77.0000023498536,0|2,1:0|0:0,0:0:0:0:
108,152,210178,1,8,0:0:0:0:
108,152,210354,1,2,0:0:0:0:
204,196,210531,6,0,P|260:160|280:76,1,154.000004699707,2|8,1:0|0:0,0:0:0:0:
372,24,211060,1,0,0:0:0:0:
432,112,211237,2,0,L|460:232,1,115.50000352478,2|2,1:0|0:0,0:0:0:0:
468,256,211589,1,10,0:0:0:0:
404,344,211766,1,2,0:0:0:0:
316,280,211942,5,6,1:0:0:0:
244,360,212119,1,2,0:0:0:0:
244,360,212207,1,2,0:0:0:0:
244,360,212295,2,0,L|164:340,1,77.0000023498536,8|2,0:0|1:0,0:0:0:0:
116,248,212648,1,0,1:0:0:0:
180,160,212825,5,0,1:0:0:0:
180,160,212913,1,0,1:0:0:0:
180,160,213001,2,0,L|260:180,1,77.0000023498536,12|2,0:0|0:0,0:0:0:0:
360,160,213354,1,0,1:0:0:0:
284,84,213531,1,0,1:0:0:0:
372,20,213707,6,0,P|432:16|484:36,1,115.50000352478,8|0,0:0|0:0,0:0:0:0:
512,52,214060,1,2,1:0:0:0:
484,156,214237,1,8,0:0:0:0:
484,156,214325,1,8,0:0:0:0:
484,156,214413,2,0,L|472:208,3,38.5000011749268,8|8|8|8,0:0|0:0|0:0|0:0,0:0:0:0:
448,220,214766,6,0,P|400:212|324:256,1,140,6|2,1:0|0:0,0:0:0:0:
260,328,215295,1,0,1:0:0:0:
188,260,215472,2,0,L|116:252,1,70,10|0,0:0|1:0,0:0:0:0:
56,176,215825,1,2,0:0:0:0:
172,16,216178,6,0,B|224:20|224:20|248:36|248:36|308:40,1,140,2|2,1:0|0:0,0:0:0:0:
400,68,216707,1,0,1:0:0:0:
496,92,216884,2,0,P|512:152|488:232,1,140,10|2,0:0|0:0,0:0:0:0:
432,324,217413,5,0,1:0:0:0:
432,324,217501,1,0,1:0:0:0:
432,324,217589,1,6,1:0:0:0:
344,260,217766,1,8,0:0:0:0:
296,356,217942,1,8,0:0:0:0:
212,288,218119,5,8,0:0:0:0:
212,288,218207,1,8,0:0:0:0:
212,288,218295,2,0,L|176:300,3,38.5000011749268,8|8|8|8,0:0|0:0|0:0|0:0,0:0:0:0:
136,284,218648,2,0,L|100:296,3,38.5000011749268,8|8|8|8,0:0|0:0|0:0|0:0,0:0:0:0:
57,279,219001,5,8,0:0:0:0:
36,172,219178,1,8,0:0:0:0:
36,172,220413,5,6,1:0:0:0:
173,32,220766,1,2,0:0:0:0:
77,9,220943,2,0,P|96:77|114:145,1,140,2|0,1:0|0:0,0:0:0:0:
196,197,221472,1,2,0:0:0:0:
120,258,221648,6,0,P|58:228|-1:259,1,140,2|0,1:0|1:0,0:0:0:0:
59,337,222178,1,0,1:0:0:0:
159,376,222355,1,2,0:0:0:0:
159,376,222443,1,2,0:0:0:0:
159,376,222531,2,0,P|215:361|252:353,1,70,8|0,0:0|1:0,0:0:0:0:
316,315,222884,1,2,0:0:0:0:
316,315,223060,1,0,1:0:0:0:
402,360,223237,6,0,P|422:295|385:237,1,140,4|2,1:0|0:0,0:0:0:0:
390,139,223766,2,0,B|314:124|326:177|258:172,1,140,2|0,1:0|0:0,0:0:0:0:
179,113,224296,1,2,0:0:0:0:
271,82,224472,6,0,P|253:132|213:240,1,140,2|0,1:0|0:0,0:0:0:0:
164,292,225002,1,0,1:0:0:0:
84,232,225178,1,2,1:0:0:0:
84,232,225266,1,0,1:0:0:0:
84,232,225355,2,0,L|109:161,1,70,8|0,0:0|1:0,0:0:0:0:
72,80,225707,1,2,1:0:0:0:
72,80,225884,1,0,1:0:0:0:
157,32,226060,6,0,B|213:22|213:22|238:35|238:35|299:29,1,140,4|2,1:0|0:0,0:0:0:0:
386,2,226589,2,0,P|443:39|447:106,1,140,2|0,1:0|0:0,0:0:0:0:
396,191,227119,1,2,0:0:0:0:
308,148,227295,6,0,P|318:187|342:288,1,140,2|0,1:0|1:0,0:0:0:0:
396,365,227825,1,2,1:0:0:0:
478,308,228002,1,2,0:0:0:0:
478,308,228090,1,2,0:0:0:0:
478,308,228178,2,0,P|451:284|402:283,1,70,10|0,0:0|1:0,0:0:0:0:
315,360,228531,1,10,0:0:0:0:
244,292,228707,5,10,0:0:0:0:
