osu file format v14

[General]
AudioFilename: audio.mp3
AudioLeadIn: 0
PreviewTime: 54790
Countdown: 0
SampleSet: Soft
StackLeniency: 0.7
Mode: 0
LetterboxInBreaks: 0
WidescreenStoryboard: 1

[Editor]
DistanceSpacing: 1.3
BeatDivisor: 4
GridSize: 32
TimelineZoom: 1.5

[Metadata]
Title:Break out (TV Size)
TitleUnicode:Break out (TV Size)
Artist:Da-iCE
ArtistUnicode:ダイス
Creator:Vanya2
Version:Lost's Extra
Source:オリエント
Tags:alevi vinal2 [_lost_] conner c_o_n_n_e_r sarawatlism japanese anime opening orient pop jpop j-pop rock jrock j-rock male vocal dice daisu
BeatmapID:3424696
BeatmapSetID:1672200

[Difficulty]
HPDrainRate:5
CircleSize:3.8
OverallDifficulty:8.6
ApproachRate:9.2
SliderMultiplier:1.97
SliderTickRate:1

[Events]
//Background and Video events
Video,-76,"sdsd.mp4"
0,0,"BG-Lost.jpg",0,0
//Break Periods
//Storyboard Layer 0 (Background)
//Storyboard Layer 1 (Fail)
//Storyboard Layer 2 (Pass)
//Storyboard Layer 3 (Foreground)
//Storyboard Layer 4 (Overlay)
//Storyboard Sound Samples

[TimingPoints]
1034,324.324324324325,4,2,99,50,1,0
1034,-166.666666666667,4,2,99,50,0,0
10114,-166.666666666667,4,2,99,60,0,0
10601,-125,4,2,99,60,0,0
11493,-125,4,2,2,25,0,0
11574,-125,4,2,2,30,0,0
11655,-125,4,2,2,35,0,0
11736,-125,4,2,2,40,0,0
11817,-125,4,2,2,45,0,0
11898,-125,4,2,99,50,0,0
11979,-125,4,2,99,55,0,0
12061,-83.3333333333333,4,2,99,60,0,0
12142,-83.3333333333333,4,2,99,65,0,0
12223,-83.3333333333333,4,2,99,70,0,0
12304,-83.3333333333333,4,2,99,80,0,0
12385,-66.6666666666667,4,2,99,90,0,0
12628,-66.6666666666667,4,2,99,5,0,0
12709,324.324324324325,4,2,99,90,1,0
12709,-83.3333333333333,4,2,99,90,0,0
12952,-83.3333333333333,4,2,99,5,0,0
13033,-83.3333333333333,4,2,99,90,0,0
14249,-83.3333333333333,4,2,99,5,0,0
14330,-83.3333333333333,4,2,99,90,0,0
15546,-83.3333333333333,4,2,99,5,0,0
15627,-83.3333333333333,4,2,99,90,0,0
16681,-83.3333333333333,4,2,99,5,0,0
16763,-83.3333333333333,4,2,99,90,0,0
19438,-83.3333333333333,4,2,99,5,0,0
19519,-83.3333333333333,4,2,99,90,0,0
20492,-76.9230769230769,4,2,99,90,0,0
20735,-76.9230769230769,4,2,99,5,0,0
20817,-76.9230769230769,4,2,99,90,0,0
20979,-83.3333333333333,4,2,99,90,0,0
21222,-83.3333333333333,4,2,99,5,0,0
21303,-83.3333333333333,4,2,99,90,0,0
23087,-125,4,2,99,60,0,0
28114,-90.9090909090909,4,2,99,75,0,0
28357,-90.9090909090909,4,2,99,5,0,0
28438,-90.9090909090909,4,2,99,75,0,0
29654,-90.9090909090909,4,2,99,5,0,0
29736,-90.9090909090909,4,2,99,75,0,0
30952,-90.9090909090909,4,2,99,5,0,0
31033,-90.9090909090909,4,2,99,75,0,0
33141,-83.3333333333333,4,2,99,75,0,0
33384,-83.3333333333333,4,2,99,5,0,0
33465,-111.111111111111,4,2,99,60,0,0
38492,-90.9090909090909,4,2,99,75,0,0
38735,-90.9090909090909,4,2,99,5,0,0
38817,-90.9090909090909,4,2,99,75,0,0
40033,-90.9090909090909,4,2,99,5,0,0
40114,-90.9090909090909,4,2,99,75,0,0
41330,-90.9090909090909,4,2,99,5,0,0
41411,-90.9090909090909,4,2,99,75,0,0
43844,-125,4,2,99,75,0,0
48384,-90.9090909090909,4,2,99,75,0,0
49033,-142.857142857143,4,2,99,75,0,0
51465,-83.3333333333333,4,2,99,75,0,0
51708,-83.3333333333333,4,2,99,5,0,0
51790,-83.3333333333333,4,2,99,75,0,0
54871,-66.6666666666667,4,2,99,75,0,0
54952,-66.6666666666667,4,2,99,5,0,0
55033,-200,4,2,99,75,0,0
55276,-200,4,2,99,5,0,0
55357,-76.9230769230769,4,2,99,90,0,0
55519,324.324324324325,4,2,99,90,1,0
55600,-100,4,2,99,5,0,0
55681,-100,4,2,99,90,0,0
55843,-76.9230769230769,4,2,99,90,0,0
56897,-76.9230769230769,4,2,99,5,0,0
56978,-76.9230769230769,4,2,99,90,0,0
58194,-76.9230769230769,4,2,99,5,0,0
58275,-76.9230769230769,4,2,99,90,0,0
59653,-76.9230769230769,4,2,99,5,0,0
59735,-76.9230769230769,4,2,99,90,0,0
60789,-76.9230769230769,4,2,99,5,0,0
60870,-76.9230769230769,4,2,99,90,0,0
62248,-76.9230769230769,4,2,99,5,0,0
62329,-76.9230769230769,4,2,99,90,0,0
63302,-66.6666666666667,4,2,99,90,0,0
64680,-66.6666666666667,4,2,99,5,0,0
64762,-66.6666666666667,4,2,99,90,0,0
65735,-76.9230769230769,4,2,99,90,0,0
65978,-76.9230769230769,4,2,99,5,0,0
66059,-76.9230769230769,4,2,99,90,0,0
67275,-76.9230769230769,4,2,99,5,0,0
67356,-76.9230769230769,4,2,99,90,0,0
68572,-76.9230769230769,4,2,99,5,0,0
68654,-76.9230769230769,4,2,99,90,0,0
69707,-76.9230769230769,4,2,99,5,0,0
69789,-76.9230769230769,4,2,99,90,0,0
71167,-76.9230769230769,4,2,99,5,0,0
71248,-76.9230769230769,4,2,99,90,0,0
72626,-76.9230769230769,4,2,99,5,0,0
72708,-76.9230769230769,4,2,99,90,0,0
73762,-76.9230769230769,4,2,99,5,0,0
73843,-76.9230769230769,4,2,99,90,0,0
74978,-66.6666666666667,4,2,99,90,0,0
76275,-200,4,2,99,50,0,0
80816,-90.9090909090909,4,2,99,50,0,0
80978,-90.9090909090909,4,2,99,90,0,0
81140,-66.6666666666667,4,2,99,90,0,0
81464,-76.9230769230769,4,2,99,90,0,0
81707,-76.9230769230769,4,2,99,5,0,0
81789,-76.9230769230769,4,2,99,90,0,0
82194,-76.9230769230769,4,2,99,5,0,0
82275,-76.9230769230769,4,2,99,90,0,0
83167,-76.9230769230769,4,2,99,5,0,0
83248,-76.9230769230769,4,2,99,90,0,0
85194,-66.6666666666667,4,2,99,90,0,0
85437,-66.6666666666667,4,2,99,5,0,0
85519,-66.6666666666667,4,2,99,90,0,0
86978,-66.6666666666667,4,2,99,80,0,0
87951,-66.6666666666667,4,2,99,70,0,0
88600,-66.6666666666667,4,2,99,60,0,0
89248,-66.6666666666667,4,2,99,50,0,0
89897,-66.6666666666667,4,2,99,40,0,0
90221,-66.6666666666667,4,2,99,40,0,0

[Colours]
Combo1 : 51,119,105
Combo2 : 255,128,128
Combo3 : 254,192,65
Combo4 : 69,52,118

[HitObjects]
502,74,1034,6,0,B|442:66|418:107|427:108|402:150|333:139,1,177.299994589234,2|2,0:0|0:0,2:0:0:0:
281,49,1682,2,0,P|329:58|362:60,1,59.0999981964112,2|0,0:0|2:0,2:0:0:0:
207,136,2006,2,0,P|255:127|288:125,1,59.0999981964112,0|2,2:0|0:0,2:0:0:0:
166,46,2331,6,0,P|135:33|69:87,1,118.199996392822,2|0,0:0|2:0,2:0:0:0:
26,139,2817,1,2,0:0:0:0:
26,139,2979,2,0,P|34:189|37:217,1,59.0999981964112,2|0,0:0|2:0,2:0:0:0:
115,238,3304,2,0,P|118:208|124:179,1,59.0999981964112,0|2,2:0|0:0,2:0:0:0:
28,294,3628,6,0,P|101:292|170:293,1,118.199996392822,2|2,0:0|0:0,2:0:0:0:
213,329,4115,2,0,P|267:296|265:246,2,118.199996392822,2|2|2,0:0|0:0|0:0,2:0:0:0:
191,218,4925,6,0,P|157:204|126:202,1,59.0999981964112,0|2,2:0|0:0,2:0:0:0:
244,148,5250,2,0,P|278:134|309:132,1,59.0999981964112,0|2,2:0|0:0,2:0:0:0:
312,121,5493,1,0,2:0:0:0:
312,121,5574,2,0,B|269:110|269:110|239:125|239:125|179:114,1,118.199996392822,0|0,2:0|2:0,2:0:0:0:
145,61,6061,1,2,0:0:0:0:
336,1,6223,5,2,0:0:0:0:
336,1,6385,2,0,P|328:49|323:127,1,118.199996392822,2|2,0:0|0:0,2:0:0:0:
377,172,6871,2,0,P|420:158|453:158,1,59.0999981964112,0|0,2:0|2:0,2:0:0:0:
482,256,7196,2,0,P|439:242|406:242,1,59.0999981964112,0|2,2:0|0:0,2:0:0:0:
302,338,7520,5,2,0:0:0:0:
302,338,7682,2,0,P|350:311|329:256,1,118.199996392822,2|2,0:0|0:0,2:0:0:0:
262,229,8169,2,0,P|224:246|186:251,1,59.0999981964112,0|2,2:0|0:0,2:0:0:0:
127,306,8493,2,0,P|155:313|181:326,1,59.0999981964112,0|2,2:0|2:0,2:0:0:0:
116,211,8817,6,0,B|62:222|62:222|51:234|51:234|-14:250,2,118.199996392822,2|0|0,0:0|2:0|2:0,2:0:0:0:
170,156,9628,1,2,0:0:0:0:
106,113,9790,1,2,0:0:0:0:
248,67,9952,6,0,P|218:63|185:55,1,59.0999981964112,2|0,0:0|2:0,2:0:0:0:
315,133,10277,2,0,P|343:126|373:122,1,59.0999981964112,2|0,0:0|2:0,2:0:0:0:
237,273,10601,6,0,P|246:232|259:190,1,78.8,2|0,0:0|2:0,2:0:0:0:
106,113,10925,2,0,P|117:150|125:189,1,78.8,2|0,0:0|2:0,2:0:0:0:
255,51,11250,1,2,0:0:0:0:
420,263,11412,5,0,2:0:0:0:
437,254,11493,1,8,0:0:0:0:
454,237,11574,1,8,0:0:0:0:
465,211,11655,1,8,0:0:0:0:
465,179,11736,1,8,0:2:0:0:
450,146,11817,1,8,0:0:0:0:
420,125,11898,1,8,0:3:0:0:
376,122,11979,1,4,0:3:0:0:
342,145,12061,6,0,P|317:154|271:164,1,59.0999981964112,8|8,1:2|0:3,2:0:0:0:
227,280,12223,2,0,P|254:269|293:264,1,59.0999981964112,8|4,0:3|0:3,2:0:0:0:
453,15,12385,6,0,L|454:256,1,221.625008454323,8|0,1:2|2:0,2:0:0:0:
512,295,12709,6,0,B|462:274|424:313|428:316|398:354|336:323,1,177.299994589234,6|0,1:2|2:0,2:0:0:0:
317,316,13033,2,0,P|262:286|190:291,1,118.199996392822,10|2,0:0|0:0,2:0:0:0:
78,368,13357,1,0,1:2:0:0:
3,233,13519,1,2,1:2:0:0:
78,368,13681,2,0,P|122:331|117:257,1,118.199996392822,10|2,0:0|0:0,2:0:0:0:
7,29,14006,6,0,L|7:228,1,177.299994589234,0|0,1:2|2:0,2:0:0:0:
3,233,14330,2,0,P|52:188|114:202,1,118.199996392822,10|2,0:0|0:0,2:0:0:0:
240,255,14654,1,2,1:2:0:0:
153,127,14817,1,2,1:2:0:0:
240,255,14979,2,0,P|312:248|336:199,1,118.199996392822,10|0,0:0|2:0,2:0:0:0:
330,60,15303,6,0,B|274:46|248:97|256:96|227:141|161:134,1,177.299994589234,2|0,1:2|2:0,2:0:0:0:
153,127,15627,2,0,P|121:70|151:17,1,118.199996392822,10|2,0:0|0:0,2:0:0:0:
144,229,15952,1,0,1:2:0:0:
19,139,16114,1,2,1:2:0:0:
144,229,16276,1,10,0:0:0:0:
0,312,16438,6,0,P|43:249|156:273,1,177.299994589234,2|0,0:0|2:0,2:0:0:0:
158,277,16763,1,2,0:0:0:0:
272,174,16925,1,10,0:0:0:0:
363,322,17087,1,2,0:0:0:0:
363,322,17168,1,0,2:0:0:0:
363,322,17249,2,0,P|308:280|248:286,1,118.199996392822,2|2,1:2|1:2,2:0:0:0:
455,231,17573,1,10,0:0:0:0:
272,174,17736,1,0,2:0:0:0:
272,174,17817,1,0,2:0:0:0:
272,174,17898,6,0,P|345:160|400:127,1,118.199996392822,6|0,1:2|2:0,2:0:0:0:
168,283,18222,2,0,P|114:257|56:248,1,118.199996392822,10|0,0:0|2:0,2:0:0:0:
150,81,18546,1,2,1:2:0:0:
272,174,18709,1,2,1:2:0:0:
150,81,18871,2,0,P|80:88|53:125,1,118.199996392822,8|2,0:0|0:0,2:0:0:0:
274,0,19195,6,0,L|274:202,1,177.299994589234,0|0,1:2|2:0,2:0:0:0:
269,203,19519,2,0,P|314:156|378:169,1,118.199996392822,8|2,0:0|0:0,2:0:0:0:
264,303,19844,1,0,1:2:0:0:
167,183,20006,1,2,1:2:0:0:
365,269,20168,1,8,0:0:0:0:
113,274,20330,1,0,1:2:0:0:
256,67,20492,6,0,B|313:41|351:90|338:91|374:131|431:114,1,192.074991207505,14|0,0:0|2:0,2:0:0:0:
459,97,20817,1,0,1:2:0:0:
170,13,20979,6,0,P|84:2|32:86,1,177.299994589234,10|0,0:0|2:0,2:0:0:0:
28,100,21303,1,0,1:2:0:0:
255,199,21465,2,0,P|291:133|255:77,1,118.199996392822,10|8,0:0|0:0,2:0:0:0:
256,67,21709,1,8,0:0:0:0:
256,67,21790,5,8,0:0:0:0:
160,187,21952,1,10,0:3:0:0:
160,187,22033,1,8,0:3:0:0:
160,187,22114,1,8,0:3:0:0:
372,146,22276,1,0,1:2:0:0:
113,74,22438,1,10,0:0:0:0:
245,317,22600,1,8,0:0:0:0:
245,317,23087,6,0,B|296:296|328:323|316:331|352:354|413:328,1,157.6,6|2,1:2|1:2,2:0:0:0:
456,252,23573,1,0,2:0:0:0:
368,197,23736,2,0,P|316:199|296:223,1,78.8,2|2,1:2|0:0,2:0:0:0:
437,139,24060,2,0,P|478:156|519:151,1,78.8,0|2,1:2|0:0,2:0:0:0:
383,60,24384,6,0,P|328:33|262:104,1,157.6,0|0,1:2|1:2,2:0:0:0:
190,163,24871,1,2,0:0:0:0:
101,111,25033,2,0,P|114:59|114:19,1,78.8,0|8,1:2|0:3,2:0:0:0:
30,158,25357,2,0,P|43:210|43:250,1,78.8,8|2,1:3|0:0,2:0:0:0:
13,332,25681,6,0,B|73:321|73:321|101:335|101:335|170:323,1,157.6,2|0,1:2|1:2,2:0:0:0:
250,266,26168,1,2,0:0:0:0:
258,368,26330,2,0,P|216:348|171:344,1,78.8,0|2,1:2|0:0,2:0:0:0:
328,313,26654,2,0,P|366:306|401:288,1,78.8,0|2,1:2|3:0,2:0:0:0:
225,191,26979,6,0,P|247:253|252:277,1,78.8,0|2,1:2|0:0,2:0:0:0:
341,115,27303,2,0,P|319:177|314:201,1,78.8,0|2,1:2|0:0,2:0:0:0:
236,62,27627,5,2,1:2:0:0:
410,162,27790,1,2,1:2:0:0:
176,120,27952,1,8,0:0:0:0:
409,0,28114,6,0,L|410:162,1,162.52500495987,2|0,1:2|2:0,2:0:0:0:
411,193,28438,1,2,1:2:0:0:
453,340,28600,2,0,P|490:289|468:242,1,108.35000330658,10|0,0:0|2:0,2:0:0:0:
297,265,28925,2,0,L|297:393,1,108.35000330658,0|2,1:2|1:2,2:0:0:0:
411,193,29249,1,8,0:0:0:0:
257,149,29411,6,0,P|306:215|395:193,1,162.52500495987,2|0,1:2|2:0,2:0:0:0:
411,193,29736,1,2,1:2:0:0:
297,72,29898,1,10,0:0:0:0:
186,214,30060,1,0,1:2:0:0:
186,214,30141,1,0,1:2:0:0:
186,214,30222,2,0,P|116:198|63:200,1,108.35000330658,2|2,1:2|1:2,2:0:0:0:
257,149,30546,1,8,0:0:0:0:
28,107,30709,6,0,B|84:114|106:83|99:81|119:48|179:54,1,162.52500495987,2|0,0:0|2:0,2:0:0:0:
202,64,31033,1,2,0:0:0:0:
380,53,31195,2,0,P|330:20|278:38,1,108.35000330658,8|0,0:0|2:0,2:0:0:0:
395,171,31519,2,0,P|453:166|483:115,1,108.35000330658,0|2,1:2|1:2,2:0:0:0:
257,149,31844,2,0,L|257:273,1,108.35000330658,8|2,0:0|1:2,2:0:0:0:
380,53,32168,5,2,0:0:0:0:
257,148,32330,1,0,1:2:0:0:
481,129,32492,1,8,0:0:0:0:
286,31,32654,1,2,0:0:0:0:
286,31,32736,1,0,2:0:0:0:
286,31,32817,1,0,1:2:0:0:
395,253,32979,1,2,1:2:0:0:
164,200,33141,6,0,B|116:178|116:178|256:151,1,177.299994589234,8|0,0:0|2:0,2:0:0:0:
257,148,33465,6,0,P|199:146|161:135,1,88.6499972946168,4|2,1:2|0:0,2:0:0:0:
327,201,33790,2,0,P|369:178|410:172,1,88.6499972946168,2|2,1:2|0:0,2:0:0:0:
488,14,34114,2,0,L|488:199,1,177.299994589234,2|2,1:2|1:2,2:0:0:0:
499,304,34600,1,2,0:0:0:0:
398,361,34763,6,0,P|346:336|305:336,1,88.6499972946168,2|2,1:2|0:0,2:0:0:0:
222,267,35087,2,0,P|265:262|304:240,1,88.6499972946168,2|2,1:2|0:0,2:0:0:0:
188,353,35411,1,2,1:2:0:0:
123,257,35573,1,8,0:3:0:0:
188,353,35736,1,2,1:2:0:0:
15,361,35898,1,8,0:3:0:0:
15,361,35979,1,0,2:0:0:0:
15,361,36060,6,0,P|82:345|116:343,1,88.6499972946168,0|2,1:2|0:0,2:0:0:0:
222,267,36384,2,0,P|155:251|121:249,1,88.6499972946168,2|2,1:2|0:0,2:0:0:0:
17,171,36709,1,2,1:2:0:0:
115,111,36871,1,2,0:0:0:0:
22,181,37033,1,2,1:2:0:0:
108,102,37195,1,2,0:0:0:0:
33,267,37357,6,0,P|100:251|134:249,1,88.6499972946168,2|2,1:2|0:0,2:0:0:0:
276,173,37681,2,0,P|209:157|175:155,1,88.6499972946168,2|10,1:2|0:3,2:0:0:0:
343,244,38006,5,10,1:2:0:0:
421,116,38168,1,2,1:2:0:0:
228,249,38330,1,8,1:2:0:0:
443,345,38492,6,0,P|496:301|460:208,1,162.52500495987,6|0,1:2|2:0,2:0:0:0:
450,198,38817,1,2,1:2:0:0:
324,268,38979,2,0,P|268:276|225:245,1,108.35000330658,10|0,0:0|2:0,2:0:0:0:
180,115,39303,1,0,1:2:0:0:
295,194,39465,1,2,1:2:0:0:
113,176,39627,1,10,0:0:0:0:
295,0,39790,6,0,L|295:172,1,162.52500495987,2|0,1:2|2:0,2:0:0:0:
295,194,40114,1,2,1:2:0:0:
180,115,40276,1,10,0:0:0:0:
295,194,40438,1,2,0:0:0:0:
116,271,40600,2,0,P|162:237|229:239,1,108.35000330658,0|2,1:2|1:2,2:0:0:0:
33,175,40925,1,10,0:0:0:0:
16,331,41087,6,0,P|103:327|190:328,1,162.52500495987,2|0,1:2|2:0,2:0:0:0:
205,328,41411,1,0,2:0:0:0:
330,264,41573,2,0,P|263:252|222:230,1,108.35000330658,8|0,0:0|2:0,2:0:0:0:
408,336,41898,1,0,1:2:0:0:
486,209,42060,1,2,1:2:0:0:
408,336,42222,2,0,P|456:313|510:305,1,108.35000330658,8|2,0:0|1:2,2:0:0:0:
510,112,42546,6,0,P|450:129|403:139,1,108.35000330658,2|0,0:0|1:2,2:0:0:0:
376,154,42790,1,2,0:0:0:0:
376,154,42871,2,0,P|316:136|269:127,1,108.35000330658,8|2,0:0|1:2,2:0:0:0:
240,126,43114,1,0,1:2:0:0:
240,126,43195,5,10,0:0:0:0:
355,42,43357,1,0,1:2:0:0:
164,157,43519,1,8,0:0:0:0:
376,154,43681,1,2,1:2:0:0:
164,0,43844,6,0,B|164:175,1,157.6,6|0,0:0|1:2,2:0:0:0:
94,232,44330,1,2,0:0:0:0:
5,164,44492,2,0,P|43:157|81:147,1,78.8,10|2,0:0|0:0,2:0:0:0:
170,248,44817,2,0,P|131:237|93:231,1,78.8,2|2,0:0|1:2,2:0:0:0:
32,326,45141,6,0,B|92:317|92:317|119:332|119:332|187:324,1,157.6,2|2,0:0|1:2,2:0:0:0:
262,258,45627,1,2,0:0:0:0:
273,360,45790,2,0,P|225:333|187:334,1,78.8,10|0,0:0|2:0,2:0:0:0:
346,302,46114,2,0,P|384:295|416:273,1,78.8,2|4,0:0|1:2,2:0:0:0:
490,367,46438,6,0,P|430:309|484:240,1,157.6,2|2,0:0|1:2,2:0:0:0:
508,161,46925,1,2,0:0:0:0:
508,161,47087,2,0,P|469:172|424:178,1,78.8,10|2,0:0|0:0,2:0:0:0:
447,15,47411,1,0,2:0:0:0:
322,61,47573,6,0,B|371:42|401:80|391:80|425:112|474:88,2,157.6,6|10|2,1:2|0:0|1:2,2:0:0:0:
319,248,48384,6,0,P|328:191|344:140,1,108.35000330658,8|2,0:0|1:2,2:0:0:0:
179,27,48709,2,0,P|194:78|202:132,1,108.35000330658,8|10,0:0|0:0,2:0:0:0:
203,158,48952,1,8,0:0:0:0:
203,158,49033,6,0,P|142:143|113:142,1,68.9499978958131,6|2,1:2|0:0,2:0:0:0:
51,238,49357,2,0,P|112:223|141:222,1,68.9499978958131,2|10,1:2|0:3,2:0:0:0:
188,317,49681,2,0,P|195:258|200:230,1,68.9499978958131,0|8,1:2|0:3,2:0:0:0:
292,182,50006,2,0,P|286:216|283:250,1,68.9499978958131,10|10,0:0|0:3,2:0:0:0:
336,351,50330,5,2,1:2:0:0:
405,294,50492,1,2,0:0:0:0:
336,351,50654,2,0,P|297:335|263:331,1,68.9499978958131,0|10,1:2|0:3,2:0:0:0:
405,294,50979,2,0,P|452:291|483:277,1,68.9499978958131,0|10,1:2|0:3,2:0:0:0:
210,243,51303,1,8,0:0:0:0:
372,30,51465,6,0,L|372:232,1,177.299994589234,6|0,0:3|2:0,2:0:0:0:
372,222,51790,1,10,1:3:0:0:
286,94,51952,1,8,1:3:0:0:
482,171,52114,1,10,0:0:0:0:
290,356,52276,5,0,1:0:0:0:
254,334,52357,1,0,1:0:0:0:
240,294,52438,1,6,0:3:0:0:
248,253,52519,1,4,0:3:0:0:
279,225,52600,2,0,P|312:236|346:242,1,59.0999981964112,8|8,0:3|0:3,2:0:0:0:
194,105,52763,5,10,1:2:0:0:
194,105,54871,6,0,P|154:122|119:128,1,73.8750028181077,2|0,0:0|2:0,2:0:0:0:
111,114,55033,6,0,P|150:108|183:93,1,73.875,2|0,0:0|2:0,2:0:0:0:
255,0,55357,6,0,L|255:205,1,192.074991207505,6|0,1:2|2:0,2:0:0:0:
255,220,55681,1,0,1:2:0:0:
440,197,55843,2,0,P|376:146|319:171,1,128.049994138336,10|0,0:0|2:0,2:0:0:0:
262,328,56167,2,0,P|340:323|365:280,1,128.049994138336,2|2,1:2|1:2,2:0:0:0:
160,186,56491,1,8,0:0:0:0:
58,319,56654,6,0,B|123:308|123:308|173:325|173:325|263:310,1,192.074991207505,2|0,1:2|2:0,2:0:0:0:
265,302,56978,1,0,1:2:0:0:
156,175,57140,2,0,P|92:184|54:241,1,128.049994138336,10|0,0:0|2:0,2:0:0:0:
276,194,57464,2,0,P|304:130|272:75,1,128.049994138336,2|2,1:2|1:2,2:0:0:0:
203,243,57789,1,8,0:0:0:0:
55,17,57951,6,0,L|55:225,1,192.074991207505,2|0,1:2|2:0,2:0:0:0:
55,232,58275,1,0,1:2:0:0:
183,349,58437,2,0,P|125:319|57:326,1,128.049994138336,10|0,0:0|2:0,2:0:0:0:
277,290,58762,1,2,1:2:0:0:
156,175,58924,1,0,1:2:0:0:
277,290,59086,2,0,P|363:272|379:240,1,128.049994138336,8|0,0:0|2:0,2:0:0:0:
420,77,59410,6,0,B|363:64|330:119|341:116|316:167|238:149,1,192.074991207505,2|0,1:2|2:0,2:0:0:0:
229,131,59735,1,10,0:0:0:0:
397,224,59897,1,0,2:0:0:0:
397,224,59978,1,0,2:0:0:0:
397,224,60059,2,0,P|408:154|426:85,1,128.049994138336,2|0,1:2|1:2,2:0:0:0:
181,259,60383,1,8,0:0:0:0:
275,0,60546,6,0,L|275:217,1,192.074991207505,6|0,1:2|2:0,2:0:0:0:
274,217,60870,1,0,1:2:0:0:
432,348,61032,2,0,P|369:316|301:314,1,128.049994138336,8|0,0:0|2:0,2:0:0:0:
83,300,61356,2,0,P|150:300|195:257,1,128.049994138336,0|2,1:2|1:2,2:0:0:0:
153,98,61681,2,0,P|86:98|40:140,1,128.049994138336,10|2,0:0|1:2,2:0:0:0:
274,217,62005,6,0,P|356:230|414:143,1,192.074991207505,0|0,1:2|2:0,2:0:0:0:
417,134,62329,2,0,L|417:266,1,128.049994138336,8|0,0:0|2:0,2:0:0:0:
319,126,62654,1,0,1:2:0:0:
441,13,62816,1,2,1:2:0:0:
319,126,62978,1,10,0:0:0:0:
510,83,63140,1,2,0:0:0:0:
294,0,63302,6,0,P|217:1|172:61,1,147.750005636215,14|0,0:0|1:2,2:0:0:0:
136,241,63627,2,0,P|207:242|255:189,1,147.750005636215,10|2,0:0|1:2,2:0:0:0:
90,58,63951,1,10,0:0:0:0:
255,189,64113,1,0,1:2:0:0:
255,189,64194,1,2,0:0:0:0:
255,189,64275,1,8,0:0:0:0:
8,0,64437,6,0,L|8:247,1,221.625008454323,6|0,1:2|2:0,2:0:0:0:
10,253,64762,1,0,1:2:0:0:
173,76,64924,1,8,0:3:0:0:
299,313,65086,1,0,1:3:0:0:
258,300,65167,1,0,1:0:0:0:
217,287,65248,1,10,1:2:0:0:
441,13,65410,1,10,1:2:0:0:
441,13,65735,6,0,L|441:208,1,192.074991207505,6|0,1:2|2:0,2:0:0:0:
441,235,66059,1,0,1:2:0:0:
333,362,66221,2,0,P|259:333|194:330,1,128.049994138336,10|0,0:0|2:0,2:0:0:0:
51,277,66546,2,0,P|114:269|172:243,1,128.049994138336,2|2,1:2|1:2,2:0:0:0:
299,136,66870,1,8,0:0:0:0:
133,23,67032,6,0,P|81:47|95:183,1,192.074991207505,2|0,1:2|2:0,2:0:0:0:
90,188,67356,1,0,1:2:0:0:
284,135,67519,2,0,P|223:94|165:111,1,128.049994138336,10|0,0:0|2:0,2:0:0:0:
363,231,67843,2,0,B|434:240|434:240|478:180,1,128.049994138336,2|2,1:2|1:2,2:0:0:0:
353,73,68167,1,8,0:0:0:0:
281,320,68329,6,0,B|351:310|351:310|397:331|397:331|494:315,1,192.074991207505,2|0,1:2|2:0,2:0:0:0:
497,313,68654,1,0,1:2:0:0:
288,216,68816,1,10,0:0:0:0:
484,67,68978,1,0,2:0:0:0:
484,67,69059,1,2,2:0:0:0:
484,67,69140,2,0,P|471:148|466:202,1,128.049994138336,2|0,1:2|1:2,2:0:0:0:
344,55,69464,2,0,P|256:30|195:98,1,192.074991207505,8|0,0:0|2:0,2:0:0:0:
161,171,69789,6,0,P|154:107|143:44,1,128.049994138336,2|0,1:2|2:0,2:0:0:0:
310,164,70113,2,0,P|299:227|292:290,1,128.049994138336,10|0,0:0|2:0,2:0:0:0:
83,148,70437,1,2,1:2:0:0:
292,290,70600,1,2,1:2:0:0:
16,217,70762,1,8,0:0:0:0:
174,0,70924,6,0,L|174:198,1,192.074991207505,6|0,1:2|2:0,2:0:0:0:
175,217,71248,1,0,1:2:0:0:
51,328,71410,2,0,P|14:252|38:212,1,128.049994138336,10|2,0:0|0:0,2:0:0:0:
168,364,71735,1,2,1:2:0:0:
30,219,71897,1,2,1:2:0:0:
168,364,72059,2,0,P|245:347|305:337,1,128.049994138336,8|2,0:0|0:0,2:0:0:0:
441,214,72383,6,0,B|358:233|358:233|329:227|329:227|242:248,1,192.074991207505,0|0,1:2|2:0,2:0:0:0:
227,234,72708,1,8,0:0:0:0:
438,337,72870,1,2,0:0:0:0:
438,337,72951,1,2,0:0:0:0:
438,337,73032,2,0,B|474:281|474:281|439:204,1,128.049994138336,0|2,1:2|1:2,2:0:0:0:
227,234,73356,1,8,0:0:0:0:
334,1,73519,6,0,L|334:202,1,192.074991207505,6|0,1:2|2:0,2:0:0:0:
334,218,73843,1,0,1:2:0:0:
225,92,74005,1,8,0:0:0:0:
334,218,74167,1,2,1:2:0:0:
128,186,74329,1,10,0:0:0:0:
421,121,74491,1,2,1:2:0:0:
126,26,74654,1,10,0:0:0:0:
289,333,74816,1,2,1:2:0:0:
3,236,74978,6,0,P|64:183|135:189,1,147.750005636215,14|0,0:0|2:0,2:0:0:0:
194,235,75221,1,4,0:3:0:0:
203,251,75302,2,0,L|194:339,1,73.8750028181077,2|8,1:2|0:3,2:0:0:0:
333,197,75464,2,0,L|342:109,1,73.8750028181077,8|8,0:0|0:0,2:0:0:0:
453,328,75627,6,0,B|378:313|378:313|372:315|372:315|302:301,1,147.750005636215,10|8,1:2|0:3,2:0:0:0:
195,97,75951,6,0,B|270:112|270:112|276:110|276:110|346:124,1,147.750005636215,6|8,1:3|0:3,2:0:0:0:
495,17,76275,6,0,B|479:58|497:93|501:86|518:129|501:164,1,147.75,2|2,0:0|0:0,2:0:0:0:
448,216,76924,2,0,P|406:206|381:202,1,49.25,2|0,0:0|2:0,2:0:0:0:
350,116,77248,2,0,P|392:126|417:130,1,49.25,0|2,2:0|0:0,2:0:0:0:
292,49,77573,6,0,P|247:40|203:86,1,98.5,2|0,0:0|2:0,2:0:0:0:
151,125,78059,1,2,0:0:0:0:
151,125,78221,2,0,P|113:108|97:106,1,49.25,2|0,0:0|2:0,2:0:0:0:
46,203,78546,2,0,P|84:186|100:184,1,49.25,0|2,2:0|0:0,2:0:0:0:
0,45,78870,6,0,P|-14:109|8:144,1,98.5,2|2,0:0|0:0,2:0:0:0:
46,203,79356,2,0,P|105:195|155:191,2,98.5,2|2|2,0:0|0:0|0:0,2:0:0:0:
0,271,80167,1,0,2:0:0:0:
91,329,80329,6,0,P|85:294|78:261,1,49.25,2|0,0:0|2:0,2:0:0:0:
223,225,80654,1,2,0:0:0:0:
174,65,80816,6,0,P|158:124|150:193,1,108.35000330658,0|4,2:0|0:3,2:0:0:0:
143,191,81059,1,8,0:3:0:0:
143,191,81140,6,0,P|195:146|283:167,1,147.750005636215,8|2,0:0|1:2,2:0:0:0:
171,364,81464,6,0,P|99:310|138:208,1,192.074991207505,14|0,0:0|2:0,2:0:0:0:
143,191,81789,1,0,1:2:0:0:
442,296,81951,2,0,B|347:286|347:286|339:292|339:292|230:280,1,192.074991207505,10|0,0:0|2:0,2:0:0:0:
220,276,82275,1,0,1:2:0:0:
251,73,82437,2,0,B|282:136|282:136|249:200,1,128.049994138336,8|2,0:0|0:0,2:0:0:0:
137,68,82762,5,2,1:2:0:0:
372,0,82924,2,0,L|372:209,1,192.074991207505,10|0,0:0|2:0,2:0:0:0:
370,220,83248,1,2,1:2:0:0:
146,214,83410,2,0,B|195:170|195:170|268:190,1,128.049994138336,8|2,0:0|1:2,2:0:0:0:
129,330,83735,2,0,B|69:346|69:346|20:302,1,128.049994138336,8|2,0:3|1:2,2:0:0:0:
94,138,84059,5,12,1:2:0:0:
234,268,84221,1,8,0:0:0:0:
234,268,84383,1,0,1:2:0:0:
29,206,84546,5,8,1:2:0:0:
272,84,84708,1,8,0:0:0:0:
272,84,84870,1,2,1:2:0:0:
29,206,85032,5,2,1:2:0:0:
277,371,85194,6,0,P|368:309|334:185,1,221.625008454323,6|0,1:2|2:0,2:0:0:0:
334,177,85519,5,2,1:2:0:0:
119,57,85681,1,8,0:0:0:0:
135,315,85843,1,10,0:0:0:0:
148,277,85924,1,8,0:0:0:0:
160,240,86005,1,8,0:0:0:0:
13,135,86167,5,8,0:3:0:0:
21,160,86248,1,0,2:0:0:0:
29,185,86329,1,4,0:3:0:0:
232,10,86491,5,6,1:2:0:0:
256,192,86573,12,2,90221,0:0:0:0:
