osu file format v14

[General]
AudioFilename: audio.mp3
AudioLeadIn: 0
PreviewTime: 54790
Countdown: 0
SampleSet: Soft
StackLeniency: 0.7
Mode: 0
LetterboxInBreaks: 0
WidescreenStoryboard: 1

[Editor]
Bookmarks: 12709,23087,43844,55519,76275,81464
DistanceSpacing: 1
BeatDivisor: 4
GridSize: 32
TimelineZoom: 2

[Metadata]
Title:Break out (TV Size)
TitleUnicode:Break out (TV Size)
Artist:Da-iCE
ArtistUnicode:ダイス
Creator:Vanya2
Version:vinal2's Insane
Source:オリエント
Tags:alevi vinal2 [_lost_] conner c_o_n_n_e_r sarawatlism japanese anime opening orient pop jpop j-pop rock jrock j-rock male vocal dice daisu
BeatmapID:3428050
BeatmapSetID:1672200

[Difficulty]
HPDrainRate:5
CircleSize:3.6
OverallDifficulty:8.2
ApproachRate:9
SliderMultiplier:1.8
SliderTickRate:1

[Events]
//Background and Video events
0,0,"ORIENT-Anime-e1628211746194.jpg",0,0
Video,-76,"sdsd.mp4"
//Break Periods
//Storyboard Layer 0 (Background)
//Storyboard Layer 1 (Fail)
//Storyboard Layer 2 (Pass)
//Storyboard Layer 3 (Foreground)
//Storyboard Layer 4 (Overlay)
//Storyboard Sound Samples

[TimingPoints]
1034,324.324324324325,4,2,99,50,1,0
1034,-133.333333333333,4,2,99,50,0,0
8655,-200,4,2,99,50,0,0
9952,-133.333333333333,4,2,99,50,0,0
10114,-133.333333333333,4,2,99,60,0,0
11250,-100,4,2,99,60,0,0
11493,-100,4,2,2,25,0,0
11574,-100,4,2,2,30,0,0
11655,-100,4,2,2,35,0,0
11736,-100,4,2,2,40,0,0
11817,-100,4,2,2,45,0,0
11898,-100,4,2,99,50,0,0
11979,-100,4,2,99,55,0,0
12061,-100,4,2,99,60,0,0
12142,-100,4,2,99,65,0,0
12223,-100,4,2,99,70,0,0
12304,-100,4,2,99,80,0,0
12385,-100,4,2,99,90,0,0
12709,324.324324324325,4,2,99,90,1,0
23087,-133.333333333333,4,2,99,60,0,0
28114,-100,4,2,99,75,0,0
33465,-133.333333333333,4,2,99,60,0,0
38492,-100,4,2,99,75,0,0
43844,-133.333333333333,4,2,99,75,0,0
49033,-111.111111111111,4,2,99,75,0,0
52276,-100,4,2,99,75,0,0
54871,-200,4,2,99,75,0,0
55276,-200,4,2,99,75,0,0
55357,-90.9090909090909,4,2,99,90,0,1
55519,324.324324324325,4,2,99,90,1,1
60546,-90.9090909090909,4,2,99,90,0,1
61032,-100,4,2,99,90,0,1
65735,-90.9090909090909,4,2,99,90,0,1
66221,-100,4,2,99,90,0,1
70924,-90.9090909090909,4,2,99,90,0,1
71410,-100,4,2,99,90,0,1
76275,-133.333333333333,4,2,99,50,0,0
80978,-133.333333333333,4,2,99,90,0,0
81464,-100,4,2,99,90,0,1
86491,-200,4,2,99,90,0,0
86978,-200,4,2,99,80,0,0
87951,-200,4,2,99,70,0,0
88600,-200,4,2,99,60,0,0
89248,-200,4,2,99,50,0,0
89897,-200,4,2,99,40,0,0
90221,-200,4,2,99,40,0,0

[Colours]
Combo1 : 37,226,170
Combo2 : 152,250,165
Combo3 : 252,153,148
Combo4 : 168,228,239

[HitObjects]
43,259,1034,6,0,P|144:239|246:230,1,202.500007724762,2|2,0:0|0:0,0:0:0:0:
337,363,1682,2,0,P|272:343|198:331,1,135.000005149842,2|0,0:0|0:0,0:0:0:0:
194,337,2169,1,2,0:0:0:0:
342,234,2331,2,0,P|417:221|483:320,1,202.500007724762,2|2,0:0|0:0,0:0:0:0:
398,303,2979,1,2,0:0:0:0:
509,165,3142,2,0,L|496:237,1,67.5000025749208
426,135,3466,1,2,0:0:0:0:
342,234,3628,6,0,P|319:219|274:209,1,67.5000025749208,2|0,0:0|0:0,0:0:0:0:
219,274,3952,1,2,0:0:0:0:
139,189,4115,2,0,P|162:174|207:164,1,67.5000025749208,2|0,0:0|0:0,0:0:0:0:
116,273,4439,2,0,P|91:260|60:226,1,67.5000025749208,2|0,0:0|0:0,0:0:0:0:
35,95,4763,6,0,L|43:10,1,67.5000025749208,2|0,0:0|0:0,0:0:0:0:
132,121,5088,2,0,L|140:206,1,67.5000025749208,2|0,0:0|0:0,0:0:0:0:
204,47,5412,2,0,B|330:3|330:3|386:50,1,202.500007724762,2|0,0:0|0:0,0:0:0:0:
311,96,6061,1,2,0:0:0:0:
464,125,6223,5,2,0:0:0:0:
464,125,6385,2,0,L|388:134,1,67.5000025749208,2|0,0:0|0:0,0:0:0:0:
232,187,6709,2,0,B|334:161|314:255|441:213,1,202.500007724762,2|0,0:0|0:0,0:0:0:0:
507,245,7358,1,2,0:0:0:0:
469,349,7520,5,2,0:0:0:0:
469,349,7682,2,0,L|393:340,1,67.5000025749208,2|0,0:0|0:0,0:0:0:0:
290,286,8006,2,0,P|310:321|311:355,1,67.5000025749208,2|0,0:0|0:0,0:0:0:0:
202,253,8331,2,0,P|219:223|248:205,1,67.5000025749208,2|0,0:0|0:0,0:0:0:0:
223,342,8655,6,0,P|121:326|-1:313,1,225,2|0,2:0|0:0,0:0:0:0:
71,223,9628,1,2,0:0:0:0:
147,296,9790,1,2,0:0:0:0:
184,192,9952,2,0,P|216:183|255:194,1,67.5000025749208,2|0,0:0|0:0,0:0:0:0:
389,244,10277,2,0,P|357:235|318:246,1,67.5000025749208,2|0,0:0|0:0,0:0:0:0:
366,384,10601,2,0,L|357:317,1,67.5000025749208,2|0,0:0|0:0,0:0:0:0:
217,271,10925,2,0,L|208:338,1,67.5000025749208,2|0,0:0|0:0,0:0:0:0:
277,384,11250,1,2,0:0:0:0:
436,316,11412,6,0,L|491:325,3,45,0|8|8|8,0:0|0:0|0:0|0:0,0:0:0:0:
389,218,11736,2,0,L|423:189,3,45,8|8|8|4,0:2|0:0|0:3|0:3,0:0:0:0:
286,93,12061,1,8,1:2:0:0:
288,112,12142,1,8,0:3:0:0:
289,132,12223,2,0,L|293:179,1,45,8|4,0:3|0:3,0:0:0:0:
301,260,12385,1,8,1:2:0:0:
22,80,12709,5,6,1:2:0:0:
153,127,12871,1,2,0:0:0:0:
15,195,13033,1,10,0:0:0:0:
116,49,13195,2,0,P|164:37|208:57,1,90,2|0,0:0|1:2,0:0:0:0:
286,202,13519,1,2,1:2:0:0:
153,127,13681,1,10,0:0:0:0:
302,25,13844,2,0,L|291:126,1,90,2|0,0:0|1:2,0:0:0:0:
397,53,14168,2,0,P|439:35|482:44,2,90,2|10|2,0:0|0:0|0:0,0:0:0:0:
286,202,14654,5,2,1:2:0:0:
449,118,14817,1,2,1:2:0:0:
386,258,14979,2,0,L|374:167,1,90,10|0,0:0|0:0,0:0:0:0:
153,168,15303,5,2,1:2:0:0:
277,285,15465,1,2,0:0:0:0:
294,127,15627,1,10,0:0:0:0:
177,271,15790,2,0,P|190:314|197:372,1,90,2|0,0:0|1:2,0:0:0:0:
44,244,16114,1,2,1:2:0:0:
29,367,16276,2,0,P|70:376|113:353,1,90,10|2,0:0|0:0,0:0:0:0:
241,192,16600,6,0,L|143:181,1,90,2|2,1:2|0:0,0:0:0:0:
19,84,16925,2,0,L|117:73,1,90,10|2,0:0|0:0,0:0:0:0:
196,24,17249,1,2,1:2:0:0:
151,181,17411,1,2,1:2:0:0:
276,66,17573,2,0,P|319:49|367:62,1,90,10|0,0:0|0:0,0:0:0:0:
465,149,17898,6,0,P|467:100|478:52,1,90,6|0,1:2|0:0,0:0:0:0:
336,232,18222,2,0,P|334:183|323:135,1,90,10|0,0:0|0:0,0:0:0:0:
437,232,18546,1,2,1:2:0:0:
400,323,18709,2,0,P|354:346|310:335,1,90,2|8,1:2|0:0,0:0:0:0:
247,229,19033,5,2,0:0:0:0:
247,229,19114,1,2,0:0:0:0:
247,229,19195,1,0,1:2:0:0:
137,297,19357,2,0,P|152:351|158:390,1,90,2|8,0:0|0:0,0:0:0:0:
75,242,19681,2,0,P|116:213|157:215,1,90,2|0,0:0|1:2,0:0:0:0:
213,142,20006,1,2,1:2:0:0:
44,52,20168,5,8,0:0:0:0:
76,131,20330,1,0,1:2:0:0:
203,27,20492,6,0,B|243:9|287:44|281:63|321:100|362:80,1,180,14|0,0:0|1:2,0:0:0:0:
456,19,20979,2,0,P|403:62|439:168,1,180,10|0,0:0|1:2,0:0:0:0:
487,98,21465,1,10,0:0:0:0:
334,177,21627,2,0,L|280:164,2,45,8|8|8,0:0|0:0|0:0,0:0:0:0:
474,251,21952,5,10,0:3:0:0:
474,251,22033,1,8,0:3:0:0:
474,251,22114,2,0,L|486:300,2,45,8|4|0,0:3|0:3|1:2,0:0:0:0:
426,160,22438,5,10,0:0:0:0:
335,278,22600,2,0,P|294:256|247:257,1,90,8|0,0:0|0:0,0:0:0:0:
275,342,22925,1,2,0:2:0:0:
156,321,23087,6,0,L|179:161,1,135.000005149842,6|2,1:2|1:2,0:0:0:0:
187,174,23736,1,2,1:2:0:0:
77,134,23898,2,0,L|88:214,1,67.5000025749208,2|0,0:0|1:2,0:0:0:0:
82,31,24222,6,0,P|116:34|147:57,1,67.5000025749208,2|0,0:0|1:2,0:0:0:0:
243,105,24546,2,0,P|228:74|233:35,1,67.5000025749208,2|0,0:0|1:2,0:0:0:0:
363,15,24871,2,0,P|343:43|307:58,1,67.5000025749208,2|0,0:0|1:2,0:0:0:0:
165,141,25195,1,8,0:3:0:0:
206,270,25357,2,0,P|212:225|222:197,1,67.5000025749208,8|2,1:3|0:0,0:0:0:0:
295,343,25681,5,2,1:2:0:0:
295,343,25844,2,0,P|351:326|379:326,1,67.5000025749208,2|0,0:0|1:2,0:0:0:0:
493,275,26168,2,0,P|437:258|409:258,1,67.5000025749208,2|0,0:0|1:2,0:0:0:0:
355,137,26492,2,0,L|340:208,1,67.5000025749208,2|0,0:0|1:2,0:0:0:0:
306,74,26817,2,0,P|342:54|376:60,1,67.5000025749208,2|0,3:0|1:2,0:0:0:0:
511,134,27141,2,0,P|474:114|440:120,1,67.5000025749208,2|0,0:0|1:2,0:0:0:0:
355,137,27465,1,2,0:0:0:0:
319,266,27627,5,2,1:2:0:0:
455,193,27790,1,2,1:2:0:0:
426,325,27952,1,8,0:0:0:0:
278,188,28114,6,0,L|176:203,1,90,2|0,1:2|0:0,0:0:0:0:
50,260,28438,1,2,1:2:0:0:
163,352,28600,2,0,P|172:304|143:268,1,90,10|0,0:0|0:0,0:0:0:0:
72,167,28925,1,0,1:2:0:0:
207,113,29087,2,0,L|185:217,1,90,2|8,1:2|0:0,0:0:0:0:
23,100,29411,2,0,P|65:82|107:91,1,90,2|0,1:2|0:0,0:0:0:0:
188,201,29736,1,2,1:2:0:0:
256,44,29898,2,0,P|214:26|172:35,1,90,10|0,0:0|0:0,0:0:0:0:
292,146,30222,5,2,1:2:0:0:
340,61,30384,1,2,1:2:0:0:
207,113,30546,1,8,0:0:0:0:
346,217,30709,2,0,P|390:204|438:199,1,90,2|0,0:0|1:2,0:0:0:0:
497,260,31033,1,2,0:0:0:0:
376,326,31195,6,0,L|286:314,1,90,8|0,0:0|0:0,0:0:0:0:
111,293,31519,1,0,1:2:0:0:
266,238,31681,1,2,1:2:0:0:
203,359,31844,2,0,L|188:256,1,90,8|2,0:0|1:2,0:0:0:0:
346,217,32168,6,0,P|390:204|438:199,1,90,2|0,0:0|1:2,0:0:0:0:
444,202,32411,1,2,0:0:0:0:
453,205,32492,1,8,0:0:0:0:
379,96,32654,2,0,P|331:77|281:95,1,90,2|0,0:0|1:2,0:0:0:0:
141,138,32979,5,2,1:2:0:0:
225,159,33141,2,0,L|211:60,1,90,8|0,0:0|0:0,0:0:0:0:
55,205,33465,5,4,1:2:0:0:
128,301,33627,1,2,0:0:0:0:
128,301,33790,2,0,P|180:277|206:275,1,67.5000025749208,2|2,1:2|0:0,0:0:0:0:
366,268,34114,1,2,1:2:0:0:
275,232,34276,1,2,0:0:0:0:
281,320,34438,2,0,L|306:399,1,67.5000025749208,2|2,1:2|0:0,0:0:0:0:
366,268,34763,2,0,P|401:249|435:258,1,67.5000025749208,2|2,1:2|0:0,0:0:0:0:
446,346,35087,2,0,P|411:365|377:356,1,67.5000025749208,2|2,1:2|0:0,0:0:0:0:
255,222,35411,5,2,1:2:0:0:
366,268,35573,1,8,0:3:0:0:
235,320,35736,1,2,1:2:0:0:
301,384,35898,5,8,0:3:0:0:
301,384,35979,1,8,0:3:0:0:
301,384,36060,1,0,1:2:0:0:
170,263,36222,1,2,0:0:0:0:
170,263,36384,2,0,P|130:250|97:264,1,67.5000025749208,2|2,1:2|0:0,0:0:0:0:
99,384,36709,2,0,P|130:355|134:320,1,67.5000025749208,2|2,1:2|0:0,0:0:0:0:
55,319,37033,1,2,1:2:0:0:
4,249,37195,1,2,0:0:0:0:
83,163,37357,5,2,1:2:0:0:
83,163,37519,2,0,L|96:82,1,67.5000025749208,2|2,0:0|1:2,0:0:0:0:
214,84,37844,5,10,0:3:0:0:
214,84,37925,1,8,0:3:0:0:
214,84,38006,1,10,1:2:0:0:
107,7,38168,1,2,1:2:0:0:
173,159,38330,1,8,1:2:0:0:
269,25,38492,2,0,P|233:1|180:10,1,90,6|0,1:2|0:0,0:0:0:0:
290,131,38817,1,2,1:2:0:0:
388,6,38979,6,0,P|382:70|382:191,1,180,10|0,0:0|1:2,0:0:0:0:
432,269,39465,1,2,1:2:0:0:
291,224,39627,1,10,0:0:0:0:
401,346,39790,2,0,P|474:343|508:244,1,180,2|2,1:2|1:2,0:0:0:0:
458,188,40276,1,10,0:0:0:0:
332,297,40438,2,0,P|313:337|322:380,1,90,2|0,0:0|1:2,0:0:0:0:
183,279,40763,1,2,1:2:0:0:
213,363,40925,1,10,0:0:0:0:
96,255,41087,5,2,1:2:0:0:
96,255,41168,1,2,1:2:0:0:
96,255,41249,2,0,P|46:242|5:260,1,90,0|0,1:2|0:0,0:0:0:0:
129,363,41573,2,0,P|179:376|220:358,1,90,8|0,0:0|0:0,0:0:0:0:
275,294,41898,1,0,1:2:0:0:
176,190,42060,2,0,L|184:283,1,90,2|8,1:2|0:0,0:0:0:0:
129,363,42384,1,2,1:2:0:0:
96,255,42546,6,0,P|46:242|5:260,1,90,2|0,0:0|1:2,0:0:0:0:
6,261,42790,1,2,0:0:0:0:
2,269,42871,1,8,0:0:0:0:
99,126,43033,1,2,1:2:0:0:
101,137,43114,1,0,1:2:0:0:
104,150,43195,1,10,0:0:0:0:
11,81,43357,1,0,1:2:0:0:
105,159,43519,1,8,0:0:0:0:
0,170,43681,1,2,1:2:0:0:
97,49,43844,5,6,0:0:0:0:
97,49,44006,2,0,B|137:35|166:56|162:62|187:87|230:66,1,135.000005149842,2|2,0:0|0:0,0:0:0:0:
313,4,44492,2,0,L|303:92,1,67.5000025749208,10|2,0:0|0:0,0:0:0:0:
384,66,44817,2,0,L|394:154,1,67.5000025749208,2|2,0:0|1:2,0:0:0:0:
292,161,45141,1,2,0:0:0:0:
292,161,45303,1,10,0:0:0:0:
358,207,45465,2,0,P|387:219|426:211,1,67.5000025749208,2|2,1:2|0:0,0:0:0:0:
512,308,45790,2,0,P|483:296|444:304,1,67.5000025749208,10|0,0:0|0:0,0:0:0:0:
373,372,46114,6,0,L|363:280,1,67.5000025749208,2|4,0:0|1:2,0:0:0:0:
279,247,46438,2,0,L|260:393,1,135.000005149842,2|2,0:0|1:2,0:0:0:0:
164,255,46925,1,2,0:0:0:0:
227,311,47087,1,10,0:0:0:0:
106,379,47249,2,0,L|96:287,1,67.5000025749208,2|0,0:0|0:0,0:0:0:0:
3,221,47573,2,0,P|34:232|74:218,1,67.5000025749208,6|0,1:2|0:0,0:0:0:0:
143,118,47898,5,10,0:0:0:0:
35,148,48060,1,0,1:2:0:0:
35,148,48222,1,2,1:2:0:0:
154,223,48384,1,8,0:0:0:0:
231,95,48546,2,0,L|221:187,1,67.5000025749208,2|8,1:2|0:0,0:0:0:0:
213,299,48871,5,10,0:0:0:0:
213,299,48952,1,8,0:0:0:0:
213,299,49033,1,6,1:2:0:0:
336,237,49195,1,2,0:0:0:0:
222,178,49357,1,2,1:2:0:0:
308,345,49519,1,10,0:3:0:0:
308,345,49600,1,4,0:3:0:0:
308,345,49681,2,0,P|341:326|383:320,1,80.9999975280763,0|8,1:2|0:3,0:0:0:0:
461,380,50006,1,10,0:0:0:0:
512,283,50168,1,10,0:3:0:0:
416,172,50330,5,2,1:2:0:0:
416,172,50492,2,0,L|433:275,1,80.9999975280763,2|0,0:0|1:2,0:0:0:0:
337,120,50817,2,0,P|366:88|401:80,1,80.9999975280763,10|0,0:3|1:2,0:0:0:0:
334,210,51141,2,0,P|291:200|267:174,1,80.9999975280763,10|8,0:3|0:0,0:0:0:0:
247,84,51465,1,6,0:3:0:0:
76,181,51627,5,14,0:0:0:0:
152,54,51790,1,10,1:3:0:0:
186,216,51952,1,8,1:3:0:0:
65,94,52114,2,0,L|20:88,1,40.4999987640381,10|0,0:0|0:0,0:0:0:0:
236,7,52276,5,0,1:0:0:0:
238,26,52357,1,0,1:0:0:0:
241,45,52438,1,6,0:3:0:0:
244,65,52519,1,4,0:3:0:0:
247,84,52600,2,0,L|255:129,1,45,8|8,0:3|0:3,0:0:0:0:
283,290,52763,5,10,1:2:0:0:
381,66,54871,5,2,0:0:0:0:
509,32,55033,1,2,0:0:0:0:
354,218,55357,6,0,B|275:208|275:208|246:173|246:173|173:165,1,198.000006042481,6|0,1:2|1:2,0:0:0:0:
49,79,55843,2,0,L|147:64,1,90,10|0,0:0|0:0,0:0:0:0:
317,126,56167,1,2,1:2:0:0:
203,244,56329,1,2,1:2:0:0:
229,90,56491,1,8,0:0:0:0:
327,255,56654,6,0,B|371:242|412:269|407:299|445:328|492:311,1,180,2|0,1:2|1:2,0:0:0:0:
467,139,57140,2,0,L|475:230,1,90,10|0,0:0|0:0,0:0:0:0:
335,334,57464,1,2,1:2:0:0:
392,180,57627,1,2,1:2:0:0:
431,384,57789,1,8,0:0:0:0:
298,229,57951,6,0,P|240:243|213:355,1,180,2|0,1:2|1:2,0:0:0:0:
146,228,58437,2,0,P|106:205|60:216,1,90,10|0,0:0|0:0,0:0:0:0:
200,168,58762,1,2,1:2:0:0:
200,168,58924,1,0,1:2:0:0:
92,286,59086,2,0,L|103:375,1,90,8|0,0:0|0:0,0:0:0:0:
0,255,59410,6,0,P|-12:211|7:164,1,90,2|0,1:2|0:0,0:0:0:0:
102,21,59735,2,0,L|116:115,1,90,10|0,0:0|0:0,0:0:0:0:
303,157,60059,1,2,1:2:0:0:
202,65,60221,1,0,1:2:0:0:
241,224,60383,1,8,0:0:0:0:
325,77,60546,2,0,B|390:24|455:79|455:79|426:90|413:112,1,198.000006042481,6|0,1:2|1:2,0:0:0:0:
493,246,61032,6,0,L|480:152,1,90,8|0,0:0|0:0,0:0:0:0:
375,216,61356,2,0,L|362:310,1,90,0|2,1:2|1:2,0:0:0:0:
420,377,61681,1,10,0:0:0:0:
288,227,61843,5,2,1:2:0:0:
288,227,61924,1,0,1:2:0:0:
288,227,62005,2,0,P|241:219|203:241,1,90,0|2,1:2|0:0,0:0:0:0:
167,384,62329,2,0,B|193:296|103:311|128:202,1,180,8|0,0:0|1:2,0:0:0:0:
82,358,62816,2,0,P|45:327|1:327,2,90,2|10|2,1:2|0:0|0:0,0:0:0:0:
251,307,63302,5,14,0:0:0:0:
70,158,63464,1,0,1:2:0:0:
242,198,63627,1,10,0:0:0:0:
44,245,63789,1,2,1:2:0:0:
176,67,63951,2,0,L|163:168,1,90,10|0,0:0|1:2,0:0:0:0:
164,167,64194,1,2,0:0:0:0:
162,177,64275,1,8,0:0:0:0:
369,142,64437,6,0,P|359:77|251:57,1,180,6|0,1:2|1:2,0:0:0:0:
282,179,64924,1,8,0:3:0:0:
282,179,65005,1,4,0:3:0:0:
282,179,65086,2,0,L|287:126,1,45,0|0,1:3|1:0,0:0:0:0:
373,41,65248,1,10,1:2:0:0:
202,0,65410,1,10,1:2:0:0:
337,243,65735,6,0,B|217:202|217:202|162:249,1,198.000006042481,6|0,1:2|1:2,0:0:0:0:
238,384,66221,2,0,P|254:345|231:297,1,90,10|0,0:0|0:0,0:0:0:0:
52,193,66546,1,2,1:2:0:0:
148,353,66708,1,2,1:2:0:0:
215,165,66870,1,8,0:0:0:0:
42,206,67032,6,0,P|56:300|64:388,1,180,2|0,1:2|1:2,0:0:0:0:
200,173,67519,2,0,P|192:225|189:267,1,90,10|0,0:0|0:0,0:0:0:0:
120,69,67843,1,2,1:2:0:0:
277,129,68005,1,2,1:2:0:0:
118,180,68167,1,8,0:0:0:0:
251,51,68329,6,0,B|298:31|347:59|332:82|378:109|422:88,1,180,2|0,1:2|1:2,0:0:0:0:
490,19,68816,2,0,L|388:9,1,90,10|0,0:0|0:0,0:0:0:0:
268,156,69140,1,2,1:2:0:0:
316,4,69302,1,0,1:2:0:0:
389,175,69464,6,0,P|431:184|476:157,1,90,8|0,0:0|0:0,0:0:0:0:
251,51,69789,2,0,P|209:42|164:69,1,90,2|0,1:2|0:0,0:0:0:0:
102,226,70113,2,0,L|88:133,1,90,10|0,0:0|0:0,0:0:0:0:
192,311,70437,1,2,1:2:0:0:
252,150,70600,1,2,1:2:0:0:
102,226,70762,1,8,0:0:0:0:
290,290,70924,2,0,P|389:272|499:260,1,198.000006042481,6|0,1:2|1:2,0:0:0:0:
470,78,71410,5,10,0:0:0:0:
313,161,71573,1,2,0:0:0:0:
512,182,71735,1,2,1:2:0:0:
375,34,71897,2,0,L|390:143,1,90,2|8,1:2|0:0,0:0:0:0:
223,210,72221,6,0,L|238:101,1,90,2|0,0:0|1:2,0:0:0:0:
278,272,72546,2,0,P|238:292|195:285,1,90,2|8,0:0|0:0,0:0:0:0:
64,158,72870,2,0,P|103:178|146:171,1,90,2|0,0:0|1:2,0:0:0:0:
250,10,73194,1,2,1:2:0:0:
115,95,73356,1,8,0:0:0:0:
223,210,73519,2,0,L|238:101,1,90,6|0,1:2|0:0,0:0:0:0:
312,64,73843,1,0,1:2:0:0:
482,137,74005,5,8,0:0:0:0:
339,240,74167,1,2,1:2:0:0:
400,102,74329,5,10,0:0:0:0:
469,254,74491,1,2,1:2:0:0:
326,153,74654,5,10,0:0:0:0:
284,315,74816,1,2,1:2:0:0:
174,202,74978,6,0,L|69:188,1,90,14|0,0:0|0:0,0:0:0:0:
74,194,75221,1,4,0:3:0:0:
65,201,75302,2,0,L|54:252,1,45,2|8,1:2|0:3,0:0:0:0:
43,333,75464,1,8,0:0:0:0:
43,333,75546,1,8,0:0:0:0:
43,333,75627,2,0,L|-8:322,3,45,10|8|8|4,1:2|0:3|0:3|0:3,0:0:0:0:
143,384,75951,1,6,1:3:0:0:
143,384,76033,1,4,0:3:0:0:
143,384,76113,2,0,L|194:373,1,45,8|8,0:3|0:3,0:0:0:0:
265,279,76275,6,0,P|372:259|475:243,1,202.500007724762,2|2,0:0|0:0,0:0:0:0:
307,184,76924,2,0,P|200:164|97:148,1,202.500007724762,2|2,0:0|0:0,0:0:0:0:
19,322,77573,2,0,P|56:256|176:263,1,202.500007724762,2|2,0:0|0:0,0:0:0:0:
108,321,78221,1,2,0:0:0:0:
3,170,78383,2,0,L|11:253,1,67.5000025749208
108,150,78708,5,2,0:0:0:0:
171,259,78870,2,0,P|205:264|239:247,1,67.5000025749208,2|0,0:0|0:0,0:0:0:0:
299,195,79194,1,2,0:0:0:0:
398,317,79356,2,0,P|364:322|330:305,1,67.5000025749208,2|0,0:0|0:0,0:0:0:0:
482,298,79681,2,0,P|487:332|470:366,1,67.5000025749208,2|0,0:0|0:0,0:0:0:0:
388,167,80005,2,0,L|380:238,1,67.5000025749208,2|0,0:0|0:0,0:0:0:0:
496,140,80329,2,0,L|504:211,1,67.5000025749208,2|0,0:0|0:0,0:0:0:0:
418,91,80654,6,0,P|375:81|304:150,1,135.000005149842,2|4,0:0|0:3,0:0:0:0:
303,145,81059,1,8,0:3:0:0:
300,154,81140,1,8,0:0:0:0:
380,234,81302,1,2,1:2:0:0:
195,269,81464,5,14,0:0:0:0:
330,384,81627,2,0,L|312:284,1,90,2|0,0:0|1:2,0:0:0:0:
176,185,81951,2,0,L|145:380,1,180,10|0,0:0|1:2,0:0:0:0:
241,346,82437,1,8,0:0:0:0:
67,232,82600,5,2,0:0:0:0:
267,226,82762,1,2,1:2:0:0:
109,152,82924,2,0,P|59:140|19:155,1,90,10|0,0:0|0:0,0:0:0:0:
180,210,83248,2,0,L|198:111,1,90,2|8,1:2|0:0,0:0:0:0:
312,46,83573,2,0,L|330:145,1,90,2|8,1:2|0:3,0:0:0:0:
334,144,83816,1,4,0:3:0:0:
340,151,83897,1,2,1:2:0:0:
434,306,84059,5,12,1:2:0:0:
252,196,84221,1,8,0:0:0:0:
252,196,84383,1,0,1:2:0:0:
153,367,84546,5,8,1:2:0:0:
362,237,84708,1,8,0:0:0:0:
148,198,84870,1,2,1:2:0:0:
320,327,85032,1,2,1:2:0:0:
236,113,85194,6,0,L|221:299,1,180,6|2,1:2|1:2,0:0:0:0:
148,198,85681,1,8,0:0:0:0:
52,325,85843,1,10,0:0:0:0:
52,325,85924,1,8,0:0:0:0:
52,325,86005,1,8,0:0:0:0:
73,159,86167,1,8,0:3:0:0:
142,339,86329,5,4,0:3:0:0:
0,235,86491,1,6,1:2:0:0:
256,192,86573,12,2,90221,0:0:0:0:
