osu file format v14

[General]
AudioFilename: audio.mp3
AudioLeadIn: 0
PreviewTime: 54790
Countdown: 0
SampleSet: Soft
StackLeniency: 0.7
Mode: 0
LetterboxInBreaks: 0
WidescreenStoryboard: 1

[Editor]
Bookmarks: 12709,23087,43844,55519,76275,81464
DistanceSpacing: 1
BeatDivisor: 4
GridSize: 32
TimelineZoom: 2.799999

[Metadata]
Title:Break out (TV Size)
TitleUnicode:Break out (TV Size)
Artist:Da-iCE
ArtistUnicode:ダイス
Creator:Vanya2
Version:alevi's Normal
Source:オリエント
Tags:alevi vinal2 [_lost_] conner c_o_n_n_e_r sarawatlism japanese anime opening orient pop jpop j-pop rock jrock j-rock male vocal dice daisu
BeatmapID:3728566
BeatmapSetID:1672200

[Difficulty]
HPDrainRate:4
CircleSize:3.2
OverallDifficulty:4
ApproachRate:5
SliderMultiplier:1
SliderTickRate:1

[Events]
//Background and Video events
0,0,"ORIENT-Anime-e1628211746194.jpg",0,0
Video,-76,"sdsd.mp4"
//Break Periods
//Storyboard Layer 0 (Background)
//Storyboard Layer 1 (Fail)
//Storyboard Layer 2 (Pass)
//Storyboard Layer 3 (Foreground)
//Storyboard Layer 4 (Overlay)
//Storyboard Sound Samples

[TimingPoints]
1034,324.324324324325,4,2,99,50,1,0
1034,-111.111111111111,4,2,99,50,0,0
10115,-111.111111111111,4,2,99,60,0,0
11412,-111.111111111111,4,2,99,60,0,0
11493,-111.111111111111,4,2,2,25,0,0
11574,-111.111111111111,4,2,2,30,0,0
11655,-111.111111111111,4,2,2,35,0,0
11736,-111.111111111111,4,2,2,40,0,0
11817,-111.111111111111,4,2,2,45,0,0
11898,-111.111111111111,4,2,99,50,0,0
11979,-111.111111111111,4,2,99,55,0,0
12061,-111.111111111111,4,2,99,60,0,0
12142,-111.111111111111,4,2,99,65,0,0
12223,-111.111111111111,4,2,99,70,0,0
12304,-111.111111111111,4,2,99,80,0,0
12385,-111.111111111111,4,2,99,90,0,0
12709,324.324324324325,4,2,99,90,1,0
12709,-100,4,2,99,90,0,0
23087,-111.111111111111,4,2,99,60,0,0
28114,-111.111111111111,4,2,99,75,0,0
33465,-111.111111111111,4,2,99,60,0,0
38492,-111.111111111111,4,2,99,75,0,0
43844,-111.111111111111,4,2,99,75,0,0
49033,-111.111111111111,4,2,99,75,0,0
55357,-100,4,2,99,90,0,1
55519,324.324324324325,4,2,99,90,1,1
76275,-111.111111111111,4,2,99,50,0,0
80978,-111.111111111111,4,2,99,90,0,0
81464,-100,4,2,99,90,0,1
86491,-100,4,2,99,90,0,0
86978,-100,4,2,99,80,0,0
87951,-100,4,2,99,70,0,0
88600,-100,4,2,99,60,0,0
89248,-100,4,2,99,50,0,0
89897,-100,4,2,99,40,0,0
90221,-100,4,2,99,40,0,0

[Colours]
Combo1 : 37,226,170
Combo2 : 152,250,165
Combo3 : 252,153,148
Combo4 : 168,228,239

[HitObjects]
440,150,1034,6,0,B|325:132|387:199|260:179,1,179.999994506836,2|2,0:0|0:0,0:0:0:0:
112,91,2331,2,0,B|121:120|153:137|153:137|132:260,1,179.999994506836,2|2,0:0|0:0,0:0:0:0:
225,350,3466,1,2,0:0:0:0:
225,350,3628,6,0,P|272:336|326:322,1,89.9999972534181,2|2,0:0|0:0,0:0:0:0:
353,343,4115,1,2,0:0:0:0:
435,307,4439,1,2,0:0:0:0:
424,217,4763,2,0,P|403:182|353:172,2,89.9999972534181,2|2|2,0:0|0:0|0:0,0:0:0:0:
322,67,6061,1,2,0:0:0:0:
322,67,6223,6,0,P|291:75|264:84,1,44.999998626709,2|2,0:0|0:0,0:0:0:0:
214,141,6709,2,0,P|147:120|80:104,1,134.999995880127,2|0,0:0|0:0,0:0:0:0:
52,138,7358,1,2,0:0:0:0:
52,138,7520,2,0,P|58:165|61:192,1,44.999998626709,2|2,0:0|0:0,0:0:0:0:
129,239,8006,2,0,P|118:282|111:335,2,89.9999972534181,2|2|2,0:0|0:0|2:0,0:0:0:0:
171,223,8817,6,0,P|196:256|246:258,1,89.9999972534181,2|0,0:0|0:0,0:0:0:0:
275,229,9304,1,2,0:0:0:0:
322,152,9628,2,0,P|350:158|376:166,1,44.999998626709,2|2,0:0|0:0,0:0:0:0:
401,190,9952,2,0,P|392:239|383:289,2,89.9999972534181,2|2|2,0:0|0:0|0:0,0:0:0:0:
455,118,10925,1,2,0:0:0:0:
395,50,11250,2,0,B|300:25|252:118|278:125|233:215|138:184,1,314.999990386963,2|8,0:0|1:2,0:0:0:0:
45,160,12709,6,0,P|62:210|65:269,1,100,6|10,1:2|0:0,0:0:0:0:
101,292,13195,1,2,0:0:0:0:
101,292,13357,2,0,P|138:266|200:268,1,100,0|10,1:2|0:0,0:0:0:0:
266,331,14006,2,0,B|328:321|294:304|359:296,1,100,0|10,1:2|0:0,0:0:0:0:
389,258,14492,1,2,0:0:0:0:
389,258,14654,2,0,P|373:226|348:217,2,50,2|2|10,1:2|1:2|0:0,0:0:0:0:
461,188,15303,6,0,P|467:132|474:76,1,100,2|10,1:2|0:0,0:0:0:0:
442,55,15790,1,2,0:0:0:0:
442,55,15952,2,0,P|389:34|332:15,1,100,0|10,1:2|0:0,0:0:0:0:
301,1,16438,1,2,0:0:0:0:
219,57,16763,1,2,0:0:0:0:
219,57,16925,2,0,P|185:68|155:75,1,50,10|2,0:0|0:0,0:0:0:0:
132,102,17249,2,0,B|111:133|111:133|134:207,1,100,2|10,1:2|0:0,0:0:0:0:
173,282,17898,5,6,1:2:0:0:
248,216,18222,1,10,0:0:0:0:
336,272,18546,1,2,1:2:0:0:
336,272,18709,2,0,P|367:282|396:291,1,50,2|8,1:2|0:0,0:0:0:0:
429,267,19033,2,0,P|452:232|432:174,1,100,2|2,0:0|0:0,0:0:0:0:
371,103,19681,1,2,0:0:0:0:
371,103,19844,2,0,P|375:69|390:42,2,50,0|2|8,1:2|1:2|0:0,0:0:0:0:
289,160,20492,6,0,P|236:143|178:127,1,100,14|0,0:0|1:2,0:0:0:0:
145,116,20979,1,10,0:0:0:0:
64,174,21303,1,0,1:2:0:0:
64,174,21465,2,0,P|73:209|91:281,1,100,10|8,0:0|0:0,0:0:0:0:
102,319,21952,1,10,0:3:0:0:
193,371,22276,1,0,1:2:0:0:
193,371,22438,2,0,P|198:341|205:313,1,50,10|8,0:0|0:0,0:0:0:0:
270,205,23087,6,0,P|261:149|253:113,1,89.9999972534181,6|2,1:2|1:2,0:0:0:0:
288,33,23736,2,0,P|310:42|335:48,1,44.999998626709,2|2,1:2|0:0,0:0:0:0:
406,95,24222,2,0,P|452:80|511:67,2,89.9999972534181,2|2|2,0:0|0:0|0:0,0:0:0:0:
393,184,25195,2,0,P|400:212|406:247,1,44.999998626709,8|8,0:3|1:3,0:0:0:0:
349,300,25681,5,2,1:2:0:0:
349,300,25844,2,0,P|298:282|260:265,1,89.9999972534181,2|2,0:0|0:0,0:0:0:0:
201,204,26492,2,0,P|175:213|143:223,1,44.999998626709,2|0,0:0|1:2,0:0:0:0:
116,236,26817,2,0,P|85:214|92:156,1,89.9999972534181,2|2,3:0|0:0,0:0:0:0:
179,69,27627,1,2,1:2:0:0:
179,69,27790,2,0,P|209:80|239:93,1,44.999998626709,2|8,1:2|0:0,0:0:0:0:
248,120,28114,6,0,P|294:101|345:86,1,89.9999972534181,2|2,1:2|1:2,0:0:0:0:
374,74,28600,1,10,0:0:0:0:
458,42,28925,2,0,P|453:15|442:-11,2,44.999998626709,0|2|8,1:2|1:2|0:0,0:0:0:0:
494,68,29411,2,0,P|484:111|477:165,1,89.9999972534181,2|2,1:2|1:2,0:0:0:0:
468,200,29898,1,10,0:0:0:0:
404,263,30222,1,2,1:2:0:0:
404,263,30384,2,0,P|374:252|343:243,1,44.999998626709,2|8,1:2|0:0,0:0:0:0:
328,216,30709,6,0,P|278:231|231:243,1,89.9999972534181,2|2,0:0|0:0,0:0:0:0:
199,255,31195,1,8,0:0:0:0:
126,202,31519,1,0,1:2:0:0:
126,202,31681,2,0,P|137:140|147:101,1,89.9999972534181,2|2,1:2|1:2,0:0:0:0:
179,86,32168,2,0,P|205:113|247:117,2,67.4999979400635,2|2|2,0:0|0:0|0:0,0:0:0:0:
118,19,32979,1,2,1:2:0:0:
118,19,33141,2,0,P|101:26|68:39,1,44.999998626709,8|0,0:0|0:0,0:0:0:0:
46,69,33465,6,0,P|59:109|67:156,1,89.9999972534181,4|2,1:2|1:2,0:0:0:0:
53,245,34114,2,0,P|31:253|3:263,2,44.999998626709,2|2|2,1:2|0:0|1:2,0:0:0:0:
127,295,34763,2,0,P|169:309|224:322,1,89.9999972534181,2|2,1:2|1:2,0:0:0:0:
259,308,35249,1,2,0:0:0:0:
259,308,35411,2,0,P|280:262|261:224,1,89.9999972534181,2|2,1:2|1:2,0:0:0:0:
201,165,36060,5,0,1:2:0:0:
264,100,36384,2,0,P|285:106|306:114,1,44.999998626709,2|2,1:2|0:0,0:0:0:0:
332,151,36709,2,0,P|375:139|418:125,1,89.9999972534181,2|2,1:2|1:2,0:0:0:0:
457,102,37195,1,2,0:0:0:0:
457,102,37357,2,0,P|448:52|437:7,1,89.9999972534181,2|2,1:2|1:2,0:0:0:0:
354,45,38006,1,10,1:2:0:0:
354,45,38168,2,0,P|326:36|297:29,1,44.999998626709,2|8,1:2|1:2,0:0:0:0:
274,58,38492,6,0,B|252:91|252:91|271:153,1,89.9999972534181,6|2,1:2|1:2,0:0:0:0:
286,179,38979,1,10,0:0:0:0:
220,240,39303,1,0,1:2:0:0:
220,240,39465,2,0,P|195:228|162:216,1,44.999998626709,2|10,1:2|0:0,0:0:0:0:
148,188,39790,2,0,P|105:207|45:227,1,89.9999972534181,2|2,1:2|1:2,0:0:0:0:
22,238,40276,1,10,0:0:0:0:
48,324,40600,2,0,P|91:343|151:363,1,89.9999972534181,0|10,1:2|0:0,0:0:0:0:
180,363,41087,1,2,1:2:0:0:
180,363,41249,6,0,P|206:330|258:329,1,89.9999972534181,0|8,1:2|0:0,0:0:0:0:
337,353,41898,1,0,1:2:0:0:
337,353,42060,2,0,P|388:336|434:323,1,89.9999972534181,2|2,1:2|1:2,0:0:0:0:
456,296,42546,2,0,P|446:242|438:199,1,89.9999972534181,2|8,0:0|0:0,0:0:0:0:
380,138,43195,2,0,P|390:95|396:68,2,67.4999979400635,10|2|2,0:0|0:0|1:2,0:0:0:0:
340,159,43844,6,0,P|289:142|241:129,1,89.9999972534181,6|0,0:0|1:2,0:0:0:0:
188,70,44492,2,0,P|137:87|89:100,1,89.9999972534181,10|2,0:0|0:0,0:0:0:0:
76,134,44979,1,2,1:2:0:0:
34,215,45303,1,10,0:0:0:0:
34,215,45465,2,0,P|41:247|46:273,1,44.999998626709,2|2,1:2|0:0,0:0:0:0:
79,285,45790,2,0,P|105:259|162:255,1,89.9999972534181,10|2,0:0|0:0,0:0:0:0:
193,278,46276,1,4,1:2:0:0:
193,278,46438,6,0,P|243:262|288:250,1,89.9999972534181,2|2,0:0|1:2,0:0:0:0:
330,178,47087,2,0,P|321:149|316:128,1,44.999998626709,10|2,0:0|0:0,0:0:0:0:
374,65,47573,2,0,P|409:79|465:93,1,89.9999972534181,6|10,1:2|0:0,0:0:0:0:
491,123,48060,1,0,1:2:0:0:
468,210,48384,2,0,P|463:234|458:274,1,44.999998626709,8|2,0:0|1:2,0:0:0:0:
418,271,48709,2,0,P|423:295|428:335,1,44.999998626709,8|10,0:0|0:0,0:0:0:0:
402,353,49033,5,6,1:2:0:0:
318,320,49357,1,2,1:2:0:0:
240,365,49681,1,0,1:2:0:0:
171,306,50006,2,0,P|176:282|181:263,1,44.999998626709,10|10,0:0|0:3,0:0:0:0:
191,218,50330,1,2,1:2:0:0:
275,185,50654,1,0,1:2:0:0:
353,230,50978,1,0,1:2:0:0:
422,171,51303,2,0,P|417:147|412:128,1,44.999998626709,8|6,0:0|0:3,0:0:0:0:
384,91,51627,6,0,P|334:74|286:59,1,89.9999972534181,14|8,0:0|1:3,0:0:0:0:
270,27,52114,2,0,P|220:44|172:59,1,89.9999972534181,10|6,0:0|0:3,0:0:0:0:
158,91,52600,1,8,0:3:0:0:
158,91,52763,1,10,1:2:0:0:
75,257,54871,2,0,P|68:227|63:204,1,44.999998626709,2|2,0:0|0:0,0:0:0:0:
106,122,55357,6,0,P|150:102|202:89,1,100,6|0,1:2|1:2,0:0:0:0:
240,118,55843,1,10,0:0:0:0:
312,186,56167,1,2,1:2:0:0:
312,186,56329,2,0,P|307:213|301:247,1,50,2|8,1:2|0:0,0:0:0:0:
335,273,56654,2,0,P|386:270|419:228,1,100,2|0,1:2|1:2,0:0:0:0:
430,187,57140,1,10,0:0:0:0:
419,92,57464,1,2,1:2:0:0:
419,92,57627,2,0,P|410:63|401:29,1,50,2|8,1:2|0:0,0:0:0:0:
363,16,57951,6,0,B|321:26|321:26|312:39|312:39|271:52,1,100,2|0,1:2|1:2,0:0:0:0:
225,68,58437,1,10,0:0:0:0:
160,144,58762,2,0,P|164:166|169:197,1,50,2|0,1:2|1:2,0:0:0:0:
179,241,59086,1,8,0:0:0:0:
101,303,59410,2,0,P|47:289|32:245,1,100,2|10,1:2|0:0,0:0:0:0:
62,156,60059,1,2,1:2:0:0:
62,156,60221,2,0,P|55:126|49:104,1,50,0|8,1:2|0:0,0:0:0:0:
71,61,60546,6,0,P|117:77|180:89,1,100,6|0,1:2|1:2,0:0:0:0:
216,95,61032,1,8,0:0:0:0:
296,154,61356,1,0,1:2:0:0:
296,154,61519,2,0,B|317:145|344:137,1,50,2|10,1:2|0:0,0:0:0:0:
389,155,61843,2,0,P|401:206|417:261,1,100,2|2,1:2|0:0,0:0:0:0:
435,296,62329,1,8,0:0:0:0:
339,327,62654,1,0,1:2:0:0:
339,327,62816,2,0,P|332:353|322:380,2,50,2|10|2,1:2|0:0|0:0,0:0:0:0:
294,304,63302,6,0,P|270:298|240:290,1,50,14|0,0:0|1:2,0:0:0:0:
195,292,63627,2,0,P|173:280|164:247,1,50,10|2,0:0|1:2,0:0:0:0:
181,211,63951,1,10,0:0:0:0:
224,123,64275,1,8,0:0:0:0:
224,123,64437,2,0,P|217:72|206:20,1,100,6|0,1:2|1:2,0:0:0:0:
160,4,64924,1,8,0:3:0:0:
66,37,65248,2,0,P|37:27|7:18,1,50,10|10,1:2|1:2,0:0:0:0:
14,121,65735,6,0,B|-9:149|-9:149|7:216,1,100,6|0,1:2|1:2,0:0:0:0:
18,259,66221,1,10,0:0:0:0:
96,320,66546,1,2,1:2:0:0:
96,320,66707,2,0,P|120:311|156:304,1,50,2|8,1:2|0:0,0:0:0:0:
185,277,67032,2,0,P|235:291|285:307,1,100,2|0,1:2|1:2,0:0:0:0:
328,321,67518,1,10,0:0:0:0:
409,379,67842,1,2,1:2:0:0:
409,379,68005,2,0,P|442:362|469:353,1,50,2|8,1:2|0:0,0:0:0:0:
486,319,68329,6,0,P|491:263|458:221,1,100,2|0,1:2|1:2,0:0:0:0:
425,201,68815,1,10,0:0:0:0:
352,132,69140,2,0,P|356:110|361:79,1,50,2|0,1:2|1:2,0:0:0:0:
371,35,69464,1,8,0:0:0:0:
274,9,69789,2,0,P|221:29|177:40,1,100,2|10,1:2|0:0,0:0:0:0:
103,103,70437,1,2,1:2:0:0:
103,103,70599,2,0,P|110:133|116:155,1,50,2|8,1:2|0:0,0:0:0:0:
155,181,70924,6,0,P|144:226|132:294,1,100,6|0,1:2|1:2,0:0:0:0:
120,326,71410,1,10,0:0:0:0:
208,383,71734,1,2,1:2:0:0:
208,383,71897,2,0,B|229:374|256:366,1,50,2|8,1:2|0:0,0:0:0:0:
286,327,72221,2,0,P|339:344|390:354,1,100,2|2,0:0|0:0,0:0:0:0:
427,330,72708,1,8,0:0:0:0:
427,330,72870,2,0,P|415:287|409:270,1,50,2|0,0:0|1:2,0:0:0:0:
347,207,73356,1,8,0:0:0:0:
347,207,73519,6,0,P|360:148|371:101,1,100,6|0,1:2|1:2,0:0:0:0:
407,77,74005,1,8,0:0:0:0:
330,13,74329,2,0,P|304:20|271:27,1,50,10|2,0:0|1:2,0:0:0:0:
241,55,74654,2,0,P|215:48|182:41,1,50,10|2,0:0|1:2,0:0:0:0:
146,62,74978,2,0,B|124:92|124:92|146:167,1,100,14|2,0:0|1:2,0:0:0:0:
207,227,75627,2,0,P|201:249|195:278,1,50,10|8,1:2|0:3,0:0:0:0:
184,324,75951,1,6,1:3:0:0:
270,349,76275,6,0,B|385:331|323:398|450:378,1,179.999994506836,2|2,0:0|0:0,0:0:0:0:
503,210,77573,2,0,P|416:216|419:303,1,179.999994506836,2|2,0:0|0:0,0:0:0:0:
288,351,78708,1,2,0:0:0:0:
288,351,78870,2,0,P|239:334|189:319,1,89.9999972534181,2|2,0:0|0:0,0:0:0:0:
160,307,79356,1,2,0:0:0:0:
117,227,79681,1,2,0:0:0:0:
159,147,80005,2,0,P|151:91|141:41,2,89.9999972534181,2|2|2,0:0|0:0|0:0,0:0:0:0:
236,193,80978,1,4,0:3:0:0:
236,193,81140,2,0,P|274:181|296:175,1,44.999998626709,8|2,0:0|1:2,0:0:0:0:
328,188,81464,6,0,P|371:146|357:94,1,100,14|0,0:0|1:2,0:0:0:0:
331,75,81951,1,10,0:0:0:0:
244,25,82275,1,0,1:2:0:0:
244,25,82437,2,0,P|217:37|189:46,1,50,8|2,0:0|0:0,0:0:0:0:
112,97,82924,2,0,B|133:132|133:132|116:212,1,100,10|2,0:0|1:2,0:0:0:0:
79,217,83410,2,0,P|87:250|91:278,1,50,8|2,0:0|1:2,0:0:0:0:
99,315,83735,1,8,0:3:0:0:
185,364,84059,6,0,P|210:354|239:343,1,50,12|8,1:2|0:0,0:0:0:0:
308,281,84546,2,0,P|333:291|362:302,1,50,8|8,1:2|0:0,0:0:0:0:
393,330,84870,2,0,P|418:320|447:309,1,50,2|2,1:2|1:2,0:0:0:0:
480,283,85194,2,0,P|490:229|456:185,2,100,6|2|10,1:2|1:2|0:0,0:0:0:0:
393,330,86167,2,0,P|360:320|334:312,1,50,8|4,0:3|0:3,0:0:0:0:
298,298,86491,1,6,1:2:0:0:
256,192,86654,12,2,90221,0:0:0:0:
