osu file format v14

[General]
AudioFilename: audio.mp3
AudioLeadIn: 0
PreviewTime: 54790
Countdown: 0
SampleSet: Soft
StackLeniency: 0.7
Mode: 0
LetterboxInBreaks: 0
WidescreenStoryboard: 0

[Editor]
Bookmarks: 12709,23087,43844,55519,69059,76275,81464
DistanceSpacing: 0.4
BeatDivisor: 4
GridSize: 32
TimelineZoom: 2.799999

[Metadata]
Title:Break out (TV Size)
TitleUnicode:Break out (TV Size)
Artist:Da-iCE
ArtistUnicode:ダイス
Creator:Vanya2
Version:Determination
Source:オリエント
Tags:alevi vinal2 [_lost_] conner c_o_n_n_e_r sarawatlism japanese anime opening orient pop jpop j-pop rock jrock j-rock male vocal dice daisu
BeatmapID:3459974
BeatmapSetID:1672200

[Difficulty]
HPDrainRate:5
CircleSize:3.8
OverallDifficulty:9
ApproachRate:9.2
SliderMultiplier:1.8
SliderTickRate:1

[Events]
//Background and Video events
0,0,"ORIENT-Anime-e1628211746194.jpg",0,0
Video,-76,"sdsd.mp4"
//Break Periods
//Storyboard Layer 0 (Background)
//Storyboard Layer 1 (Fail)
//Storyboard Layer 2 (Pass)
//Storyboard Layer 3 (Foreground)
//Storyboard Layer 4 (Overlay)
//Storyboard Sound Samples

[TimingPoints]
1034,324.324324324325,4,2,99,50,1,0
1034,-133.333333333333,4,2,99,50,0,0
10115,-133.333333333333,4,2,99,60,0,0
11250,-100,4,2,99,60,0,0
11493,-100,4,2,2,25,0,0
11574,-100,4,2,2,30,0,0
11655,-100,4,2,2,35,0,0
11736,-100,4,2,2,40,0,0
11817,-100,4,2,2,45,0,0
11898,-100,4,2,99,50,0,0
11979,-100,4,2,99,55,0,0
12061,-100,4,2,99,60,0,0
12142,-100,4,2,99,65,0,0
12223,-100,4,2,99,70,0,0
12304,-100,4,2,99,80,0,0
12385,-100,4,2,99,90,0,0
12709,324.324324324325,4,2,99,90,1,0
23087,-133.333333333333,4,2,99,60,0,0
28114,-100,4,2,99,75,0,0
33465,-133.333333333333,4,2,99,60,0,0
38492,-100,4,2,99,75,0,0
43844,-133.333333333333,4,2,99,75,0,0
49033,-111.111111111111,4,2,99,75,0,0
52276,-100,4,2,99,75,0,0
54871,-200,4,2,99,75,0,0
55276,-200,4,2,99,5,0,0
55357,-90.9090909090909,4,2,99,90,0,1
55519,324.324324324325,4,2,99,90,1,1
60546,-90.9090909090909,4,2,99,90,0,1
61032,-100,4,2,99,90,0,1
65735,-90.9090909090909,4,2,99,90,0,1
66221,-100,4,2,99,90,0,1
70924,-90.9090909090909,4,2,99,90,0,1
71410,-100,4,2,99,90,0,1
76275,-133.333333333333,4,2,99,50,0,0
80978,-133.333333333333,4,2,99,90,0,0
81464,-100,4,2,99,90,0,1
86491,-200,4,2,99,90,0,0
86978,-200,4,2,99,80,0,0
87951,-200,4,2,99,70,0,0
88600,-200,4,2,99,60,0,0
89248,-200,4,2,99,50,0,0
89897,-200,4,2,99,40,0,0
90221,-200,4,2,99,40,0,0

[Colours]
Combo1 : 37,226,170
Combo2 : 152,250,165
Combo3 : 252,153,148
Combo4 : 168,228,239

[HitObjects]
150,16,1034,6,0,P|247:42|348:54,1,202.500007724762,2|2,0:0|0:0,0:0:0:0:
470,49,1682,2,0,B|483:8|426:-34|326:44|428:138,1,202.500007724762,2|2,0:0|0:0,0:0:0:0:
507,186,2331,6,0,B|401:161|429:258|319:230,1,202.500007724762,2|2,0:0|0:0,0:0:0:0:
227,178,2979,2,0,B|176:147|144:192|144:192|164:210|193:198,1,135.000005149842,2|0,0:0|0:0,0:0:0:0:
346,68,3466,1,2,0:0:0:0:
195,12,3628,6,0,L|207:78,1,67.5000025749208,2|0,0:0|0:0,0:0:0:0:
124,233,3952,1,2,0:0:0:0:
52,99,4115,2,0,P|83:88|115:96,1,67.5000025749208,2|0,0:0|0:0,0:0:0:0:
218,217,4439,2,0,L|205:283,1,67.5000025749208,2|0,0:0|0:0,0:0:0:0:
311,368,4763,6,0,P|342:378|374:370,1,67.5000025749208,2|0,0:0|0:0,0:0:0:0:
376,236,5088,2,0,P|351:258|342:290,1,67.5000025749208,2|0,0:0|0:0,0:0:0:0:
476,384,5412,2,0,B|511:343|511:343|477:269,1,135.000005149842,2|0,0:0|0:0,0:0:0:0:
396,73,6061,5,2,0:0:0:0:
501,39,6223,1,2,0:0:0:0:
423,150,6385,2,0,P|390:158|359:147,1,67.5000025749208,2|0,0:0|0:0,0:0:0:0:
298,18,6709,2,0,L|272:150,1,135.000005149842,2|0,0:0|0:0,0:0:0:0:
225,348,7358,5,2,0:0:0:0:
67,288,7520,1,2,0:0:0:0:
197,198,7682,2,0,L|209:264,1,67.5000025749208,2|0,0:0|0:0,0:0:0:0:
33,199,8006,2,0,P|64:188|96:196,1,67.5000025749208,2|0,0:0|0:0,0:0:0:0:
231,114,8331,2,0,P|199:103|167:111,1,67.5000025749208,2|0,0:0|0:0,0:0:0:0:
293,288,8655,1,2,2:0:0:0:
301,293,8736,1,2,2:0:0:0:
309,298,8817,6,0,P|406:271|507:259,1,202.500007724762,2|0,0:0|0:0,0:0:0:0:
352,4,9628,1,2,0:0:0:0:
505,41,9790,1,2,0:0:0:0:
385,129,9952,2,0,P|353:139|321:131,1,67.5000025749208,2|0,0:0|0:0,0:0:0:0:
197,198,10277,2,0,P|228:208|260:200,1,67.5000025749208,2|0,0:0|0:0,0:0:0:0:
243,47,10601,2,0,L|230:113,1,67.5000025749208,2|0,0:0|0:0,0:0:0:0:
90,0,10925,2,0,L|102:66,1,67.5000025749208,2|0,0:0|0:0,0:0:0:0:
143,279,11250,1,2,0:0:0:0:
14,144,11412,5,0,0:0:0:0:
14,144,11493,1,8,0:0:0:0:
14,144,11574,2,0,L|60:134,3,45,8|8|8|8,0:0|0:0|0:2|0:0,0:0:0:0:
197,198,11898,1,8,0:3:0:0:
197,198,11979,1,4,0:3:0:0:
197,198,12060,6,0,L|151:188,1,45,8|8,1:2|0:3,0:0:0:0:
272,84,12223,1,8,0:3:0:0:
272,84,12304,1,4,0:3:0:0:
272,84,12385,2,0,L|286:197,1,90,8|0,1:2|0:0,0:0:0:0:
485,292,12709,5,6,1:2:0:0:
360,103,12871,1,2,0:0:0:0:
319,337,13033,1,10,0:0:0:0:
508,179,13195,2,0,L|395:165,1,90,2|0,0:0|1:2,0:0:0:0:
264,0,13519,1,2,1:2:0:0:
464,95,13681,1,10,0:0:0:0:
258,192,13844,6,0,B|190:182|190:182|152:204|152:204|85:192,1,180,2|2,0:0|0:0,0:0:0:0:
213,353,14330,2,0,P|227:311|212:269,1,90,10|2,0:0|0:0,0:0:0:0:
27,122,14654,1,2,1:2:0:0:
137,317,14817,1,2,1:2:0:0:
214,100,14979,2,0,L|101:114,1,90,10|0,0:0|0:0,0:0:0:0:
321,254,15303,5,2,1:2:0:0:
258,26,15465,1,2,0:0:0:0:
132,229,15627,1,10,0:0:0:0:
310,97,15790,2,0,P|351:82|393:96,1,90,2|0,0:0|1:2,0:0:0:0:
506,289,16114,1,2,1:2:0:0:
506,289,16276,2,0,L|393:275,1,90,10|2,0:0|0:0,0:0:0:0:
203,122,16600,5,2,1:2:0:0:
344,353,16763,1,2,0:0:0:0:
393,96,16925,1,10,0:0:0:0:
182,232,17087,1,2,0:0:0:0:
447,193,17249,1,2,1:2:0:0:
229,29,17411,1,2,1:2:0:0:
336,272,17573,2,0,L|322:159,1,90,10|0,0:0|0:0,0:0:0:0:
221,336,17898,6,0,P|179:350|137:335,1,90,6|0,1:2|0:0,0:0:0:0:
0,234,18222,2,0,P|41:248|83:233,1,90,10|0,0:0|0:0,0:0:0:0:
264,112,18546,1,2,1:2:0:0:
25,73,18709,2,0,L|39:186,1,90,2|8,1:2|0:0,0:0:0:0:
262,266,19033,6,0,B|307:216|307:216|263:111,1,180,2|2,0:0|0:0,0:0:0:0:
410,1,19519,1,8,0:0:0:0:
410,1,19681,2,0,P|473:58|448:139,1,180,2|2,0:0|1:2,0:0:0:0:
262,266,20168,2,0,L|248:153,1,90,8|0,0:0|1:2,0:0:0:0:
49,12,20492,5,14,0:0:0:0:
160,226,20654,1,0,1:2:0:0:
227,0,20817,1,0,1:2:0:0:
65,281,20979,5,10,0:0:0:0:
141,45,21141,1,0,1:2:0:0:
262,266,21303,1,0,1:2:0:0:
11,190,21465,5,10,0:0:0:0:
278,101,21627,1,8,0:0:0:0:
278,101,21709,1,8,0:0:0:0:
278,101,21790,1,8,0:0:0:0:
183,345,21952,1,10,0:3:0:0:
183,345,22033,1,8,0:3:0:0:
183,345,22114,2,0,L|173:299,1,45,8|4,0:3|0:3,0:0:0:0:
160,226,22276,1,0,1:2:0:0:
393,87,22438,5,10,0:0:0:0:
323,344,22600,1,8,0:0:0:0:
48,40,23087,6,0,P|79:29|111:37,1,67.5000025749208,6|0,1:2|0:0,0:0:0:0:
244,99,23411,2,0,P|213:88|181:96,1,67.5000025749208,2|0,1:2|0:0,0:0:0:0:
27,161,23736,1,2,1:2:0:0:
196,242,23898,2,0,L|209:176,1,67.5000025749208,2|0,0:0|1:2,0:0:0:0:
40,266,24222,6,0,L|53:332,1,67.5000025749208,2|0,0:0|1:2,0:0:0:0:
247,381,24546,2,0,P|258:350|250:318,1,67.5000025749208,2|0,0:0|1:2,0:0:0:0:
142,207,24871,2,0,P|163:232|195:241,1,67.5000025749208,2|0,0:0|1:2,0:0:0:0:
335,170,25195,1,8,0:3:0:0:
249,317,25357,1,8,1:3:0:0:
215,150,25519,1,2,0:0:0:0:
331,285,25681,5,2,1:2:0:0:
331,285,25844,2,0,L|397:272,1,67.5000025749208,2|0,0:0|1:2,0:0:0:0:
512,206,26168,2,0,L|446:193,1,67.5000025749208,2|0,0:0|1:2,0:0:0:0:
404,47,26492,2,0,P|412:79|401:110,1,67.5000025749208,2|0,0:0|1:2,0:0:0:0:
251,164,26817,1,2,3:0:0:0:
251,164,26898,1,2,3:0:0:0:
251,164,26979,6,0,L|238:98,1,67.5000025749208,0|2,1:2|0:0,0:0:0:0:
105,123,27303,2,0,L|118:57,1,67.5000025749208,0|2,1:2|0:0,0:0:0:0:
218,255,27627,1,2,1:2:0:0:
18,159,27790,1,2,1:2:0:0:
234,74,27952,1,8,0:0:0:0:
139,299,28114,6,0,L|104:122,1,180,2|2,1:2|1:2,0:0:0:0:
273,0,28600,2,0,L|255:88,1,90,10|0,0:0|0:0,0:0:0:0:
403,285,28925,1,0,1:2:0:0:
342,71,29087,1,2,1:2:0:0:
218,255,29249,1,8,0:0:0:0:
412,108,29411,6,0,B|460:155|460:155|413:257,1,180,2|2,1:2|1:2,0:0:0:0:
266,170,29898,2,0,P|307:155|349:169,1,90,10|0,0:0|0:0,0:0:0:0:
512,270,30222,1,2,1:2:0:0:
332,345,30384,2,0,L|314:256,1,90,2|8,1:2|0:0,0:0:0:0:
99,287,30709,6,0,P|140:301|182:287,1,90,2|0,0:0|1:2,0:0:0:0:
349,169,31033,1,2,0:0:0:0:
120,127,31195,2,0,L|137:215,1,90,8|0,0:0|0:0,0:0:0:0:
234,7,31519,1,0,1:2:0:0:
18,93,31681,1,2,1:2:0:0:
240,157,31844,1,8,0:0:0:0:
65,7,32006,1,2,1:2:0:0:
289,83,32168,6,0,L|377:65,1,90,2|0,0:0|1:2,0:0:0:0:
390,64,32411,1,2,0:0:0:0:
403,62,32492,1,8,0:0:0:0:
477,192,32654,2,0,P|433:183|404:149,1,90,2|0,0:0|1:2,0:0:0:0:
512,1,32979,5,2,1:2:0:0:
477,112,33141,1,8,0:0:0:0:
233,381,33465,6,0,L|220:315,1,67.5000025749208,4|2,1:2|0:0,0:0:0:0:
323,163,33790,1,2,1:2:0:0:
162,252,33952,1,2,0:0:0:0:
344,312,34114,2,0,L|357:246,1,67.5000025749208,2|2,1:2|0:0,0:0:0:0:
224,140,34438,2,0,L|237:206,1,67.5000025749208,2|2,1:2|0:0,0:0:0:0:
360,82,34763,6,0,P|329:71|297:79,1,67.5000025749208,2|2,1:2|0:0,0:0:0:0:
205,163,35087,2,0,P|174:174|142:166,1,67.5000025749208,2|2,1:2|0:0,0:0:0:0:
30,31,35411,1,2,1:2:0:0:
173,83,35573,1,8,0:3:0:0:
0,118,35736,1,2,1:2:0:0:
120,18,35898,1,8,0:3:0:0:
58,179,36060,6,0,L|71:245,1,67.5000025749208,0|2,1:2|0:0,0:0:0:0:
164,367,36384,2,0,L|177:301,1,67.5000025749208,2|2,1:2|0:0,0:0:0:0:
296,188,36709,1,2,1:2:0:0:
250,355,36871,1,2,0:0:0:0:
153,223,37033,2,0,P|185:214|216:225,1,67.5000025749208,2|2,1:2|0:0,0:0:0:0:
350,320,37357,6,0,P|382:328|413:317,1,67.5000025749208,2|2,1:2|0:0,0:0:0:0:
388,166,37681,2,0,L|375:232,1,67.5000025749208,2|10,1:2|0:3,0:0:0:0:
272,26,38006,1,10,1:2:0:0:
490,119,38168,1,2,1:2:0:0:
267,203,38330,1,8,1:2:0:0:
458,36,38492,6,0,B|510:2|510:2|485:147,1,180,6|2,1:2|1:2,0:0:0:0:
244,184,38979,2,0,P|229:142|243:100,1,90,10|0,0:0|0:0,0:0:0:0:
373,330,39303,1,0,1:2:0:0:
157,209,39465,1,2,1:2:0:0:
392,152,39627,1,10,0:0:0:0:
273,349,39790,6,0,B|250:384|250:384|206:369|188:308|216:267,1,180,2|2,1:2|1:2,0:0:0:0:
256,69,40276,1,10,0:0:0:0:
68,191,40438,2,0,L|156:209,1,90,2|0,0:0|1:2,0:0:0:0:
344,83,40763,1,2,1:2:0:0:
215,268,40925,1,10,0:0:0:0:
167,51,41087,1,2,1:2:0:0:
167,51,41168,1,2,1:2:0:0:
167,51,41249,6,0,L|255:69,1,90,0|0,1:2|0:0,0:0:0:0:
381,187,41573,2,0,L|292:205,1,90,8|0,0:0|0:0,0:0:0:0:
120,352,41898,1,0,1:2:0:0:
226,151,42060,1,2,1:2:0:0:
305,361,42222,1,8,0:0:0:0:
156,209,42384,1,2,1:2:0:0:
381,187,42546,6,0,P|394:229|379:270,1,90,2|0,0:0|1:2,0:0:0:0:
373,282,42790,1,2,0:0:0:0:
364,292,42871,1,8,0:0:0:0:
220,122,43033,2,0,L|210:76,2,45,2|0|10,1:2|1:2|0:0,0:0:0:0:
147,344,43357,1,0,1:2:0:0:
147,344,43438,1,2,0:0:0:0:
147,344,43519,1,8,0:0:0:0:
306,227,43681,1,2,1:2:0:0:
108,175,43844,5,6,0:0:0:0:
108,175,44006,2,0,L|121:241,1,67.5000025749208,2|0,0:0|1:2,0:0:0:0:
210,78,44330,1,2,0:0:0:0:
30,139,44492,2,0,P|19:170|27:202,1,67.5000025749208,10|2,0:0|0:0,0:0:0:0:
98,84,44817,2,0,P|76:58|44:49,1,67.5000025749208,2|2,0:0|1:2,0:0:0:0:
108,175,45141,6,0,P|140:169|164:146,1,67.5000025749208,2|10,0:0|0:0,0:0:0:0:
196,11,45465,2,0,L|209:77,1,67.5000025749208,2|2,1:2|0:0,0:0:0:0:
276,199,45790,2,0,L|289:133,1,67.5000025749208,10|0,0:0|0:0,0:0:0:0:
364,7,46114,1,2,0:0:0:0:
395,146,46276,1,4,1:2:0:0:
477,25,46438,6,0,B|512:66|512:66|478:140,1,135.000005149842,2|2,0:0|1:2,0:0:0:0:
359,236,46925,1,2,0:0:0:0:
359,236,47087,2,0,P|391:227|422:238,1,67.5000025749208,10|2,0:0|0:0,0:0:0:0:
323,372,47411,1,0,0:0:0:0:
276,199,47573,6,0,B|204:185|219:239|148:227,1,135.000005149842,6|10,1:2|0:0,0:0:0:0:
0,139,48060,1,0,1:2:0:0:
150,79,48222,2,0,L|163:145,1,67.5000025749208,2|8,1:2|0:0,0:0:0:0:
41,16,48546,1,2,1:2:0:0:
234,60,48709,1,8,0:0:0:0:
82,169,48871,1,10,0:0:0:0:
82,169,48952,1,8,0:0:0:0:
82,169,49033,5,6,1:2:0:0:
135,0,49195,2,0,L|150:79,1,80.9999975280763,2|2,0:0|1:2,0:0:0:0:
276,199,49519,1,10,0:3:0:0:
276,199,49600,1,4,0:3:0:0:
276,199,49681,2,0,L|260:278,1,80.9999975280763,0|8,1:2|0:3,0:0:0:0:
378,384,50006,1,10,0:0:0:0:
391,229,50168,1,10,0:3:0:0:
301,350,50330,6,0,P|263:363|224:353,1,80.9999975280763,2|2,1:2|0:0,0:0:0:0:
54,273,50654,1,0,1:2:0:0:
244,199,50817,1,10,0:3:0:0:
244,199,50898,1,4,0:3:0:0:
244,199,50979,2,0,L|259:278,1,80.9999975280763,0|10,1:2|0:3,0:0:0:0:
101,92,51303,1,8,0:0:0:0:
315,145,51465,1,6,0:3:0:0:
79,87,51627,5,14,0:0:0:0:
259,278,51790,1,10,1:3:0:0:
244,7,51952,1,8,1:3:0:0:
127,246,52114,1,10,0:0:0:0:
392,117,52276,1,0,1:0:0:0:
426,107,52357,1,0,1:0:0:0:
461,114,52438,1,6,0:3:0:0:
488,136,52519,1,4,0:3:0:0:
502,169,52600,2,0,L|492:215,1,45,8|8,0:3|0:3,0:0:0:0:
451,384,52763,5,10,1:2:0:0:
204,0,54871,5,2,0:0:0:0:
204,0,55033,2,0,L|189:65,1,67.5,2|0,0:0|0:0,0:0:0:0:
244,134,55357,6,0,B|343:108|332:194|429:173,1,198.000006042481,6|0,1:2|1:2,0:0:0:0:
277,301,55843,2,0,P|263:258|277:216,1,90,10|0,0:0|0:0,0:0:0:0:
511,82,56167,1,2,1:2:0:0:
244,134,56329,1,2,1:2:0:0:
483,273,56491,1,8,0:0:0:0:
359,20,56654,6,0,B|340:45|315:67|315:67|344:124|360:173,1,180,2|0,1:2|1:2,0:0:0:0:
511,82,57140,2,0,P|469:67|426:81,1,90,10|0,0:0|0:0,0:0:0:0:
182,205,57464,1,2,1:2:0:0:
359,20,57627,1,2,1:2:0:0:
357,265,57789,1,8,0:0:0:0:
179,61,57951,6,0,B|118:26|76:79|76:79|115:66|149:89,1,180,2|0,1:2|1:2,0:0:0:0:
252,323,58437,2,0,L|270:235,1,90,10|0,0:0|0:0,0:0:0:0:
81,44,58762,1,2,1:2:0:0:
341,111,58924,1,0,1:2:0:0:
103,241,59086,2,0,P|88:199|102:156,1,90,8|0,0:0|0:0,0:0:0:0:
276,0,59410,6,0,L|258:88,1,90,2|0,1:2|0:0,0:0:0:0:
64,69,59735,2,0,P|105:54|148:68,1,90,10|0,0:0|0:0,0:0:0:0:
385,243,60059,1,2,1:2:0:0:
240,11,60221,1,0,1:2:0:0:
175,286,60383,1,8,0:0:0:0:
321,37,60546,6,0,L|360:230,1,198.000006042481,6|0,1:2|1:2,0:0:0:0:
225,97,61032,2,0,L|207:185,1,90,8|0,0:0|0:0,0:0:0:0:
27,352,61356,1,0,1:2:0:0:
256,259,61519,1,2,1:2:0:0:
27,155,61681,1,10,0:0:0:0:
212,345,61843,1,2,1:2:0:0:
212,345,61924,1,0,1:2:0:0:
212,345,62005,6,0,P|253:359|296:345,1,90,0|2,1:2|0:0,0:0:0:0:
206,185,62329,2,0,P|173:213|163:257,1,90,8|0,0:0|0:0,0:0:0:0:
347,259,62654,2,0,P|338:216|305:186,1,90,0|2,1:2|1:2,0:0:0:0:
106,86,62978,1,10,0:0:0:0:
256,259,63140,1,2,0:0:0:0:
258,44,63302,5,14,0:0:0:0:
163,257,63464,1,0,1:2:0:0:
170,3,63627,5,10,0:0:0:0:
268,278,63789,1,2,1:2:0:0:
354,0,63951,5,10,0:0:0:0:
76,169,64113,1,0,1:2:0:0:
76,169,64194,1,2,0:0:0:0:
76,169,64275,1,8,0:0:0:0:
392,251,64437,6,0,B|411:226|436:204|436:204|407:147|391:98,1,180,6|0,1:2|1:2,0:0:0:0:
170,3,64924,1,8,0:3:0:0:
176,47,65005,1,4,0:3:0:0:
182,92,65086,1,0,1:3:0:0:
187,136,65167,1,0,1:0:0:0:
193,181,65248,5,10,1:2:0:0:
351,0,65410,1,10,1:2:0:0:
48,224,65735,6,0,P|104:150|192:180,1,198.000006042481,6|0,1:2|1:2,0:0:0:0:
252,341,66221,2,0,P|237:300|250:257,1,90,10|0,0:0|0:0,0:0:0:0:
466,89,66546,1,2,1:2:0:0:
322,301,66708,1,2,1:2:0:0:
285,56,66870,1,8,0:0:0:0:
494,204,67032,6,0,B|424:194|424:194|393:216|393:216|323:205,1,180,2|0,1:2|1:2,0:0:0:0:
447,0,67519,2,0,L|465:88,1,90,10|0,0:0|0:0,0:0:0:0:
250,257,67843,1,2,1:2:0:0:
369,35,68005,1,2,1:2:0:0:
452,276,68167,1,8,0:0:0:0:
268,71,68329,6,0,B|216:37|216:37|241:182,1,180,2|0,1:2|1:2,0:0:0:0:
406,203,68816,2,0,P|363:189|322:204,1,90,10|0,0:0|0:0,0:0:0:0:
160,353,69140,1,2,1:2:0:0:
366,279,69302,1,0,1:2:0:0:
146,176,69464,2,0,L|128:264,1,90,8|0,0:0|0:0,0:0:0:0:
0,112,69789,6,0,P|41:97|83:110,1,90,2|0,1:2|0:0,0:0:0:0:
193,30,70113,2,0,P|151:15|109:28,1,90,10|0,0:0|0:0,0:0:0:0:
238,254,70437,1,2,1:2:0:0:
312,6,70600,1,2,1:2:0:0:
83,110,70762,1,8,0:0:0:0:
353,204,70924,6,0,B|407:220|456:171|444:120|444:120|425:145|387:152,1,198.000006042481,6|0,1:2|1:2,0:0:0:0:
167,299,71410,1,10,0:0:0:0:
329,101,71573,1,2,0:0:0:0:
372,346,71735,1,2,1:2:0:0:
183,182,71897,2,0,L|271:164,1,90,2|8,1:2|0:0,0:0:0:0:
445,255,72221,6,0,L|357:237,1,90,2|0,0:0|1:2,0:0:0:0:
407,63,72546,2,0,P|419:105|404:146,1,90,2|8,0:0|0:0,0:0:0:0:
256,54,72870,2,0,P|286:21|329:13,1,90,2|0,0:0|1:2,0:0:0:0:
278,243,73194,1,2,1:2:0:0:
158,44,73356,1,8,0:0:0:0:
404,146,73519,6,0,L|368:322,1,180,6|0,1:2|1:2,0:0:0:0:
163,384,74005,6,0,L|145:296,1,90,8|2,0:0|1:2,0:0:0:0:
264,88,74329,5,10,0:0:0:0:
33,171,74491,1,2,1:2:0:0:
298,161,74654,5,10,0:0:0:0:
8,83,74816,1,2,1:2:0:0:
283,0,74978,6,0,L|265:88,1,90,14|0,0:0|0:0,0:0:0:0:
298,161,75221,1,4,0:3:0:0:
309,169,75302,2,0,L|355:159,1,45,2|8,1:2|0:3,0:0:0:0:
233,303,75464,2,0,L|223:259,1,45,8|8,0:0|0:0,0:0:0:0:
88,117,75627,5,10,1:2:0:0:
88,117,75708,1,8,0:3:0:0:
88,117,75789,2,0,L|79:160,1,45,8|4,0:3|0:3,0:0:0:0:
0,262,75951,1,6,1:3:0:0:
32,247,76032,1,4,0:3:0:0:
68,249,76113,1,8,0:3:0:0:
99,267,76194,1,8,0:3:0:0:
118,296,76275,6,0,B|224:271|196:368|306:340,1,202.500007724762,2|2,0:0|0:0,0:0:0:0:
406,384,76924,2,0,P|417:283|444:185,1,202.500007724762,2|2,0:0|0:0,0:0:0:0:
491,83,77573,6,0,P|425:155|329:141,1,202.500007724762,2|2,0:0|0:0,0:0:0:0:
250,62,78221,2,0,B|228:36|228:36|193:61|192:100|214:130,1,135.000005149842,2|0,0:0|0:0,0:0:0:0:
128,258,78708,1,2,0:0:0:0:
55,129,78870,6,0,P|86:118|118:126,1,67.5000025749208,2|0,0:0|0:0,0:0:0:0:
262,202,79194,1,2,0:0:0:0:
103,280,79356,2,0,L|89:213,1,67.5000025749208,2|0,0:0|0:0,0:0:0:0:
227,355,79681,2,0,L|240:288,1,67.5000025749208,2|0,0:0|0:0,0:0:0:0:
386,270,80005,6,0,P|353:278|322:268,1,67.5000025749208,2|0,0:0|0:0,0:0:0:0:
326,140,80329,2,0,P|349:163|356:196,1,67.5000025749208,2|0,0:0|0:0,0:0:0:0:
201,370,80654,2,0,L|173:237,1,135.000005149842,2|4,0:0|0:3,0:0:0:0:
171,224,81059,1,8,0:3:0:0:
168,210,81140,1,8,0:0:0:0:
348,54,81302,1,2,1:2:0:0:
88,154,81464,5,14,0:0:0:0:
348,249,81627,2,0,P|363:207|349:164,1,90,2|0,0:0|1:2,0:0:0:0:
233,0,81951,6,0,B|214:25|189:47|189:47|218:104|234:153,1,180,10|0,0:0|1:2,0:0:0:0:
35,309,82437,1,8,0:0:0:0:
114,77,82600,1,2,0:0:0:0:
211,300,82762,5,2,1:2:0:0:
0,173,82924,2,0,L|88:155,1,90,10|0,0:0|0:0,0:0:0:0:
331,220,83248,5,2,1:2:0:0:
130,339,83410,2,0,P|115:297|129:254,1,90,8|2,0:0|1:2,0:0:0:0:
294,63,83735,1,8,0:3:0:0:
294,63,83816,1,4,0:3:0:0:
294,63,83897,1,2,1:2:0:0:
374,309,84059,6,0,P|332:324|289:310,1,90,12|8,1:2|0:0,0:0:0:0:
88,154,84383,1,0,1:2:0:0:
349,131,84546,2,0,L|331:219,1,90,8|8,1:2|0:0,0:0:0:0:
218,9,84870,1,2,1:2:0:0:
454,112,85032,1,2,1:2:0:0:
194,0,85194,6,0,L|212:88,1,90,6|0,1:2|0:0,0:0:0:0:
0,295,85519,1,2,1:2:0:0:
124,47,85681,1,8,0:0:0:0:
213,325,85843,1,10,0:0:0:0:
213,325,85924,1,8,0:0:0:0:
213,325,86005,1,8,0:0:0:0:
19,89,86167,1,8,0:3:0:0:
93,362,86329,1,4,0:3:0:0:
215,110,86491,5,6,1:2:0:0:
256,192,86573,12,2,90221,0:0:0:0:
