osu file format v14

[General]
AudioFilename: audio.mp3
AudioLeadIn: 0
PreviewTime: 27432
Countdown: 0
SampleSet: Soft
StackLeniency: 0.7
Mode: 0
LetterboxInBreaks: 0
WidescreenStoryboard: 0

[Editor]
Bookmarks: 23182,26382,40782,42382,47201,55982
DistanceSpacing: 0.2
BeatDivisor: 4
GridSize: 4
TimelineZoom: 2.6

[Metadata]
Title:Wodka
TitleUnicode:Wodka
Artist:Da Tweekaz
ArtistUnicode:Da Tweekaz
Creator:makisokk
Version:Vodka
Source:
Tags:ezek short version russia russian vodka cut hardstyle dirty workz
BeatmapID:1432783
BeatmapSetID:677273

[Difficulty]
HPDrainRate:5
CircleSize:4
OverallDifficulty:7.6
ApproachRate:8.4
SliderMultiplier:1.6
SliderTickRate:1

[Events]
//Background and Video events
0,0,"Vodka BG 1.jpg",0,0
//Break Periods
//Storyboard Layer 0 (Background)
//Storyboard Layer 1 (Fail)
//Storyboard Layer 2 (Pass)
//Storyboard Layer 3 (Foreground)
//Storyboard Sound Samples

[TimingPoints]
4032,400,4,2,1,30,1,0
10032,-90.9090909090909,4,2,1,30,0,0
10365,-100,4,2,1,5,0,0
10432,-100,4,2,1,30,0,0
16832,-90.9090909090909,4,2,1,40,0,0
26432,-90.9090909090909,4,2,1,45,0,0
26832,-90.9090909090909,4,2,1,50,0,0
27232,-90.9090909090909,4,2,1,50,0,0
27632,-90.9090909090909,4,2,1,55,0,0
29601,400,4,2,1,60,1,1
29601,-83.3333333333333,4,2,1,60,0,1
40801,-83.3333333333333,4,2,1,60,0,0
42401,-71.4285714285714,4,2,1,65,0,1
53601,-100,4,2,1,50,0,0
56001,-100,4,2,1,5,0,0

[Colours]
Combo1 : 213,43,30
Combo2 : 192,192,192
Combo3 : 0,57,166

[HitObjects]
104,312,4032,6,0,P|92:276|108:216,1,80,8|0,0:0|0:0,0:0:0:0:
228,216,4432,2,0,P|244:188|244:148,1,53.3333333333333,8|0,0:0|0:0,0:0:0:0:
240,140,4632,1,0,0:0:0:0:
164,48,4832,1,4,0:0:0:0:
276,28,5032,2,0,P|304:32|340:48,1,53.3333333333333
376,96,5232,2,0,P|404:104|444:100,1,53.3333333333333,8|0,0:0|0:0,0:0:0:0:
496,80,5432,1,0,0:0:0:0:
488,200,5632,5,8,0:0:0:0:
332,164,6032,1,8,0:0:0:0:
372,320,6432,1,8,0:0:0:0:
284,256,6632,1,0,0:0:0:0:
244,356,6832,2,0,B|204:348|204:372|156:352,1,80,8|0,0:0|0:0,0:0:0:0:
36,204,7232,6,0,P|72:192|132:208,1,80,8|0,0:0|0:0,0:0:0:0:
208,244,7632,2,0,P|236:260|276:260,1,53.3333333333333,8|0,0:0|0:0,0:0:0:0:
284,256,7832,1,0,0:0:0:0:
380,204,8032,1,4,0:0:0:0:
296,128,8232,2,0,P|271:118|244:115,1,53.3333333333333,0|0,0:0|0:0,0:0:0:0:
164,190,8432,2,0,P|136:198|96:194,1,53.3333333333333,8|0,0:0|0:0,0:0:0:0:
24,152,8632,1,0,0:0:0:0:
60,60,8832,5,8,0:0:0:0:
152,100,9032,1,0,0:0:0:0:
164,190,9232,1,8,0:0:0:0:
244,115,9432,1,2,0:0:0:0:
284,256,9632,2,0,P|310:265|354:261,1,53.3333333333333,8|0,0:0|0:0,0:0:0:0:
420,276,9832,2,0,P|412:300|399:323,1,53.3333333333333,0|0,0:3|0:0,0:0:0:0:
383,199,10032,2,0,P|385:171|397:141,1,58.6666684570313,8|0,0:0|0:0,0:0:0:0:
450,29,10232,2,0,P|430:46|401:63,1,58.6666684570313,8|0,0:0|0:0,0:0:0:0:
323,110,10432,6,0,B|279:126|279:106|223:118,1,80,8|0,0:0|0:0,0:0:0:0:
132,208,10832,2,0,P|160:224|200:224,1,53.3333333333333,8|0,0:0|0:0,0:0:0:0:
208,224,11032,1,0,0:0:0:0:
312,184,11232,1,4,0:0:0:0:
420,232,11432,2,0,P|416:260|400:296,1,53.3333333333333,0|0,0:0|0:0,0:0:0:0:
340,360,11632,2,0,P|314:367|287:367,1,53.3333333333333,8|0,0:0|0:0,0:0:0:0:
196,328,11832,1,0,0:0:0:0:
72,368,12032,5,8,0:0:0:0:
76,176,12432,1,8,0:0:0:0:
256,244,12832,1,8,0:0:0:0:
196,148,13032,2,0,P|192:120|204:84,1,53.3333333333333,2|0,0:0|0:0,0:0:0:0:
260,32,13232,2,0,P|300:20|348:24,1,80,2|0,0:0|0:0,0:0:0:0:
464,112,13632,6,0,P|476:152|472:200,1,80,8|0,0:0|0:0,0:0:0:0:
416,280,14032,2,0,P|388:296|348:296,1,53.3333333333333,8|0,0:0|0:0,0:0:0:0:
340,296,14232,1,0,0:0:0:0:
256,244,14432,1,4,0:0:0:0:
196,328,14632,2,0,P|169:324|144:315,1,53.3333333333333
76,228,14832,2,0,P|72:202|75:175,1,53.3333333333333,8|0,0:0|0:0,0:0:0:0:
196,148,15032,1,0,0:0:0:0:
256,244,15232,5,8,0:0:0:0:
112,84,15632,1,8,0:0:0:0:
252,64,15832,2,0,P|273:90|285:154,1,80,2|0,0:0|0:0,0:3:0:0:
80,336,16832,6,0,P|112:319|190:315,1,88.000002685547,8|0,0:0|0:0,0:0:0:0:
264,352,17232,1,8,0:0:0:0:
310,316,17365,1,0,0:0:0:0:
310,316,17432,1,0,0:0:0:0:
408,352,17632,1,4,0:0:0:0:
448,260,17832,1,0,0:0:0:0:
505,248,17965,1,0,0:0:0:0:
505,248,18032,2,0,L|506:147,1,88.000002685547,8|0,0:0|0:0,0:0:0:0:
431,25,18432,6,0,P|385:40|320:31,1,88.000002685547,8|0,0:0|0:0,0:0:0:0:
240,16,18832,2,0,L|234:89,1,58.6666684570313,8|0,0:0|0:0,0:0:0:0:
231,103,19032,1,0,0:0:0:0:
216,192,19232,1,4,0:0:0:0:
236,284,19432,2,0,L|246:356,1,58.6666684570313,0|0,0:0|0:0,0:0:0:0:
245,371,19632,2,0,P|202:358|143:384,1,88.000002685547,8|0,0:0|0:0,0:0:0:0:
36,384,20032,6,0,L|33:278,1,88.000002685547,8|0,0:0|0:0,0:0:0:0:
28,196,20432,1,8,0:0:0:0:
72,157,20565,1,0,0:0:0:0:
72,157,20632,1,0,0:0:0:0:
56,60,20832,1,4,0:0:0:0:
156,76,21032,1,0,0:0:0:0:
187,27,21165,1,0,0:0:0:0:
187,27,21232,2,0,L|289:35,1,88.000002685547,8|0,0:0|0:0,0:0:0:0:
414,34,21632,6,0,P|403:86|422:135,1,88.000002685547,8|0,0:0|0:0,0:0:0:0:
480,204,22032,2,0,P|492:242|483:279,1,58.6666684570313,8|0,0:0|0:0,0:0:0:0:
480,287,22232,1,0,0:0:0:0:
400,352,22432,1,4,0:0:0:0:
312,288,22632,2,0,P|284:287|255:301,1,58.6666684570313,0|0,0:0|0:0,0:0:0:0:
204,344,22832,2,0,L|206:253,1,88.000002685547,8|0,0:0|0:0,0:0:0:0:
255,80,23232,6,0,P|303:76|350:96,1,88.000002685547,8|0,0:0|0:0,0:0:0:0:
436,164,23632,1,8,0:0:0:0:
443,245,23765,1,0,0:0:0:0:
443,245,23832,1,4,0:0:0:0:
352,316,24032,2,0,P|307:334|256:330,1,88.000002685547,8|0,0:0|0:0,0:0:0:0:
168,268,24432,1,8,0:0:0:0:
156,186,24565,1,0,0:0:0:0:
156,186,24632,1,4,0:0:0:0:
56,116,24832,6,0,P|31:152|38:210,1,88.000002685547,8|0,0:0|0:0,0:0:0:0:
91,298,25232,1,8,0:0:0:0:
168,268,25365,1,0,0:0:0:0:
168,268,25432,1,4,0:0:0:0:
252,352,25632,2,0,P|289:361|359:340,1,88.000002685547,8|0,0:0|0:0,0:0:0:0:
440,300,26032,1,8,0:0:0:0:
461,220,26165,1,0,0:0:0:0:
461,220,26232,1,4,0:0:0:0:
336,112,26432,6,2,L|340:44,3,44.0000013427735,2|2|2|2,0:0|0:0|0:0|0:0,0:0:0:0:
224,34,26832,2,2,L|227:107,3,44.0000013427735,2|2|2|2,0:0|0:0|0:0|0:0,0:0:0:0:
375,146,27232,2,2,L|379:71,3,44.0000013427735,2|2|2|2,0:0|0:0|0:0|0:0,0:0:0:0:
182,6,27632,2,2,L|185:79,3,44.0000013427735,2|2|2|2,0:0|0:0|0:0|0:0,0:0:0:0:
248,192,28032,5,8,0:0:0:0:
304,56,28232,1,8,0:0:0:0:
420,308,28432,1,8,0:0:0:0:
132,256,28632,1,8,0:0:0:0:
268,208,28832,2,0,B|336:293|276:376|276:376|260:323|223:304,1,264.000008056641
132,256,29601,5,4,0:0:0:0:
156,120,29801,1,0,0:0:0:0:
268,208,30001,1,4,0:0:0:0:
40,168,30201,1,0,0:0:0:0:
280,80,30401,1,4,0:0:0:0:
240,344,30601,1,0,0:0:0:0:
184,196,30801,1,4,0:0:0:0:
352,232,31001,1,2,0:0:0:0:
352,232,31101,1,2,0:0:0:0:
352,232,31201,6,0,P|392:208|408:144,1,95.9999970703126,6|0,0:0|0:0,0:0:0:0:
264,40,31601,2,0,P|288:80|352:96,1,95.9999970703126,4|0,0:0|0:0,0:0:0:0:
512,64,32001,2,0,P|467:48|408:77,1,95.9999970703126,4|0,0:0|0:0,0:0:0:0:
320,184,32401,2,0,P|275:199|216:170,1,95.9999970703126,4|2,0:0|0:0,0:0:0:0:
220,180,32701,1,2,0:0:0:0:
216,172,32801,5,6,0:0:0:0:
88,168,33001,1,0,0:0:0:0:
152,276,33201,1,4,0:0:0:0:
148,76,33401,1,0,0:0:0:0:
272,280,33601,1,4,0:0:0:0:
24,272,33801,1,0,0:0:0:0:
264,72,34001,1,4,0:0:0:0:
32,80,34201,1,2,0:0:0:0:
32,80,34301,1,2,0:0:0:0:
32,80,34401,6,0,P|16:128|32:184,1,95.9999970703126,6|0,0:0|0:0,0:0:0:0:
212,208,34801,2,0,P|183:167|128:147,1,95.9999970703126,6|0,0:0|0:0,0:0:0:0:
228,316,35201,6,0,P|252:308|284:312,1,47.9999985351563,2|0,0:0|0:0,0:0:0:0:
368,344,35401,2,0,P|392:352|424:348,1,47.9999985351563,2|0,0:0|0:0,0:0:0:0:
496,288,35601,1,6,0:0:0:0:
496,288,35801,1,6,0:0:0:0:
496,288,36001,5,4,0:0:0:0:
440,184,36201,1,0,0:0:0:0:
384,280,36401,1,4,0:0:0:0:
328,184,36601,1,0,0:0:0:0:
440,376,36801,1,4,0:0:0:0:
276,280,37001,1,0,0:0:0:0:
380,88,37201,1,4,0:0:0:0:
224,184,37401,1,2,0:0:0:0:
224,184,37501,1,2,0:0:0:0:
224,184,37601,6,0,P|172:200|116:180,1,95.9999970703126,6|0,0:0|0:0,0:0:0:0:
164,16,38001,2,0,P|180:68|160:124,1,95.9999970703126,4|0,0:0|0:0,0:0:0:0:
0,68,38401,2,0,P|52:52|108:72,1,95.9999970703126,4|0,0:0|0:0,0:0:0:0:
56,240,38801,2,0,P|40:188|60:132,1,95.9999970703126,4|2,0:0|0:0,0:0:0:0:
56,144,39101,1,2,0:0:0:0:
64,140,39201,5,4,0:0:0:0:
176,76,39401,1,0,0:0:0:0:
192,228,39601,1,4,0:0:0:0:
320,124,39801,1,0,0:0:0:0:
348,296,40001,6,0,P|376:304|408:296,1,47.9999985351563,2|0,0:0|0:0,0:0:0:0:
484,316,40201,2,0,P|492:288|484:256,1,47.9999985351563,2|0,0:0|0:0,0:0:0:0:
442,179,40401,1,4,0:0:0:0:
502,70,40601,1,4,0:0:0:0:
320,124,40801,1,12,0:0:0:0:
124,264,42401,5,4,0:0:0:0:
96,128,42601,1,0,0:0:0:0:
220,264,42801,1,4,0:0:0:0:
212,80,43001,1,0,0:0:0:0:
320,268,43201,1,4,0:0:0:0:
328,32,43401,1,0,0:0:0:0:
424,276,43601,1,4,0:0:0:0:
268,192,43801,1,2,0:0:0:0:
268,192,43901,1,2,0:0:0:0:
268,192,44001,5,6,0:0:0:0:
392,144,44201,1,0,0:0:0:0:
220,264,44401,1,4,0:0:0:0:
424,276,44601,1,0,0:0:0:0:
144,328,44801,1,4,0:0:0:0:
96,128,45001,1,0,0:0:0:0:
40,328,45201,1,4,0:0:0:0:
212,80,45401,1,2,0:0:0:0:
212,80,45501,1,2,0:0:0:0:
212,80,45601,5,6,0:0:0:0:
64,56,45801,1,0,0:0:0:0:
236,168,46001,1,4,0:0:0:0:
32,200,46201,1,0,0:0:0:0:
312,244,46401,1,4,0:0:0:0:
0,344,46601,1,0,0:0:0:0:
136,184,46801,1,4,0:0:0:0:
208,360,47001,1,2,0:0:0:0:
208,360,47101,1,2,0:0:0:0:
208,360,47201,6,0,P|260:368|328:352,1,111.999996582031,6|0,0:0|0:0,0:0:0:0:
448,368,47601,2,0,P|464:318|460:248,1,111.999996582031,4|0,0:0|0:0,0:0:0:0:
400,148,48001,2,0,P|376:136|340:136,1,55.9999982910157,2|0,0:0|0:0,0:0:0:0:
264,188,48201,2,0,P|240:200|204:200,1,55.9999982910157,2|0,0:0|0:0,0:0:0:0:
96,164,48401,1,6,0:0:0:0:
96,164,48801,5,4,0:0:0:0:
140,56,49001,1,0,0:0:0:0:
216,152,49201,1,4,0:0:0:0:
24,76,49401,1,0,0:0:0:0:
252,40,49601,1,4,0:0:0:0:
172,260,49801,1,0,0:0:0:0:
400,252,50001,1,4,0:0:0:0:
332,140,50201,1,2,0:0:0:0:
332,140,50301,1,2,0:0:0:0:
332,140,50401,5,6,0:0:0:0:
268,248,50601,1,0,0:0:0:0:
448,144,50801,1,4,0:0:0:0:
332,356,51001,1,0,0:0:0:0:
208,140,51201,1,4,0:0:0:0:
512,252,51401,1,0,0:0:0:0:
204,352,51601,1,4,0:0:0:0:
152,252,51801,1,2,0:0:0:0:
152,252,51901,1,2,0:0:0:0:
152,252,52001,5,6,0:0:0:0:
208,140,52201,1,0,0:0:0:0:
272,256,52401,2,0,L|280:288,6,27.9999991455078,2|2|2|2|2|2|2,0:0|0:0|0:0|0:0|0:0|0:0|0:0,0:0:0:0:
336,207,52801,2,0,P|349:183|354:156,1,55.9999982910157,2|0,0:0|0:0,0:0:0:0:
304,88,53001,2,0,P|309:60|323:36,1,55.9999982910157,2|0,0:0|0:0,0:0:0:0:
436,16,53201,1,4,0:0:0:0:
456,184,53401,1,2,0:0:0:0:
216,52,53601,5,6,0:0:0:0:
256,192,53701,12,0,56001,0:0:0:0:
