osu file format v14

[General]
AudioFilename: audio.mp3
AudioLeadIn: 0
PreviewTime: 27432
Countdown: 0
SampleSet: Soft
StackLeniency: 0.7
Mode: 0
LetterboxInBreaks: 0
WidescreenStoryboard: 0

[Editor]
Bookmarks: 40782,42382,55982
DistanceSpacing: 0.8
BeatDivisor: 4
GridSize: 4
TimelineZoom: 2.9

[Metadata]
Title:Wodka
TitleUnicode:Wodka
Artist:Da Tweekaz
ArtistUnicode:Da Tweekaz
Creator:makisokk
Version:Normal
Source:
Tags:ezek short version russia russian vodka cut hardstyle dirty workz
BeatmapID:1432762
BeatmapSetID:677273

[Difficulty]
HPDrainRate:3
CircleSize:3
OverallDifficulty:3
ApproachRate:5
SliderMultiplier:1.2
SliderTickRate:1

[Events]
//Background and Video events
0,0,"Vodka BG 1.jpg",0,0
//Break Periods
//Storyboard Layer 0 (Background)
//Storyboard Layer 1 (Fail)
//Storyboard Layer 2 (Pass)
//Storyboard Layer 3 (Foreground)
//Storyboard Sound Samples

[TimingPoints]
4032,400,4,2,1,30,1,0
16832,-100,4,2,1,40,0,0
23232,-100,4,2,1,40,0,0
29601,400,4,2,1,60,1,1
29601,-100,4,2,1,60,0,1
40801,-100,4,2,1,60,0,0
42401,-100,4,2,1,65,0,1
53601,-100,4,2,1,50,0,0
56001,-100,4,2,1,5,0,0

[Colours]
Combo1 : 213,43,30
Combo2 : 192,192,192
Combo3 : 0,57,166

[HitObjects]
97,347,4032,5,8,0:0:0:0:
191,328,4432,2,0,P|222:322|258:330,1,60,8|0,0:0|0:0,0:0:0:0:
291,350,4832,2,0,P|322:356|358:348,1,60,4|4,0:0|0:0,0:0:0:0:
399,342,5232,6,0,P|413:280|392:218,1,120,8|8,0:0|0:0,0:0:0:0:
342,148,6032,1,8,0:0:0:0:
255,189,6432,2,0,P|194:168|143:126,1,120,8|8,0:0|0:0,0:0:0:0:
77,72,7232,5,8,0:0:0:0:
7,137,7632,2,0,P|2:173|12:215,1,60,8|0,0:0|0:0,0:0:0:0:
31,236,8032,2,0,P|36:272|26:314,1,60,4|4,0:0|0:0,0:0:0:0:
26,342,8432,6,0,P|86:322|162:333,1,120,8|8,0:0|0:0,0:0:0:0:
236,342,9232,2,0,P|273:350|306:342,1,60,8|2,0:0|0:0,0:0:0:0:
333,317,9632,2,0,P|370:309|403:317,1,60,8|0,0:0|0:3,0:0:0:0:
428,292,10032,2,0,P|436:255|428:222,1,60,8|8,0:0|0:0,0:0:0:0:
416,187,10432,5,8,0:0:0:0:
370,99,10832,2,0,P|334:94|292:104,1,60,8|0,0:0|0:0,0:0:0:0:
271,123,11232,2,0,P|235:128|193:118,1,60,4|4,0:0|0:0,0:0:0:0:
164,115,11632,6,0,P|152:173|173:251,1,120,8|8,0:0|0:0,0:0:0:0:
217,310,12432,1,8,0:0:0:0:
309,283,12832,2,0,P|339:285|389:265,1,60,8|2,0:0|0:0,0:0:0:0:
413,263,13232,2,0,P|443:261|493:281,1,60,2|0,0:0|0:0,0:0:0:0:
507,300,13632,5,8,0:0:0:0:
447,377,14032,2,0,P|411:382|369:372,1,60,8|0,0:0|0:0,0:0:0:0:
348,353,14432,2,0,P|312:348|270:358,1,60,4|4,0:0|0:0,0:0:0:0:
244,370,14832,6,0,P|232:312|253:234,1,120,8|8,0:0|0:0,0:0:0:0:
295,172,15632,2,0,L|285:105,1,60,8|2,0:0|0:0,0:0:0:0:
251,79,16032,2,0,P|188:61|119:84,1,120,0|0,0:0|0:0,0:0:0:0:
65,136,16832,5,8,0:0:0:0:
71,231,17232,2,0,L|137:239,1,60,8|0,0:0|0:0,0:0:0:0:
176,252,17632,2,0,L|242:244,1,60,4|0,0:0|0:0,0:0:0:0:
282,254,18032,1,8,0:0:0:0:
372,286,18432,5,8,0:0:0:0:
418,202,18832,2,0,L|426:122,1,60,8|0,0:0|0:0,0:0:0:0:
460,111,19232,2,0,L|452:31,1,60,4|0,0:0|0:0,0:0:0:0:
469,5,19632,1,8,0:0:0:0:
374,21,20032,5,8,0:0:0:0:
308,91,20432,2,0,P|275:97|242:83,1,60,8|0,0:0|0:0,0:0:0:0:
236,44,20832,2,0,P|203:34|170:42,1,60,4|0,0:0|0:0,0:0:0:0:
133,56,21232,1,8,0:0:0:0:
47,99,21632,5,8,0:0:0:0:
41,197,22032,2,0,P|48:225|69:246,1,60,8|0,0:0|0:0,0:0:0:0:
116,239,22432,2,0,P|138:258|148:286,1,60,4|0,0:0|0:0,0:0:0:0:
156,334,22832,1,8,0:0:0:0:
250,316,23232,5,8,0:0:0:0:
344,334,23632,2,0,L|356:248,1,60,8|4,0:0|0:0,0:0:0:0:
359,226,24032,1,8,0:0:0:0:
454,221,24432,2,0,L|445:161,1,60,8|4,0:0|0:0,0:0:0:0:
439,113,24833,5,8,0:0:0:0:
409,22,25232,2,0,P|379:38|338:31,1,60,8|4,0:0|0:0,0:0:0:0:
308,21,25632,1,8,0:0:0:0:
212,11,26032,2,0,P|179:20|155:54,1,60,8|4,0:0|0:0,0:0:0:0:
141,83,26432,5,2,0:0:0:0:
169,174,26832,1,2,0:0:0:0:
115,253,27232,1,2,0:0:0:0:
173,328,27632,1,2,0:0:0:0:
228,249,28032,6,2,B|276:196|268:88|268:88|284:144|328:176,1,270,8|0,0:0|0:0,0:0:0:0:
480,188,29601,6,0,P|476:247|444:296,1,120,4|4,0:3|0:3,0:3:0:0:
356,336,30401,1,0,0:0:0:0:
273,302,30801,1,0,0:0:0:0:
227,317,31001,1,2,0:0:0:0:
181,302,31201,6,0,P|154:249|160:184,1,120,6|4,0:0|0:0,0:0:0:0:
246,153,32001,2,0,P|273:100|267:35,1,120,4|4,0:0|0:0,0:0:0:0:
228,12,32601,1,2,0:0:0:0:
180,8,32801,6,0,L|62:25,1,120,6|4,0:0|0:0,0:0:0:0:
19,108,33601,1,4,0:0:0:0:
82,179,34001,1,0,0:0:0:0:
101,223,34201,1,2,0:0:0:0:
96,273,34401,6,0,P|148:259|220:275,1,120,6|6,0:0|0:0,0:0:0:0:
302,303,35201,1,2,0:0:0:0:
349,311,35401,1,2,0:0:0:0:
389,285,35601,1,6,0:0:0:0:
429,198,36001,6,0,L|442:72,1,120,4|4,0:0|0:0,0:0:0:0:
392,4,36801,1,4,0:0:0:0:
302,28,37201,1,0,0:0:0:0:
256,43,37401,1,2,0:0:0:0:
210,26,37601,6,0,P|147:18|97:39,1,120,6|4,0:0|0:0,0:0:0:0:
41,118,38401,2,0,L|48:243,1,120,4|4,0:0|0:0,0:0:0:0:
77,275,39001,1,2,0:0:0:0:
121,291,39201,2,0,P|175:302|245:274,1,120,4|4,0:0|0:0,0:0:0:0:
309,220,40001,5,2,0:0:0:0:
334,179,40201,1,2,0:0:0:0:
340,131,40401,2,0,P|331:89|305:63,1,60,4|4,0:0|0:0,0:0:0:0:
284,45,40801,1,12,0:0:0:0:
34,28,42401,6,0,P|9:97|20:140,1,120,4|4,0:0|0:0,0:0:0:0:
90,205,43201,1,4,0:0:0:0:
185,196,43601,1,4,0:0:0:0:
231,184,43801,1,2,0:0:0:0:
277,195,44001,6,0,P|315:238|317:306,1,120,6|4,0:0|0:0,0:0:0:0:
243,357,44801,2,0,L|110:348,1,120,4|4,0:0|0:0,0:0:0:0:
78,330,45401,1,2,0:0:0:0:
52,288,45601,6,0,P|53:228|86:180,1,120,4|4,0:0|0:0,0:0:0:0:
156,112,46400,1,6,0:0:0:0:
129,23,46801,1,4,0:0:0:0:
175,13,47001,1,2,0:0:0:0:
220,27,47201,6,0,P|288:44|345:22,1,120,6|4,0:0|0:0,0:0:0:0:
427,10,48001,1,2,0:0:0:0:
427,57,48201,1,2,0:0:0:0:
427,104,48401,1,6,0:0:0:0:
425,199,48801,6,0,L|423:331,1,120,4|4,0:0|0:0,0:0:0:0:
333,354,49601,1,4,0:0:0:0:
249,307,50001,1,4,0:0:0:0:
201,301,50201,1,2,0:0:0:0:
161,327,50401,6,0,P|133:273|143:197,1,120,6|4,0:0|0:0,0:0:0:0:
203,147,51201,2,0,L|334:149,1,120,4|4,0:0|0:0,0:0:0:0:
396,86,52001,5,6,0:0:0:0:
321,25,52401,1,2,0:0:0:0:
226,10,52801,1,2,0:0:0:0:
183,32,53001,1,2,0:0:0:0:
153,69,53201,2,0,P|151:102|167:140,1,60,4|2,0:0|0:0,0:0:0:0:
177,172,53601,5,6,0:0:0:0:
256,192,53701,12,0,56001,0:0:0:0:
