osu file format v14

[General]
AudioFilename: audio.mp3
AudioLeadIn: 0
PreviewTime: 27432
Countdown: 0
SampleSet: Soft
StackLeniency: 0.7
Mode: 0
LetterboxInBreaks: 0
WidescreenStoryboard: 0

[Editor]
Bookmarks: 40782,42382,55982
DistanceSpacing: 1
BeatDivisor: 4
GridSize: 4
TimelineZoom: 1.9

[Metadata]
Title:Wodka
TitleUnicode:Wodka
Artist:Da Tweekaz
ArtistUnicode:Da Tweekaz
Creator:makisokk
Version:Easy
Source:
Tags:ezek short version russia russian vodka cut hardstyle dirty workz
BeatmapID:1432438
BeatmapSetID:677273

[Difficulty]
HPDrainRate:1
CircleSize:2
OverallDifficulty:2
ApproachRate:3
SliderMultiplier:0.9
SliderTickRate:1

[Events]
//Background and Video events
0,0,"Vodka BG 1.jpg",0,0
//Break Periods
//Storyboard Layer 0 (Background)
//Storyboard Layer 1 (Fail)
//Storyboard Layer 2 (Pass)
//Storyboard Layer 3 (Foreground)
//Storyboard Sound Samples

[TimingPoints]
4032,400,4,2,1,30,1,0
16832,-100,4,2,1,40,0,0
23232,-100,4,2,1,40,0,0
29601,400,4,2,1,60,1,1
29601,-100,4,2,1,60,0,1
40801,-100,4,2,1,60,0,0
42401,-100,4,2,1,65,0,1
53601,-100,4,2,1,60,0,0
56001,-100,4,2,1,5,0,0

[Colours]
Combo1 : 213,43,30
Combo2 : 192,192,192
Combo3 : 0,57,166

[HitObjects]
87,120,4032,5,8,0:0:0:0:
157,175,4432,2,0,P|243:201|337:158,1,180,8|8,0:0|0:0,0:0:0:0:
404,129,5632,2,0,P|435:158|448:215,1,90,8|8,0:0|0:0,0:0:0:0:
435,291,6432,2,0,L|330:298,1,90,8|8,0:0|0:0,0:0:0:0:
257,274,7232,5,8,0:0:0:0:
169,294,7632,2,0,P|141:211|173:113,1,180,8|8,0:0|0:0,0:0:0:0:
243,79,8832,1,8,0:0:0:0:
329,103,9232,2,0,B|374:112|374:112|430:102,2,90,8|8|8,0:0|0:0|0:0,0:0:0:0:
243,79,10432,5,8,0:0:0:0:
164,124,10832,2,0,P|140:209|168:293,1,180,8|8,0:0|0:0,0:0:0:0:
231,356,12032,1,8,0:0:0:0:
318,334,12432,2,0,L|426:327,1,90,8|8,0:0|0:0,0:0:0:0:
495,349,13232,1,2,0:0:0:0:
510,260,13632,5,8,0:0:0:0:
512,172,14032,2,0,L|426:4,1,180,8|8,0:0|0:0,0:0:0:0:
340,20,15232,1,8,0:0:0:0:
258,58,15632,2,0,B|227:103|227:103|235:238,1,180,8|0,0:0|0:0,0:0:0:0:
284,303,16832,5,8,0:0:0:0:
372,290,17232,2,8,L|412:377,2,90,8|4|8,0:0|0:0|0:0,0:0:0:0:
410,208,18432,1,8,0:0:0:0:
422,118,18832,2,8,L|518:82,2,90,8|4|8,0:0|0:0|0:0,0:0:0:0:
338,150,20032,5,8,0:0:0:0:
264,201,20432,2,8,P|226:213|173:200,2,90,8|4|8,0:0|0:0|0:0,0:0:0:0:
244,112,21632,1,8,0:0:0:0:
223,24,22032,2,8,P|261:12|314:25,2,90,8|4|8,0:0|0:0|0:0,0:0:0:0:
157,85,23232,5,8,0:0:0:0:
100,154,23632,2,0,L|115:259,1,90,8|8,0:0|0:0,0:0:0:0:
202,243,24432,2,0,L|214:153,1,90,8|8,0:0|0:0,0:0:0:0:
303,151,25232,2,0,L|318:256,1,90,8|8,0:0|0:0,0:0:0:0:
332,328,26032,1,8,0:0:0:0:
256,192,26432,12,8,28032,0:0:0:0:
92,176,29601,6,0,L|79:70,2,90,4|4|4,0:0|0:0|0:0,0:0:0:0:
109,264,30801,1,4,0:0:0:0:
121,353,31201,2,0,P|77:368|29:362,2,90,6|4|4,0:0|0:0|0:0,0:0:0:0:
194,301,32401,1,4,0:0:0:0:
266,247,32801,6,0,P|283:286|272:348,2,90,6|4|4,0:0|0:0|0:0,0:0:0:0:
183,211,34001,1,4,0:0:0:0:
109,264,34401,2,0,L|123:364,2,90,6|6|2,0:0|0:0|0:0,0:0:0:0:
77,179,35601,1,6,0:0:0:0:
133,104,36001,6,0,L|243:95,1,90,4|4,0:0|0:0,0:0:0:0:
294,41,36801,2,0,L|404:50,1,90,4|4,0:0|0:0,0:0:0:0:
472,62,37601,1,6,0:0:0:0:
418,134,38001,2,0,B|397:177|416:233,1,90,4|4,0:0|0:0,0:0:0:0:
446,305,38801,1,4,0:0:0:0:
356,296,39201,6,0,L|258:303,1,90,4|4,0:0|0:0,0:0:0:0:
185,342,40001,2,0,L|87:335,1,90,2|4,0:0|0:0,0:0:0:0:
20,284,40801,1,12,0:0:0:0:
142,111,42401,6,0,L|47:129,2,90,4|4|4,0:0|0:0|0:0,0:0:0:0:
230,92,43601,1,4,0:0:0:0:
317,70,44001,2,0,L|405:53,2,90,6|4|4,0:0|0:0|0:0,0:0:0:0:
292,156,45201,1,4,0:0:0:0:
293,245,45601,6,0,P|337:232|369:199,2,90,6|4|4,0:0|0:0|0:0,0:0:0:0:
202,248,46801,1,4,0:0:0:0:
112,236,47201,2,0,L|88:132,1,90,6|4,0:0|0:0,0:0:0:0:
128,65,48001,1,2,0:0:0:0:
216,80,48401,1,6,0:0:0:0:
289,28,48801,6,0,P|332:19|381:29,1,90,4|4,0:0|0:0,0:0:0:0:
439,92,49601,2,0,P|447:135|438:179,1,90,4|4,0:0|0:0,0:0:0:0:
388,256,50401,1,6,0:0:0:0:
300,232,50801,2,0,B|202:218,1,90,4|4,0:0|0:0,0:0:0:0:
120,220,51601,1,4,0:0:0:0:
165,135,52001,6,0,P|238:87|336:119,1,180,6|2,0:0|0:0,0:0:0:0:
380,176,53201,1,4,0:0:0:0:
256,192,53601,12,0,56001,0:0:0:0:
