osu file format v14

[General]
AudioFilename: Da Tweekaz-Wodka.mp3
AudioLeadIn: 0
PreviewTime: 170379
Countdown: 1
SampleSet: Normal
StackLeniency: 0.7
Mode: 0
LetterboxInBreaks: 1
WidescreenStoryboard: 0

[Editor]
Bookmarks: 149600
DistanceSpacing: 1.5
BeatDivisor: 4
GridSize: 4
TimelineZoom: 0.7999998

[Metadata]
Title:Wodka
TitleUnicode:Wodka
Artist:Da Tweekaz
ArtistUnicode:Da Tweekaz
Creator:SSieni
Version:Insane
Source:
Tags:vodka russia hardstyle
BeatmapID:813564
BeatmapSetID:371303

[Difficulty]
HPDrainRate:7
CircleSize:4
OverallDifficulty:8
ApproachRate:8.5
SliderMultiplier:2
SliderTickRate:1

[Events]
//Background and Video events
0,0,"uwljwYg.jpg",0,0
//Break Periods
2,54978,60904
2,71679,80104
2,156979,169704
//Storyboard Layer 0 (Background)
//Storyboard Layer 1 (Fail)
//Storyboard Layer 2 (Pass)
//Storyboard Layer 3 (Foreground)
//Storyboard Sound Samples

[TimingPoints]
779,400,4,1,0,100,1,0
11979,-125,4,1,0,100,0,0
29579,-100,4,1,0,100,0,0
35979,-66.6666666666667,4,1,0,100,0,0
41979,-100,4,1,0,100,0,0
80779,-125,4,1,0,100,0,0
119179,-83.3333333333333,4,1,0,100,0,0
131979,-66.6666666666667,4,1,0,100,0,1
143979,-83.3333333333333,4,1,0,100,0,0
170379,-133.333333333333,4,1,0,100,0,0
183179,-66.6666666666667,4,1,0,100,0,1
207979,-100,4,1,0,100,0,0

[HitObjects]
424,68,3979,5,8,0:0:0:0:
396,224,4379,2,0,B|336:280|336:280|240:280|240:208,1,200
92,284,5179,1,0,0:0:0:0:
124,128,5579,2,0,B|162:55|162:55|253:24|276:92,1,200,8|0,0:0|0:0,0:0:0:0:
88,48,6379,1,0,0:0:0:0:
384,96,6779,1,0,0:0:0:0:
216,272,7179,5,8,0:0:0:0:
212,276,7579,2,0,L|164:332,2,50
304,164,7979,1,0,0:0:0:0:
308,160,8179,2,0,L|364:88,2,50
214,275,8579,1,0,0:0:0:0:
424,273,8779,1,8,0:0:0:0:
116,210,9179,1,0,0:0:0:0:
421,107,9579,1,0,0:0:0:0:
131,199,9979,1,0,0:0:0:0:
420,296,10379,5,8,0:0:0:0:
192,124,10779,1,0,0:0:0:0:
196,164,10879,1,0,0:0:0:0:
212,200,10979,1,0,0:0:0:0:
292,76,11179,1,0,0:0:0:0:
420,156,11379,1,0,0:0:0:0:
392,188,11479,1,0,0:0:0:0:
356,204,11579,1,0,0:0:0:0:
272,268,11779,5,0,0:0:0:0:
216,180,11979,2,8,P|281:160|360:200,1,160,8|0,0:0|0:0,0:0:0:0:
280,96,12779,2,0,P|296:161|252:238,1,160
104,68,13579,5,8,0:0:0:0:
276,220,13979,1,0,0:0:0:0:
284,180,14079,1,0,0:0:0:0:
280,140,14179,1,0,0:0:0:0:
204,43,14379,1,0,0:0:0:0:
92,92,14579,1,0,0:0:0:0:
77,129,14679,1,0,0:0:0:0:
73,168,14779,1,0,0:0:0:0:
183,144,14979,1,0,0:0:0:0:
140,240,15179,6,0,B|167:336|167:336|217:321|247:354,1,160,8|0,0:0|0:0,0:0:0:0:
316,318,15979,2,0,B|396:294|396:294|460:255|447:209,1,160
368,68,16779,5,8,0:0:0:0:
380,228,17179,2,0,L|384:288,2,40
368,68,17579,1,0,0:0:0:0:
262,195,17779,2,0,L|222:243,2,40
373,71,18179,1,0,0:0:0:0:
208,72,18379,2,0,B|208:132|208:132|208:180|240:232,1,160,8|0,0:0|0:0,0:0:0:0:
327,159,18979,1,0,0:0:0:0:
360,268,19179,1,0,0:0:0:0:
360,268,19379,2,0,L|375:344,2,40
296,128,19979,1,8,0:0:0:0:
184,148,20379,5,0,0:0:0:0:
192,187,20479,1,0,0:0:0:0:
212,221,20579,1,0,0:0:0:0:
296,124,20779,1,0,0:0:0:0:
410,95,20979,1,0,0:0:0:0:
421,133,21079,1,0,0:0:0:0:
418,172,21179,1,0,0:0:0:0:
279,208,21379,1,0,0:0:0:0:
320,328,21579,5,8,0:0:0:0:
446,100,21979,1,0,0:0:0:0:
290,60,22179,1,0,0:0:0:0:
367,151,22379,1,0,0:0:0:0:
214,104,22579,2,0,L|154:85,2,40
236,205,23179,6,0,B|279:274|279:274|278:329|214:338,1,160,8|0,0:0|0:0,0:0:0:0:
203,328,23679,1,0,0:0:0:0:
301,191,23979,6,0,B|381:209|381:209|418:248|379:300,1,160,8|0,0:0|0:0,0:0:0:0:
364,301,24479,1,0,0:0:0:0:
341,134,24779,6,0,B|410:90|410:90|465:92|474:156,1,160,8|0,0:0|0:0,0:0:0:0:
461,162,25279,1,0,0:0:0:0:
328,265,25579,6,0,B|247:246|247:246|210:207|249:155,1,160,8|0,0:0|0:0,0:0:0:0:
264,155,26079,1,0,0:0:0:0:
142,270,26379,5,8,0:0:0:0:
144,196,26579,6,0,L|104:140,5,40
152,172,27179,2,0,L|140:96,3,40
176,144,27579,2,0,L|184:72,3,40
208,120,27979,2,0,L|228:48,3,40
240,104,28379,2,0,L|276:52,3,40
288,92,28779,5,0,0:0:0:0:
368,312,29579,6,0,B|408:280|428:212|424:184,1,100
132,264,29979,2,0,B|92:232|72:164|76:136,1,100
368,232,30379,6,0,B|408:200|428:132|424:104,1,100
132,184,30779,2,0,B|92:152|72:84|76:56,1,100
248,72,31179,5,0,0:0:0:0:
248,300,31379,1,0,0:0:0:0:
360,176,31579,1,0,0:0:0:0:
144,176,31779,1,0,0:0:0:0:
440,284,31979,6,0,B|376:332|376:332|308:332,1,100
160,132,32379,2,0,B|112:68|112:68|112:0,1,100
96,312,32779,2,0,B|160:264|160:264|160:204,1,100
300,68,33179,2,0,B|348:132|348:132|348:200,1,100
188,312,33579,1,0,0:0:0:0:
163,174,33779,1,0,0:0:0:0:
275,90,33979,6,0,P|335:70|363:34,1,100
293,167,34379,2,0,P|345:171|405:127,1,100
280,241,34779,2,0,P|328:269|384:269,1,100
84,152,35179,1,0,0:0:0:0:
152,284,35979,5,8,0:0:0:0:
128,168,36179,2,0,P|152:88|248:52,1,150.000005722046
320,52,36579,1,0,0:0:0:0:
212,56,36779,1,8,0:0:0:0:
327,54,36979,2,0,P|391:110|403:203,1,150.000005722046
352,268,37379,1,0,0:0:0:0:
408,176,37579,1,8,0:0:0:0:
348,272,37779,2,0,P|248:284|164:228,1,150.000005722046
60,184,38179,5,0,0:0:0:0:
148,60,38379,2,0,L|172:236,1,150.000005722046,8|0,0:0|0:0,0:0:0:0:
248,336,38779,2,0,L|224:160,1,150.000005722046
264,60,39179,2,0,L|288:236,1,150.000005722046,8|0,0:0|0:0,0:0:0:0:
364,336,39579,2,0,L|340:160,1,150.000005722046
316,40,39979,5,8,0:0:0:0:
343,187,40179,1,0,0:0:0:0:
236,84,40379,1,0,0:0:0:0:
384,96,40579,1,0,0:0:0:0:
256,172,40779,1,8,0:0:0:0:
112,196,42379,5,8,0:0:0:0:
304,288,42779,2,0,L|368:320,2,50
396,168,43179,1,8,0:0:0:0:
260,104,43379,2,0,L|192:72,2,50
248,204,43779,1,8,0:0:0:0:
240,292,43979,5,0,0:0:0:0:
336,100,44179,1,0,0:0:0:0:
152,200,44379,1,0,0:0:0:0:
360,224,44579,1,0,0:0:0:0:
204,84,44779,1,8,0:0:0:0:
240,292,44979,1,0,0:0:0:0:
332,104,45179,1,8,0:0:0:0:
152,200,45379,1,0,0:0:0:0:
400,188,45579,5,8,0:0:0:0:
208,96,45979,2,0,L|144:64,2,50
224,244,46379,1,8,0:0:0:0:
372,280,46579,2,0,L|460:304,2,50
360,180,46979,1,8,0:0:0:0:
344,84,47179,5,0,0:0:0:0:
204,312,47379,1,0,0:0:0:0:
172,44,47579,1,0,0:0:0:0:
352,248,47779,1,0,0:0:0:0:
92,176,47979,1,8,0:0:0:0:
344,84,48179,1,0,0:0:0:0:
204,312,48379,1,8,0:0:0:0:
124,104,48779,5,8,0:0:0:0:
288,64,49179,1,0,0:0:0:0:
332,84,49279,1,0,0:0:0:0:
372,120,49379,1,0,0:0:0:0:
404,212,49579,1,8,0:0:0:0:
320,264,49779,1,0,0:0:0:0:
284,228,49879,1,0,0:0:0:0:
276,180,49979,1,0,0:0:0:0:
184,232,50179,5,8,0:0:0:0:
172,184,50279,1,0,0:0:0:0:
188,136,50379,1,0,0:0:0:0:
296,64,50579,1,8,0:0:0:0:
88,88,50779,1,0,0:0:0:0:
104,244,50979,1,8,0:0:0:0:
120,292,51079,1,0,0:0:0:0:
156,328,51179,1,0,0:0:0:0:
288,196,51379,5,8,0:0:0:0:
420,268,51579,1,8,0:0:0:0:
276,312,51779,1,0,0:0:0:0:
432,268,51979,1,8,0:0:0:0:
288,196,52179,1,0,0:0:0:0:
424,136,52379,1,8,0:0:0:0:
284,76,52579,5,0,0:0:0:0:
268,124,52679,1,0,0:0:0:0:
228,156,52779,1,8,0:0:0:0:
121,65,52979,1,0,0:0:0:0:
158,199,53179,1,8,0:0:0:0:
293,233,53379,6,0,L|353:189,2,50,8|0|8,0:0|0:0|0:0,0:0:0:0:
316,84,53779,2,0,L|316:-8,2,50,8|0|8,0:0|0:0|0:0,0:0:0:0:
168,92,54179,2,8,B|88:92|56:160,1,100
128,268,54579,2,8,P|168:181|158:142,1,100
256,192,61579,12,0,67179,0:0:0:0:
224,180,67979,6,0,B|255:171|255:171|280:192|280:192|313:172|352:170|372:168|424:232|396:316|293:325|260:348|44:328|136:252|56:184|60:112|68:60|112:48|192:100|327:104|432:36|488:40|496:124|504:200|504:256|496:296|464:340|396:380|328:384|264:376|212:384|92:380|48:324|20:280|-4:168|8:64|88:32|218:26|329:36,1,1750
100,64,80779,6,0,B|172:92|240:96|360:56|360:56|384:100|328:136|200:180|84:184|84:184|130:227|177:286|380:192|428:304,1,960
328,112,83979,2,0,B|208:96|68:36|68:36|144:136|220:168|220:168|208:204|116:192|116:192|176:304|324:324|444:248,1,960
400,240,87179,6,0,B|272:304|104:312|104:312|124:240|192:188|388:172|388:172|284:124|224:96|76:104,1,960
188,256,90379,2,0,B|308:272|388:316|388:316|372:232|220:184|220:184|348:192|368:172|356:116|356:116|292:104|292:104|284:112|284:112|276:100|276:100|260:108|260:108|252:96|252:96|232:104|232:104|220:88|220:88|204:100|204:100|196:84|196:84|184:96|184:96|172:80|172:80|152:92|152:92|140:76|140:76|120:92|120:92|112:76|112:76|92:84,1,960
368,152,93579,5,0,0:0:0:0:
348,228,93979,1,0,0:0:0:0:
276,264,94379,1,0,0:0:0:0:
196,264,94779,1,0,0:0:0:0:
104,116,95179,5,0,0:0:0:0:
200,112,95579,1,0,0:0:0:0:
284,156,95979,1,0,0:0:0:0:
316,192,96179,1,0,0:0:0:0:
332,240,96379,1,0,0:0:0:0:
112,296,96779,6,0,L|112:120,1,160,0|0,0:0|0:0,0:0:0:0:
188,76,97579,2,0,L|268:52,1,80,0|0,0:0|0:0,0:0:0:0:
368,104,97979,2,0,L|288:128,1,80,0|0,0:0|0:0,0:0:0:0:
219,213,98379,2,0,B|159:229|167:297|227:321|279:261,1,160
175,71,99179,2,0,B|144:18|80:43|72:107|144:142,1,160
384,84,99979,6,0,B|388:180|356:208|356:208|304:208,1,160,0|0,0:0|0:0,0:0:0:0:
260,80,100779,2,0,B|160:80|160:80|128:112|80:100,1,160,0|0,0:0|0:0,0:0:0:0:
96,292,101579,1,0,0:0:0:0:
412,292,101979,1,0,0:0:0:0:
336,104,102379,5,0,0:0:0:0:
296,80,102579,1,0,0:0:0:0:
248,76,102779,1,0,0:0:0:0:
200,84,102979,1,0,0:0:0:0:
160,108,103179,1,0,0:0:0:0:
244,156,103579,1,0,0:0:0:0:
176,288,103979,6,0,L|232:216,1,80,0|0,0:0|0:0,0:0:0:0:
324,208,104379,2,0,L|272:272,1,80,0|0,0:0|0:0,0:0:0:0:
176,288,104779,2,0,L|288:144,1,160,0|0,0:0|0:0,0:0:0:0:
284,164,105579,1,0,0:0:0:0:
232,108,106379,6,0,P|176:192|176:276,1,160,0|0,0:0|0:0,0:0:0:0:
171,248,107179,2,0,P|284:240|336:184,1,160,0|0,0:0|0:0,0:0:0:0:
244,96,107979,5,0,0:0:0:0:
328,108,108379,1,0,0:0:0:0:
336,192,108779,2,0,P|320:244|292:252,1,80,0|0,0:0|0:0,0:0:0:0:
208,236,109179,2,0,P|196:181|230:135,1,80,0|0,0:0|0:0,0:0:0:0:
212,92,109579,6,0,P|292:128|292:224,1,160,0|0,0:0|0:0,0:0:0:0:
276,248,110379,2,0,L|216:192,1,80,0|0,0:0|0:0,0:0:0:0:
217,193,110779,2,0,L|153:125,1,80,0|0,0:0|0:0,0:0:0:0:
196,100,111179,6,0,L|196:296,1,160,0|0,0:0|0:0,0:0:0:0:
308,92,111979,2,0,L|240:176,1,80,0|0,0:0|0:0,0:0:0:0:
264,200,112379,2,0,L|332:284,1,80,0|0,0:0|0:0,0:0:0:0:
128,220,112779,6,0,L|208:48,1,160,0|0,0:0|0:0,0:0:0:0:
195,74,113579,2,0,L|279:234,1,160,0|0,0:0|0:0,0:0:0:0:
120,168,114379,2,0,L|280:168,1,160,0|0,0:0|0:0,0:0:0:0:
328,304,115179,5,0,0:0:0:0:
372,272,115379,1,0,0:0:0:0:
392,216,115579,1,0,0:0:0:0:
360,176,115779,1,0,0:0:0:0:
372,132,115979,2,0,B|356:36|240:60,1,160,0|0,0:0|0:0,0:0:0:0:
144,248,116779,2,0,L|248:228,1,80,0|0,0:0|0:0,0:0:0:0:
120,152,117179,2,0,L|224:132,1,80,0|0,0:0|0:0,0:0:0:0:
228,192,117579,6,0,B|256:172|256:172|272:180|272:180|288:164|288:164|300:172|300:172|320:152|320:152|336:160|336:160|352:144|352:144|368:140|417:129|434:111|448:96|437:72|416:40|392:24|232:80,1,480,0|0,0:0|0:0,0:0:0:0:
92,68,119179,6,0,B|96:208|96:208|132:216|148:248|148:248|144:336,1,239.999992675781,8|0,0:0|0:0,0:0:0:0:
200,96,119979,1,8,0:0:0:0:
236,220,120179,1,0,0:0:0:0:
276,196,120279,1,0,0:0:0:0:
308,160,120379,1,0,0:0:0:0:
152,192,120579,1,8,0:0:0:0:
160,288,120779,5,8,0:0:0:0:
252,316,120979,2,0,P|320:308|368:276,1,119.999996337891
400,192,121379,1,0,0:0:0:0:
384,96,121579,2,8,P|336:48|276:40,1,119.999996337891,8|0,0:0|0:0,0:0:0:0:
400,280,121979,2,0,B|324:280|272:208|280:200,1,119.999996337891
236,120,122379,2,0,P|308:116|368:156,1,119.999996337891,8|0,0:0|0:0,0:0:0:0:
128,88,122779,2,0,P|115:158|147:223,1,119.999996337891
200,48,123179,2,0,P|272:44|332:84,1,119.999996337891,8|0,0:0|0:0,0:0:0:0:
204,304,123579,2,0,P|132:308|72:268,1,119.999996337891
412,64,123979,6,0,L|412:196,1,119.999996337891,8|0,0:0|0:0,0:0:0:0:
328,320,124379,2,0,L|328:184,1,119.999996337891
244,64,124779,2,0,L|244:232,1,119.999996337891,8|0,0:0|0:0,0:0:0:0:
160,320,125179,2,0,L|160:188,1,119.999996337891
112,64,125579,6,0,B|60:128|64:172|112:208|112:208|112:320,1,239.999992675781,8|0,0:0|0:0,0:0:0:0:
176,152,126379,1,8,0:0:0:0:
244,84,126579,1,0,0:0:0:0:
288,64,126679,1,0,0:0:0:0:
336,64,126779,1,0,0:0:0:0:
420,112,126979,1,0,0:0:0:0:
400,212,127179,6,0,P|328:196|300:160,1,119.999996337891,8|0,0:0|0:0,0:0:0:0:
172,48,127579,2,0,P|104:60|56:108,1,119.999996337891
292,316,127979,2,0,B|352:248|344:184|336:176,1,119.999996337891,8|0,0:0|0:0,0:0:0:0:
124,192,128379,2,0,P|124:280|168:312,1,119.999996337891
408,128,128779,2,0,P|344:64|280:56,2,119.999996337891,8|0|0,0:0|0:0|0:0,0:0:0:0:
400,256,129379,5,0,0:0:0:0:
320,320,129579,1,8,0:0:0:0:
212,316,129779,1,0,0:0:0:0:
120,264,129979,1,0,0:0:0:0:
80,176,130179,1,0,0:0:0:0:
80,80,130379,2,0,B|200:40|248:48|336:56|380:136|400:160|448:224|412:256|424:320|268:368|216:336|176:264|240:192|296:212,1,719.999978027344,8|0,0:0|0:0,0:0:0:0:
400,84,131979,2,0,L|344:272,1,150.000005722046,8|0,0:0|0:0,0:0:0:0:
252,300,132379,2,0,L|300:136,1,150.000005722046,8|0,0:0|0:0,0:0:0:0:
232,72,132779,2,0,L|176:248,1,150.000005722046,8|0,0:0|0:0,0:0:0:0:
60,324,133179,2,0,L|120:136,1,150.000005722046,8|0,0:0|0:0,0:0:0:0:
324,88,133579,6,0,P|236:64|116:80,1,150.000005722046,8|0,0:0|0:0,0:0:0:0:
104,272,133979,2,0,P|168:312|292:308,1,150.000005722046,8|0,0:0|0:0,0:0:0:0:
280,72,134379,1,8,0:0:0:0:
404,304,134579,1,0,0:0:0:0:
352,64,134779,2,0,P|248:36|140:68,1,150.000005722046,8|0,0:0|0:0,0:0:0:0:
104,296,135179,5,8,0:0:0:0:
412,208,135379,1,0,0:0:0:0:
188,104,135579,2,0,L|272:300,1,150.000005722046,8|0,0:0|0:0,0:0:0:0:
76,148,135979,1,8,0:0:0:0:
412,244,136179,1,0,0:0:0:0:
296,80,136379,2,0,L|228:248,1,150.000005722046,8|0,0:0|0:0,0:0:0:0:
140,296,136779,5,8,0:0:0:0:
144,300,136979,1,0,0:0:0:0:
360,140,137179,1,8,0:0:0:0:
360,140,137379,1,0,0:0:0:0:
144,104,137579,1,8,0:0:0:0:
144,104,137779,1,0,0:0:0:0:
348,296,137979,1,8,0:0:0:0:
348,296,138179,1,0,0:0:0:0:
256,316,138379,6,0,L|256:132,1,150.000005722046,8|0,0:0|0:0,0:0:0:0:
424,256,138779,2,0,L|328:120,1,150.000005722046,8|0,0:0|0:0,0:0:0:0:
116,176,139179,2,0,L|216:40,1,150.000005722046,8|0,0:0|0:0,0:0:0:0:
400,64,139579,2,0,P|304:36|232:36,1,150.000005722046,8|0,0:0|0:0,0:0:0:0:
188,332,139979,2,0,P|280:296|352:208,1,150.000005722046,8|0,0:0|0:0,0:0:0:0:
116,80,140379,2,0,P|180:140|192:212,2,150.000005722046,8|0|8,0:0|0:0|0:0,0:0:0:0:
76,312,140979,1,0,0:0:0:0:
364,312,141179,2,0,P|440:272|484:168,1,150.000005722046,8|0,0:0|0:0,0:0:0:0:
232,312,141579,5,8,0:0:0:0:
232,312,141779,1,0,0:0:0:0:
120,92,141979,2,0,P|72:184|72:252,1,150.000005722046,8|0,0:0|0:0,0:0:0:0:
296,56,142379,5,8,0:0:0:0:
296,56,142579,1,0,0:0:0:0:
436,212,142779,2,0,P|380:292|312:308,1,150.000005722046,8|0,0:0|0:0,0:0:0:0:
188,328,143179,2,8,B|96:284|80:200|104:132|104:56,2,300.000011444092
144,296,144779,5,8,0:0:0:0:
400,152,145179,1,8,0:0:0:0:
152,44,145579,1,8,0:0:0:0:
268,228,145979,1,8,0:0:0:0:
168,168,146179,1,8,0:0:0:0:
168,168,146279,1,8,0:0:0:0:
168,168,146379,1,8,0:0:0:0:
264,104,146579,5,0,0:0:0:0:
376,168,146779,1,8,0:0:0:0:
268,228,146979,1,0,0:0:0:0:
148,292,147179,1,8,0:0:0:0:
128,100,147579,2,8,P|232:60|380:80,1,239.999992675781
392,288,148379,2,8,P|264:328|132:300,1,239.999992675781
104,100,149179,6,0,L|152:224,1,119.999996337891,8|0,0:0|0:0,0:0:0:0:
180,292,149579,1,8,0:0:0:0:
280,96,149979,2,0,L|328:220,1,119.999996337891,8|0,0:0|0:0,0:0:0:0:
356,292,150379,1,8,0:0:0:0:
120,272,151179,5,8,0:0:0:0:
404,184,151579,1,8,0:0:0:0:
144,140,151979,1,8,0:0:0:0:
312,276,152379,1,8,0:0:0:0:
220,220,152579,1,8,0:0:0:0:
228,228,152679,1,8,0:0:0:0:
228,228,152779,1,8,0:0:0:0:
312,160,152979,1,0,0:0:0:0:
264,96,153179,1,8,0:0:0:0:
200,64,153379,1,0,0:0:0:0:
128,56,153579,1,8,0:0:0:0:
128,288,153979,5,8,0:0:0:0:
244,288,154179,1,8,0:0:0:0:
288,264,154279,1,8,0:0:0:0:
316,224,154379,1,8,0:0:0:0:
340,128,154579,5,0,0:0:0:0:
156,188,154779,1,8,0:0:0:0:
340,128,154979,1,0,0:0:0:0:
156,88,155179,1,8,0:0:0:0:
340,128,155379,1,0,0:0:0:0:
156,188,155579,1,8,0:0:0:0:
340,128,155779,1,0,0:0:0:0:
148,188,155979,6,0,B|64:216|64:272|72:292|92:304|92:304|192:288|328:288|452:304,1,479.999985351563,8|8,0:0|0:0,0:0:0:0:
412,96,170379,5,8,0:0:0:0:
160,260,170779,1,0,0:0:0:0:
368,44,171179,1,8,0:0:0:0:
212,300,171579,1,0,0:0:0:0:
152,152,171979,5,8,0:0:0:0:
288,88,172179,1,0,0:0:0:0:
216,216,172379,1,8,0:0:0:0:
196,68,172579,1,0,0:0:0:0:
296,180,172779,1,8,0:0:0:0:
152,152,172979,1,0,0:0:0:0:
288,88,173179,1,8,0:0:0:0:
216,276,173579,5,8,0:0:0:0:
192,52,173779,1,0,0:0:0:0:
344,216,173979,1,8,0:0:0:0:
116,160,174179,1,0,0:0:0:0:
312,64,174379,1,8,0:0:0:0:
216,276,174579,1,0,0:0:0:0:
192,52,174779,1,8,0:0:0:0:
384,232,175179,5,8,0:0:0:0:
104,180,175379,1,0,0:0:0:0:
332,56,175579,1,8,0:0:0:0:
228,320,175779,1,0,0:0:0:0:
172,44,175979,1,8,0:0:0:0:
192,76,176079,1,0,0:0:0:0:
208,108,176179,1,0,0:0:0:0:
224,140,176279,1,0,0:0:0:0:
244,172,176379,1,8,0:0:0:0:
256,192,179179,12,0,182779,0:0:0:0:
112,104,183179,6,0,P|244:64|304:72,1,150.000005722046,8|0,0:0|0:0,0:0:0:0:
404,232,183579,2,0,P|348:304|240:328,1,150.000005722046,8|0,0:0|0:0,0:0:0:0:
192,164,183979,2,0,P|140:264|148:332,1,150.000005722046,8|0,0:0|0:0,0:0:0:0:
328,176,184379,2,0,P|268:88|192:64,1,150.000005722046,8|0,0:0|0:0,0:0:0:0:
80,272,184779,6,0,P|126:320|244:307,1,150.000005722046,8|0,0:0|0:0,0:0:0:0:
416,252,185179,1,8,0:0:0:0:
144,124,185379,1,0,0:0:0:0:
388,148,185579,2,0,P|336:76|220:56,1,150.000005722046,8|0,0:0|0:0,0:0:0:0:
148,232,185979,5,8,0:0:0:0:
328,104,186179,1,0,0:0:0:0:
252,316,186379,1,8,0:0:0:0:
188,100,186579,1,0,0:0:0:0:
364,240,186779,1,8,0:0:0:0:
140,232,186979,6,0,P|122:150|160:68,1,150.000005722046,0|8,0:0|0:0,0:0:0:0:
392,76,187379,2,0,B|420:168|392:244,1,150.000005722046,0|8,0:0|0:0,0:0:0:0:
260,48,187779,1,0,0:0:0:0:
232,272,187979,1,8,0:0:0:0:
176,56,188179,2,0,P|100:92|52:152,1,150.000005722046,0|8,0:0|0:0,0:0:0:0:
208,308,188579,1,0,0:0:0:0:
400,272,188779,1,8,0:0:0:0:
424,236,188879,1,0,0:0:0:0:
436,192,188979,1,0,0:0:0:0:
428,148,189079,1,0,0:0:0:0:
408,108,189179,1,8,0:0:0:0:
312,60,189379,5,8,0:0:0:0:
208,52,189579,2,0,P|119:98|86:141,1,150.000005722046,8|0,0:0|0:0,0:0:0:0:
120,288,189979,2,0,P|164:320|276:328,1,150.000005722046,8|0,0:0|0:0,0:0:0:0:
360,124,190379,2,0,P|300:76|224:48,1,150.000005722046,8|0,0:0|0:0,0:0:0:0:
120,288,190779,2,0,P|88:180|124:96,1,150.000005722046,8|0,0:0|0:0,0:0:0:0:
336,60,191179,2,0,P|300:164|312:220,1,150.000005722046,8|0,0:0|0:0,0:0:0:0:
120,88,191579,5,8,0:0:0:0:
364,304,191779,1,0,0:0:0:0:
340,120,191979,2,0,L|200:240,1,150.000005722046,8|0,0:0|0:0,0:0:0:0:
92,224,192379,1,8,0:0:0:0:
392,180,192579,1,0,0:0:0:0:
200,100,192779,2,0,L|248:284,1,150.000005722046,8|0,0:0|0:0,0:0:0:0:
80,200,193179,5,8,0:0:0:0:
144,288,193379,1,0,0:0:0:0:
244,324,193579,1,8,0:0:0:0:
294,319,193679,1,0,0:0:0:0:
338,288,193779,1,0,0:0:0:0:
364,245,193879,1,0,0:0:0:0:
372,193,193979,1,8,0:0:0:0:
360,88,194179,1,0,0:0:0:0:
260,60,194379,2,8,B|160:44|100:68|56:112|48:188|48:236|48:276|48:276|124:248|264:248|352:280,1,600.000022888185
336,296,195979,5,8,0:0:0:0:
112,148,196179,1,0,0:0:0:0:
368,136,196379,1,8,0:0:0:0:
176,304,196579,1,0,0:0:0:0:
232,56,196779,1,8,0:0:0:0:
332,288,196979,6,0,P|252:316|152:296,1,150.000005722046,0|8,0:0|0:0,0:0:0:0:
152,88,197379,1,8,0:0:0:0:
204,68,197479,1,8,0:0:0:0:
264,56,197579,2,0,P|372:108|388:168,1,150.000005722046,8|0,0:0|0:0,0:0:0:0:
384,304,197979,2,0,P|281:245|273:179,1,150.000005722046,8|0,0:0|0:0,0:0:0:0:
164,320,198379,2,0,P|228:252|296:260,1,150.000005722046,8|0,0:0|0:0,0:0:0:0:
84,92,198779,2,0,B|68:188|144:240|188:232,1,150.000005722046,8|0,0:0|0:0,0:0:0:0:
272,40,199179,5,8,0:0:0:0:
396,228,199379,1,0,0:0:0:0:
216,96,199579,1,8,0:0:0:0:
432,152,199779,1,0,0:0:0:0:
224,240,199979,2,0,P|140:192|124:128,1,150.000005722046,8|0,0:0|0:0,0:0:0:0:
308,144,200379,1,8,0:0:0:0:
200,312,200579,1,8,0:0:0:0:
248,332,200679,1,8,0:0:0:0:
308,336,200779,2,8,P|388:308|408:224,2,150.000005722046,8|0|8,0:0|0:0|0:0,0:0:0:0:
120,204,201379,1,0,0:0:0:0:
128,92,201579,5,8,0:0:0:0:
172,60,201679,1,0,0:0:0:0:
220,36,201779,1,0,0:0:0:0:
272,36,201879,1,0,0:0:0:0:
324,48,201979,1,8,0:0:0:0:
408,136,202179,1,0,0:0:0:0:
108,300,202379,1,8,0:0:0:0:
388,260,202579,2,0,B|288:240|248:196,1,150.000005722046,0|8,0:0|0:0,0:0:0:0:
344,152,202979,2,0,P|264:120|184:136,1,150.000005722046,0|8,0:0|0:0,0:0:0:0:
256,296,203379,2,0,P|152:296|92:236,1,150.000005722046,0|8,0:0|0:0,0:0:0:0:
108,168,203779,5,8,0:0:0:0:
124,124,203879,1,8,0:0:0:0:
156,84,203979,2,8,P|216:40|300:48,1,150.000005722046,8|0,0:0|0:0,0:0:0:0:
164,276,204379,1,8,0:0:0:0:
376,232,204579,1,0,0:0:0:0:
188,128,204779,1,8,0:0:0:0:
284,332,204979,1,0,0:0:0:0:
296,104,205179,1,8,0:0:0:0:
272,208,205379,1,8,0:0:0:0:
220,212,205479,1,8,0:0:0:0:
168,192,205579,2,8,P|88:112|132:28,1,150.000005722046,8|0,0:0|0:0,0:0:0:0:
244,64,205979,6,0,P|340:100|368:160,1,150.000005722046,8|0,0:0|0:0,0:0:0:0:
356,240,206379,1,8,0:0:0:0:
328,284,206479,1,0,0:0:0:0:
280,304,206579,1,0,0:0:0:0:
228,316,206679,1,0,0:0:0:0:
176,316,206779,1,8,0:0:0:0:
68,308,206979,1,0,0:0:0:0:
48,200,207179,6,0,B|132:132|92:96|72:32|72:32|184:72|388:64|480:32,1,600.000022888185,8|0,0:0|0:0,0:0:0:0:
