osu file format v14

[General]
AudioFilename: Da Tweekaz-Wodka.mp3
AudioLeadIn: 0
PreviewTime: 170379
Countdown: 1
SampleSet: Normal
StackLeniency: 0.7
Mode: 0
LetterboxInBreaks: 1
WidescreenStoryboard: 1

[Editor]
Bookmarks: 149600
DistanceSpacing: 1
BeatDivisor: 2
GridSize: 4
TimelineZoom: 1.4

[Metadata]
Title:Wodka
TitleUnicode:Wodka
Artist:Da Tweekaz
ArtistUnicode:Da Tweekaz
Creator:SSieni
Version:Hard
Source:
Tags:vodka russia hardstyle
BeatmapID:1070398
BeatmapSetID:371303

[Difficulty]
HPDrainRate:6
CircleSize:4
OverallDifficulty:7
ApproachRate:8
SliderMultiplier:2
SliderTickRate:1

[Events]
//Background and Video events
0,0,"uwljwYg.jpg",0,0
//Break Periods
//Storyboard Layer 0 (Background)
//Storyboard Layer 1 (Fail)
//Storyboard Layer 2 (Pass)
//Storyboard Layer 3 (Foreground)
//Storyboard Sound Samples

[TimingPoints]
779,400,4,1,0,100,1,0
11979,-125,4,1,0,100,0,0
29579,-100,4,1,0,100,0,0
35979,-66.6666666666667,4,1,0,100,0,0
41979,-100,4,1,0,100,0,0
80779,-125,4,1,0,100,0,0
119179,-83.3333333333333,4,1,0,100,0,0
131979,-66.6666666666667,4,1,0,100,0,1
143979,-83.3333333333333,4,1,0,100,0,0
170379,-133.333333333333,4,1,0,100,0,0
183179,-66.6666666666667,4,1,0,100,0,1
207979,-100,4,1,0,100,0,0

[HitObjects]
248,188,3979,5,0,0:0:0:0:
196,324,4379,2,0,P|124:328|68:284,1,100
160,236,4779,1,0,0:0:0:0:
84,172,4979,1,0,0:0:0:0:
160,236,5179,1,0,0:0:0:0:
248,188,5379,1,0,0:0:0:0:
324,124,5579,6,0,L|244:316,1,200
180,236,6379,2,0,L|268:28,1,200
264,196,7179,5,0,0:0:0:0:
316,60,7579,2,0,P|388:56|444:100,1,100
352,148,7979,1,0,0:0:0:0:
428,212,8179,1,0,0:0:0:0:
352,148,8379,1,0,0:0:0:0:
264,196,8579,1,0,0:0:0:0:
188,260,8779,6,0,L|268:68,1,200
332,148,9579,2,0,L|244:356,1,200
96,209,10379,5,0,0:0:0:0:
239,69,10779,1,0,0:0:0:0:
144,101,10979,1,0,0:0:0:0:
173,196,11179,6,0,L|265:64,1,100
249,212,11579,2,0,P|197:148|189:108,1,100
116,156,11979,5,0,0:0:0:0:
172,96,12179,1,0,0:0:0:0:
244,64,12379,1,0,0:0:0:0:
324,72,12579,1,0,0:0:0:0:
396,108,12779,2,0,B|428:184|392:296,1,160
250,319,13579,5,0,0:0:0:0:
110,241,13979,1,0,0:0:0:0:
189,239,14179,1,0,0:0:0:0:
152,167,14379,1,0,0:0:0:0:
231,164,14579,1,0,0:0:0:0:
189,95,14779,1,0,0:0:0:0:
268,90,14979,1,0,0:0:0:0:
347,81,15179,6,0,L|311:265,1,160
167,179,15979,2,0,P|283:151|375:167,1,160
152,100,16779,5,0,0:0:0:0:
84,244,17179,2,0,P|120:284|200:284,1,80
216,256,17579,1,0,0:0:0:0:
264,192,17779,1,0,0:0:0:0:
292,268,17979,2,0,P|348:228|352:168,1,80
388,292,18379,5,0,0:0:0:0:
456,148,18779,2,0,P|420:108|340:108,1,80
324,136,19179,1,0,0:0:0:0:
276,200,19379,1,0,0:0:0:0:
248,124,19579,2,0,P|192:164|188:224,1,80
136,112,19979,5,0,0:0:0:0:
68,256,20379,2,0,P|104:296|184:296,1,80
200,268,20779,1,0,0:0:0:0:
248,204,20979,1,0,0:0:0:0:
276,280,21179,2,0,P|332:240|336:180,1,80
264,196,21579,5,0,0:0:0:0:
197,51,21979,2,0,P|143:52|91:114,1,80
103,144,22379,1,0,0:0:0:0:
116,224,22579,1,0,0:0:0:0:
48,188,22779,2,0,P|42:256|86:298,1,80
107,320,23179,5,0,0:0:0:0:
268,304,23579,2,0,B|284:280|284:280|324:280,1,40
416,264,23979,5,0,0:0:0:0:
255,248,24379,2,0,B|239:224|239:224|199:224,1,40
108,212,24779,5,0,0:0:0:0:
269,196,25179,2,0,B|285:172|285:172|325:172,1,40
417,156,25579,5,0,0:0:0:0:
256,140,25979,2,0,B|240:116|240:116|200:116,1,40
112,96,26379,5,0,0:0:0:0:
156,252,26779,1,0,0:0:0:0:
244,120,27179,1,0,0:0:0:0:
100,188,27579,1,0,0:0:0:0:
252,236,27979,2,0,B|256:291|256:291|283:288|300:289|318:300|318:300|341:294|364:296|388:308|388:308|398:263|425:235|425:235|431:119|431:119,1,320
