osu file format v14

[General]
AudioFilename: audio.mp3
AudioLeadIn: 0
PreviewTime: 46699
Countdown: 0
SampleSet: Soft
StackLeniency: 0.7
Mode: 0
LetterboxInBreaks: 0
WidescreenStoryboard: 1

[Editor]
Bookmarks: 21350,35163,43796,44659,47249,87177
DistanceSpacing: 1.1
BeatDivisor: 4
GridSize: 8
TimelineZoom: 1.9

[Metadata]
Title:Magical Babyrinth (TV Size)
TitleUnicode:Magical Babyrinth (マジカル・バビリンス) (TV Size)
Artist:DA PUMP
ArtistUnicode:DA PUMP
Creator:- ascended -
Version:Insane: Cheth
Source:魔入りました!入間くん
Tags:mairimashita! welcome to demon school! iruma-kun shonen shounen op opening bandai j pop jpop boy band japanese jp anime animation
BeatmapID:2243925
BeatmapSetID:1071653

[Difficulty]
HPDrainRate:5
CircleSize:4
OverallDifficulty:8
ApproachRate:8.5
SliderMultiplier:1.7
SliderTickRate:2

[Events]
//Background and Video events
Video,-432,"hmm.mp4"
0,0,"babibabibabibabibabibabibabibabibabibabibabi.jpg",0,0
//Break Periods
//Storyboard Layer 0 (Background)
//Storyboard Layer 1 (Fail)
//Storyboard Layer 2 (Pass)
//Storyboard Layer 3 (Foreground)
//Storyboard Layer 4 (Overlay)
//Storyboard Sound Samples

[TimingPoints]
189,431.654676258993,4,2,1,70,1,0
5368,-133.333333333333,4,2,1,70,0,0
6663,-100,4,2,1,70,0,0
7095,-100,4,2,1,70,0,1
13786,-100,4,2,1,70,0,0
14001,-100,4,2,1,70,0,1
20908,-100,4,2,1,70,0,0
24847,-100,4,2,1,70,0,0
43354,-100,4,2,1,50,0,0
46807,-83.3333333333333,4,2,1,90,0,1
60189,-83.3333333333333,4,2,1,90,0,0
60620,-83.3333333333333,4,2,1,90,0,1
88246,-83.3333333333333,4,2,1,90,0,0

[Colours]
Combo1 : 132,9,255
Combo2 : 0,128,255
Combo3 : 255,174,215
Combo4 : 83,255,83

[HitObjects]
256,192,189,12,0,5153,0:0:0:0:
98,331,5368,5,0,0:0:0:0:
63,179,5584,2,0,L|216:167,1,127.500004863739,0|0,0:0|0:0,0:0:0:0:
299,67,6232,5,0,0:0:0:0:
253,249,6447,1,0,0:0:0:0:
123,81,6663,6,0,B|166:64|166:64|217:73,1,85,4|0,0:0|0:0,0:0:0:0:
342,211,7095,5,2,0:0:0:0:
400,33,7311,1,0,0:0:0:0:
449,249,7527,1,8,0:0:0:0:
408,68,7743,1,0,0:0:0:0:
281,249,7958,5,2,0:0:0:0:
489,196,8174,1,2,0:0:0:0:
312,73,8390,2,0,L|294:175,1,85,8|0,0:0|0:0,0:0:0:0:
281,249,8822,5,2,0:0:0:0:
202,81,9037,1,0,0:0:0:0:
145,278,9253,1,8,0:0:0:0:
219,95,9468,1,0,0:0:0:0:
101,210,9685,5,2,0:0:0:0:
279,295,9900,1,2,0:0:0:0:
299,99,10117,2,0,P|240:86|205:105,1,85,8|0,0:0|0:0,0:0:0:0:
313,231,10548,6,0,P|372:244|407:225,1,85,2|0,0:0|0:0,0:0:0:0:
488,88,10980,2,0,L|483:197,1,85,8|0,0:0|0:0,0:0:0:0:
469,328,11412,1,2,0:0:0:0:
469,328,11627,1,2,0:0:0:0:
393,235,11843,2,0,P|334:222|299:241,1,85,8|0,0:0|0:0,0:0:0:0:
225,314,12275,6,0,L|215:215,1,85,2|0,0:0|0:0,0:0:0:0:
50,220,12706,2,0,L|140:260,1,85,8|0,0:0|0:0,0:0:0:0:
219,116,13138,2,0,L|138:174,1,85,2|2,0:0|0:0,0:0:0:0:
307,158,13570,6,0,B|319:111|319:111|303:59,1,85,8|0,0:0|0:0,0:0:0:0:
161,28,14001,5,2,0:0:0:0:
218,222,14216,1,0,0:0:0:0:
31,128,14433,1,8,0:0:0:0:
228,68,14648,1,0,0:0:0:0:
95,223,14865,5,2,0:0:0:0:
119,48,15080,1,2,0:0:0:0:
252,170,15296,2,0,P|260:229|249:270,1,85,8|0,0:0|0:0,0:0:0:0:
195,325,15728,5,2,0:0:0:0:
128,149,15944,1,0,0:0:0:0:
59,354,16160,1,8,0:0:0:0:
116,166,16376,1,0,0:0:0:0:
219,337,16591,5,2,0:0:0:0:
35,261,16807,1,2,0:0:0:0:
241,185,17023,2,0,P|260:233|250:270,1,85,8|0,0:0|0:0,0:0:0:0:
91,115,17455,6,0,L|201:97,1,85,2|0,0:0|0:0,0:0:0:0:
280,29,17886,2,0,P|304:79|286:128,1,85,8|0,0:0|0:0,0:0:0:0:
213,207,18318,1,2,0:0:0:0:
213,207,18534,1,2,0:0:0:0:
344,229,18750,2,0,L|444:224,1,85,8|0,0:0|0:0,0:0:0:0:
432,44,19181,6,0,P|443:87|422:143,1,85,2|0,0:0|0:0,0:0:0:0:
274,130,19613,2,0,P|305:98|364:89,1,85,8|0,0:0|0:0,0:0:0:0:
428,224,20045,2,0,P|385:212|347:165,1,85,2|2,0:0|0:0,0:0:0:0:
442,329,20476,2,0,L|325:337,1,85,8|0,0:0|0:0,0:0:0:0:
319,352,20800,1,0,0:0:0:0:
285,379,20908,6,0,P|266:323|274:295,1,85,4|0,0:0|0:0,0:0:0:0:
317,193,21340,2,0,L|203:199,1,85,10|0,0:0|0:0,0:0:0:0:
134,75,21771,2,0,L|248:81,1,85,2|2,0:0|0:0,0:0:0:0:
262,86,22095,1,2,0:0:0:0:
262,86,22203,1,10,0:0:0:0:
365,148,22419,6,0,B|355:102|355:102|371:40,1,85,0|2,0:0|0:0,0:0:0:0:
458,244,22850,6,0,L|347:250,2,85,0|10|0,0:0|0:0|0:0,0:0:0:0:
247,334,23498,2,0,L|358:340,1,85,2|2,0:0|0:0,0:0:0:0:
374,342,23822,1,2,0:0:0:0:
374,342,23930,1,10,0:0:0:0:
283,179,24145,6,0,B|269:220|269:220|279:265,1,85,0|2,0:0|0:0,0:0:0:0:
408,85,24577,6,0,L|223:83,1,170,0|0,0:0|0:0,0:0:0:0:
135,198,25224,2,0,P|160:147|143:106,1,85,2|2,0:0|0:0,0:0:0:0:
140,83,25548,1,2,0:0:0:0:
140,83,25656,2,0,P|89:58|48:75,1,85,10|0,0:0|0:0,0:0:0:0:
27,143,26088,5,6,0:0:0:0:
196,96,26304,1,0,0:0:0:0:
88,242,26519,1,14,0:0:0:0:
63,64,26735,1,0,0:0:0:0:
189,222,26951,5,6,0:0:0:0:
37,123,27167,1,0,0:0:0:0:
250,53,27383,2,0,P|260:107|241:152,1,85,14|0,0:0|0:0,0:0:0:0:
238,184,27706,1,0,0:0:0:0:
226,234,27814,6,0,P|216:288|235:333,1,85,6|2,0:0|0:0,0:0:0:0:
249,359,28138,1,2,0:0:0:0:
249,359,28246,1,10,0:0:0:0:
325,221,28462,1,0,0:0:0:0:
388,324,28678,2,0,P|450:347|495:334,1,85,2|2,0:0|0:0,0:0:0:0:
502,332,29001,1,2,0:0:0:0:
502,332,29109,1,10,0:0:0:0:
468,176,29325,6,0,B|428:169|428:169|360:181,1,85,0|2,0:0|0:0,0:0:0:0:
278,213,29757,6,0,L|277:111,2,85,0|10|0,0:0|0:0|0:0,0:0:0:0:
308,345,30404,2,0,P|237:322|206:329,1,85,2|2,0:0|0:0,0:0:0:0:
194,348,30728,1,2,0:0:0:0:
194,348,30836,2,0,P|151:345|114:325,1,85,10|0,0:0|0:0,0:0:0:0:
66,134,31268,6,0,L|66:243,1,85,2|2,0:0|0:0,0:0:0:0:
71,269,31591,1,2,0:0:0:0:
71,269,31699,2,0,P|117:265|155:241,1,85,10|0,0:0|0:0,0:0:0:0:
220,165,32131,2,0,L|220:56,1,85,2|2,0:0|0:0,0:0:0:0:
218,30,32455,1,2,0:0:0:0:
218,30,32563,2,0,P|261:13|306:18,1,85,10|0,0:0|0:0,0:0:0:0:
348,186,32994,5,6,0:0:0:0:
401,18,33210,1,0,0:0:0:0:
450,243,33426,1,14,0:0:0:0:
388,67,33642,1,0,0:0:0:0:
336,284,33858,5,6,0:0:0:0:
512,222,34074,1,0,0:0:0:0:
308,99,34289,2,0,P|295:157|302:182,1,85,14|0,0:0|0:0,0:0:0:0:
379,290,34721,6,0,B|253:282|253:282|288:319,1,170,4|8,0:0|0:0,0:0:0:0:
483,372,35368,2,0,L|476:194,1,170,0|0,0:0|0:0,0:0:0:0:
394,75,36016,6,0,P|344:106|422:111,1,170,8|0,0:0|0:0,0:0:0:0:
238,26,36663,2,0,L|234:221,1,170,0|0,0:0|0:0,0:0:0:0:
128,98,37311,5,2,0:0:0:0:
128,98,37527,1,0,0:0:0:0:
84,242,37742,2,0,P|38:255|-22:222,1,85,8|0,0:0|0:0,0:0:0:0:
203,359,38174,6,0,L|191:243,1,85,2|2,0:0|0:0,0:0:0:0:
189,230,38498,1,2,0:0:0:0:
189,230,38606,2,0,L|197:145,1,85,8|0,0:0|0:0,0:0:0:0:
164,61,39037,2,0,P|236:56|266:121,1,127.5,2|2,0:0|0:0,0:0:0:0:
296,128,39469,2,0,P|331:135|376:113,1,85,10|0,0:0|0:0,0:0:0:0:
466,200,39901,6,0,L|474:291,1,85,2|2,0:0|0:0,0:0:0:0:
476,335,40224,1,2,0:0:0:0:
476,335,40332,2,0,B|456:355|456:355|346:354,1,127.5,10|0,0:0|0:0,0:0:0:0:
235,288,40764,6,0,L|227:197,1,85,2|2,0:0|0:0,0:0:0:0:
225,153,41087,1,2,0:0:0:0:
225,153,41196,2,0,B|245:133|245:133|337:132,1,85,10|0,0:0|0:0,0:0:0:0:
468,259,41627,6,0,P|486:190|510:241,1,170,4|8,0:0|0:0,0:0:0:0:
463,342,42275,2,0,B|407:367|372:342|333:313|288:353,1,170,2|0,0:0|0:0,0:0:0:0:
192,380,42922,2,0,L|186:277,1,85,10|0,0:0|0:0,0:0:0:0:
150,193,43354,5,0,0:0:0:0:
120,312,43570,1,0,0:0:0:0:
97,162,43786,5,0,0:0:0:0:
133,289,44002,1,0,0:0:0:0:
211,170,44217,5,0,0:0:0:0:
78,217,44433,1,0,0:0:0:0:
247,240,44649,5,0,0:0:0:0:
113,200,44865,1,0,0:0:0:0:
255,74,45081,6,0,P|269:122|264:166,1,85,2|0,0:0|0:0,0:0:0:0:
126,182,45404,6,0,P|160:145|201:128,1,85,2|0,0:0|0:0,0:0:0:0:
246,246,45728,6,0,P|218:297|208:222,1,170,2|0,0:0|0:0,0:0:0:0:
321,302,46376,2,0,B|367:278|367:352|469:288,1,127.5,0|0,0:0|0:0,0:0:0:0:
462,256,46807,6,0,L|466:141,1,101.999996887207,4|2,0:0|0:0,0:0:0:0:
355,30,47239,2,0,L|358:131,1,101.999996887207,8|0,0:0|0:0,0:0:0:0:
314,228,47671,2,0,L|187:219,1,101.999996887207,2|2,0:0|0:0,0:0:0:0:
259,110,48102,1,8,0:0:0:0:
125,147,48318,2,0,P|94:81|155:131,1,203.999993774414,0|0,0:0|0:0,0:0:0:0:
94,221,48965,5,8,0:0:0:0:
41,28,49181,1,0,0:0:0:0:
205,202,49397,5,2,0:0:0:0:
7,198,49613,2,0,L|0:90,1,101.999996887207,10|8,0:0|0:0,0:0:0:0:
184,194,50045,1,2,0:0:0:0:
89,359,50260,6,0,L|77:251,1,101.999996887207,0|0,0:0|0:0,0:0:0:0:
195,92,50692,2,0,L|183:200,1,101.999996887207,8|0,0:0|0:0,0:0:0:0:
205,306,51124,2,0,P|268:325|307:303,1,101.999996887207,2|2,0:0|0:0,0:0:0:0:
305,112,51555,2,0,L|316:213,1,101.999996887207,8|0,0:0|0:0,0:0:0:0:
405,346,51987,5,6,0:0:0:0:
444,165,52203,1,0,0:0:0:0:
323,266,52419,5,14,0:0:0:0:
295,73,52635,1,0,0:0:0:0:
175,348,52850,5,6,0:0:0:0:
214,167,53066,1,10,0:0:0:0:
93,268,53282,5,12,0:0:0:0:
65,75,53498,1,2,0:0:0:0:
214,167,53714,6,0,P|227:239|214:278,1,101.999996887207,2|0,0:0|0:0,0:0:0:0:
98,366,54145,2,0,P|85:294|98:255,1,101.999996887207,8|0,0:0|0:0,0:0:0:0:
183,332,54577,1,2,0:0:0:0:
183,332,54685,2,0,L|303:327,1,101.999996887207,2|2,0:0|0:0,0:0:0:0:
319,328,55009,1,10,0:0:0:0:
419,251,55224,6,0,B|430:296|430:296|422:363,1,101.999996887207,0|2,0:0|0:0,0:0:0:0:
466,172,55656,6,0,P|386:158|361:179,2,101.999996887207,0|8|0,0:0|0:0|0:0,0:0:0:0:
287,258,56304,1,2,0:0:0:0:
287,258,56412,2,0,L|282:146,1,101.999996887207,2|2,0:0|0:0,0:0:0:0:
280,121,56735,1,10,0:0:0:0:
215,298,56951,5,2,0:0:0:0:
164,197,57167,6,0,P|107:181|52:212,1,101.999996887207,8|0,0:0|0:0,0:0:0:0:
287,258,57599,2,0,P|344:274|399:243,1,101.999996887207,8|0,0:0|0:0,0:0:0:0:
156,282,58030,2,0,L|151:388,1,101.999996887207,8|0,0:0|0:0,0:0:0:0:
294,169,58462,2,0,L|299:63,1,101.999996887207,8|0,0:0|0:0,0:0:0:0:
179,37,58894,5,6,0:0:0:0:
179,37,59001,2,0,L|183:138,1,101.999996887207,2|2,0:0|0:0,0:0:0:0:
186,186,59325,1,14,0:0:0:0:
84,91,59541,1,2,0:0:0:0:
17,215,59757,2,0,P|8:273|29:321,1,101.999996887207,2|2,0:0|0:0,0:0:0:0:
227,274,60189,6,0,B|180:256|180:256|106:257,1,101.999996887207,12|0,0:0|0:0,0:0:0:0:
291,341,60620,5,2,0:0:0:0:
337,153,60836,1,0,0:0:0:0:
415,320,61052,1,8,0:0:0:0:
227,274,61268,1,0,0:0:0:0:
405,189,61483,5,2,0:0:0:0:
422,379,61699,1,2,0:0:0:0:
260,294,61915,2,0,P|251:233|272:190,1,101.999996887207,8|2,0:0|0:0,0:0:0:0:
363,104,62347,5,2,0:0:0:0:
175,70,62563,1,0,0:0:0:0:
360,214,62778,1,8,0:0:0:0:
360,22,62994,1,0,0:0:0:0:
208,153,63210,5,2,0:0:0:0:
419,166,63426,1,2,0:0:0:0:
286,9,63642,2,0,P|272:71|283:115,1,101.999996887207,8|2,0:0|0:0,0:0:0:0:
384,227,64073,6,0,L|279:216,1,101.999996887207,2|0,0:0|0:0,0:0:0:0:
172,331,64505,2,0,L|273:320,1,101.999996887207,8|0,0:0|0:0,0:0:0:0:
152,207,64937,1,2,0:0:0:0:
152,207,65153,1,2,0:0:0:0:
60,340,65368,2,0,P|35:277|53:231,1,101.999996887207,8|2,0:0|0:0,0:0:0:0:
22,145,65800,6,0,L|134:131,1,101.999996887207,6|0,0:0|0:0,0:0:0:0:
327,60,66232,2,0,L|225:47,1,101.999996887207,12|0,0:0|0:0,0:0:0:0:
0,167,66663,2,0,L|112:153,1,101.999996887207,6|2,0:0|0:0,0:0:0:0:
347,86,67095,6,0,B|300:68|300:68|245:73,1,101.999996887207,14|2,0:0|0:0,0:0:0:0:
235,188,67527,5,6,0:0:0:0:
254,0,67742,1,0,0:0:0:0:
350,184,67958,1,8,0:0:0:0:
162,165,68173,1,0,0:0:0:0:
347,86,68390,5,2,0:0:0:0:
355,282,68605,1,2,0:0:0:0:
235,188,68822,2,0,P|226:129|238:81,1,101.999996887207,8|2,0:0|0:0,0:0:0:0:
408,208,69253,5,2,0:0:0:0:
219,277,69469,1,0,0:0:0:0:
391,125,69685,1,8,0:0:0:0:
391,326,69901,1,0,0:0:0:0:
236,189,70117,5,2,0:0:0:0:
441,194,70333,1,2,0:0:0:0:
293,349,70548,2,0,L|291:240,1,101.999996887207,8|2,0:0|0:0,0:0:0:0:
309,114,70980,6,0,P|253:101|207:116,1,101.999996887207,2|0,0:0|0:0,0:0:0:0:
45,190,71412,2,0,P|101:203|147:188,1,101.999996887207,8|0,0:0|0:0,0:0:0:0:
119,73,71843,1,2,0:0:0:0:
230,224,72059,2,0,L|228:328,2,101.999996887207,2|8|2,0:0|0:0|0:0,0:0:0:0:
332,218,72706,6,0,P|395:204|429:223,1,101.999996887207,6|0,0:0|0:0,0:0:0:0:
290,329,73138,2,0,P|227:343|193:324,1,101.999996887207,14|2,0:0|0:0,0:0:0:0:
349,190,73570,2,0,P|412:176|446:195,1,101.999996887207,6|0,0:0|0:0,0:0:0:0:
272,354,74001,6,0,B|221:368|221:368|175:349,1,101.999996887207,14|2,0:0|0:0,0:0:0:0:
134,192,74433,5,6,0:0:0:0:
310,174,74649,1,0,0:0:0:0:
140,285,74865,1,8,0:0:0:0:
122,109,75081,1,0,0:0:0:0:
246,242,75296,5,2,0:0:0:0:
70,224,75512,1,2,0:0:0:0:
211,61,75728,2,0,P|228:118|213:156,1,101.999996887207,8|2,0:0|0:0,0:0:0:0:
116,71,76160,5,2,0:0:0:0:
327,33,76376,1,0,0:0:0:0:
201,226,76591,1,8,0:0:0:0:
163,15,76807,1,0,0:0:0:0:
282,291,77023,5,2,0:0:0:0:
320,80,77239,1,2,0:0:0:0:
412,233,77455,2,0,P|422:293|412:337,1,101.999996887207,8|2,0:0|0:0,0:0:0:0:
237,157,77886,6,0,L|350:151,1,101.999996887207,2|0,0:0|0:0,0:0:0:0:
238,285,78318,2,0,L|125:291,1,101.999996887207,10|2,0:0|0:0,0:0:0:0:
151,157,78750,1,2,0:0:0:0:
151,157,78965,1,2,0:0:0:0:
311,234,79181,2,0,P|327:299|311:336,1,101.999996887207,8|2,0:0|0:0,0:0:0:0:
131,357,79613,6,0,L|126:249,2,101.999996887207,6|0|12,0:0|0:0|0:0,0:0:0:0:
59,143,80260,2,0,P|94:137|129:146,1,50.9999984436036,2|2,0:0|0:0,0:0:0:0:
69,154,80476,2,0,P|131:144|193:160,1,101.999996887207,6|2,0:0|0:0,0:0:0:0:
262,223,80908,6,0,B|272:175|272:175|257:103,1,101.999996887207,12|2,0:0|0:0,0:0:0:0:
226,42,81340,5,6,0:0:0:0:
440,65,81555,1,0,0:0:0:0:
262,223,81771,1,8,0:0:0:0:
305,49,81986,1,0,0:0:0:0:
367,291,82203,5,2,0:0:0:0:
335,87,82418,1,2,0:0:0:0:
182,164,82635,2,0,P|168:218|179:266,1,101.999996887207,8|2,0:0|0:0,0:0:0:0:
325,170,83066,5,2,0:0:0:0:
127,166,83282,1,0,0:0:0:0:
312,288,83498,1,8,0:0:0:0:
340,62,83714,1,0,0:0:0:0:
166,274,83930,5,2,0:0:0:0:
396,249,84146,1,2,0:0:0:0:
245,92,84361,2,0,P|231:162|249:195,1,101.999996887207,8|2,0:0|0:0,0:0:0:0:
429,172,84793,6,0,L|321:177,1,101.999996887207,2|0,0:0|0:0,0:0:0:0:
132,275,85224,2,0,L|240:280,1,101.999996887207,8|0,0:0|0:0,0:0:0:0:
209,140,85656,1,2,0:0:0:0:
209,140,85872,1,2,0:0:0:0:
328,263,86088,2,0,P|337:323|323:375,1,101.999996887207,8|2,0:0|0:0,0:0:0:0:
132,275,86519,6,0,P|152:270|209:279,1,50.9999984436036,6|2,0:0|0:0,0:0:0:0:
141,287,86735,2,0,P|175:280|270:294,1,101.999996887207,0|12,0:0|0:0,0:0:0:0:
89,152,87167,1,2,0:0:0:0:
269,52,87383,1,6,0:0:0:0:
282,93,87490,1,0,0:0:0:0:
287,138,87598,1,0,0:0:0:0:
282,182,87706,1,0,0:0:0:0:
270,225,87814,2,0,P|223:233|170:214,1,101.999996887207,12|2,0:0|0:0,0:0:0:0:
343,316,88246,5,4,0:0:0:0:
