osu file format v14

[General]
AudioFilename: audio.mp3
AudioLeadIn: 0
PreviewTime: 46699
Countdown: 0
SampleSet: Soft
StackLeniency: 0.7
Mode: 0
LetterboxInBreaks: 0
WidescreenStoryboard: 1

[Editor]
Bookmarks: 21350,35163,43796,47249
DistanceSpacing: 1.2
BeatDivisor: 4
GridSize: 8
TimelineZoom: 1.9

[Metadata]
Title:Magical Babyrinth (TV Size)
TitleUnicode:Magical Babyrinth (マジカル・バビリンス) (TV Size)
Artist:DA PUMP
ArtistUnicode:DA PUMP
Creator:- ascended -
Version:Hard: Daleth
Source:魔入りました!入間くん
Tags:mairimashita! welcome to demon school! iruma-kun shonen shounen op opening bandai j pop jpop boy band japanese jp anime animation
BeatmapID:2243740
BeatmapSetID:1071653

[Difficulty]
HPDrainRate:4
CircleSize:3.5
OverallDifficulty:6
ApproachRate:7
SliderMultiplier:1.4
SliderTickRate:2

[Events]
//Background and Video events
Video,-432,"hmm.mp4"
0,0,"babibabibabibabibabibabibabibabibabibabibabi.jpg",0,0
//Break Periods
//Storyboard Layer 0 (Background)
//Storyboard Layer 1 (Fail)
//Storyboard Layer 2 (Pass)
//Storyboard Layer 3 (Foreground)
//Storyboard Layer 4 (Overlay)
//Storyboard Sound Samples

[TimingPoints]
189,431.654676258993,4,2,1,70,1,0
5368,-133.333333333333,4,2,1,70,0,0
6663,-100,4,2,1,70,0,0
7095,-100,4,2,1,70,0,1
13786,-100,4,2,1,70,0,0
14001,-100,4,2,1,70,0,1
20908,-100,4,2,1,70,0,0
23120,-100,4,2,1,70,0,0
24847,-100,4,2,1,70,0,0
43354,-100,4,2,1,50,0,0
46807,-83.3333333333333,4,2,1,90,0,1
60189,-83.3333333333333,4,2,1,90,0,0
60620,-83.3333333333333,4,2,1,90,0,1
88246,-83.3333333333333,4,2,1,90,0,0

[Colours]
Combo1 : 132,9,255
Combo2 : 0,128,255
Combo3 : 255,174,215
Combo4 : 83,255,83

[HitObjects]
256,192,189,12,0,4937,0:0:0:0:
99,168,5368,5,0,0:0:0:0:
99,168,5584,2,0,L|109:63,1,105.000004005432,0|0,0:0|0:0,0:0:0:0:
205,29,6232,2,0,L|209:97,1,52.5000020027161,0|0,0:0|0:0,0:0:0:0:
190,170,6663,6,0,B|222:188|222:188|273:189,1,70,4|0,0:0|0:0,0:0:0:0:
357,144,7095,6,0,L|370:238,1,70,2|0,0:0|0:0,0:0:0:0:
445,259,7527,2,0,L|454:189,1,70,8|0,0:0|0:0,0:0:0:0:
497,109,7958,1,2,0:0:0:0:
464,24,8174,1,2,0:0:0:0:
373,18,8390,2,0,L|303:27,1,70,8|0,0:0|0:0,0:0:0:0:
217,59,8822,6,0,P|229:101|221:145,1,70,2|0,0:0|0:0,0:0:0:0:
181,205,9253,2,0,P|169:238|171:272,1,70,8|0,0:0|0:0,0:0:0:0:
221,348,9685,1,2,0:0:0:0:
310,365,9901,1,2,0:0:0:0:
399,350,10117,2,0,L|400:253,1,70,8|0,0:0|0:0,0:0:0:0:
340,210,10548,6,0,P|398:184|474:229,1,140,2|8,0:0|0:0,0:0:0:0:
497,298,11196,1,0,0:0:0:0:
420,348,11412,2,0,L|347:355,1,70,2|2,0:0|0:0,0:0:0:0:
271,308,11843,2,0,L|198:301,1,70,8|0,0:0|0:0,0:0:0:0:
95,350,12275,6,0,L|88:210,1,140,2|8,0:0|0:0,0:0:0:0:
8,46,13138,2,0,P|93:75|155:60,1,140,2|8,0:0|0:0,0:0:0:0:
213,243,14001,6,0,P|203:183|213:152,1,70,2|0,0:0|0:0,0:0:0:0:
259,102,14433,2,0,P|293:100|327:110,1,70,8|0,0:0|0:0,0:0:0:0:
388,177,14865,1,2,0:0:0:0:
407,266,15081,1,2,0:0:0:0:
382,353,15296,2,0,L|285:353,1,70,8|0,0:0|0:0,0:0:0:0:
220,348,15728,6,0,L|228:255,1,70,2|0,0:0|0:0,0:0:0:0:
207,188,16160,2,0,L|199:95,1,70,8|0,0:0|0:0,0:0:0:0:
168,32,16591,1,2,0:0:0:0:
82,63,16807,1,2,0:0:0:0:
44,146,17023,2,0,L|39:235,1,70,8|0,0:0|0:0,0:0:0:0:
34,307,17455,6,0,L|188:294,1,140,2|8,0:0|0:0,0:0:0:0:
263,279,18102,1,0,0:0:0:0:
328,342,18318,2,0,P|386:348|418:335,1,70,2|2,0:0|0:0,0:0:0:0:
463,283,18750,2,0,P|469:225|456:193,1,70,8|0,0:0|0:0,0:0:0:0:
411,121,19181,6,0,L|259:119,1,140,2|8,0:0|0:0,0:0:0:0:
185,87,19829,1,0,0:0:0:0:
106,132,20045,2,0,L|21:151,1,70,2|2,0:0|0:0,0:0:0:0:
10,234,20476,2,0,L|-2:319,1,70,8|0,0:0|0:0,0:0:0:0:
21,343,20800,1,0,0:0:0:0:
65,353,20908,6,0,L|223:342,1,140,4|10,0:0|0:0,0:0:0:0:
285,301,21555,1,0,0:0:0:0:
358,355,21771,2,0,L|456:356,1,70,2|2,0:0|0:0,0:0:0:0:
501,300,22203,1,10,0:0:0:0:
504,208,22419,2,0,L|491:115,1,70,0|2,0:0|0:0,0:0:0:0:
443,63,22850,6,0,L|272:59,1,140,0|0,0:0|0:0,0:0:0:0:
216,31,23498,2,0,P|201:71|203:99,1,70,2|2,0:0|0:0,0:0:0:0:
245,178,23930,1,10,0:0:0:0:
255,267,24145,2,0,B|223:296|223:296|168:303,1,70,0|2,0:0|0:0,0:0:0:0:
105,289,24577,6,0,P|76:223|92:150,1,140,0|0,0:0|0:0,0:0:0:0:
152,93,25224,2,0,L|235:87,1,70,2|2,0:0|0:0,0:0:0:0:
306,122,25656,2,0,L|375:127,1,70,10|0,0:0|0:0,0:0:0:0:
451,178,26088,6,0,L|460:335,1,140,6|14,0:0|0:0,0:0:0:0:
368,306,26735,1,0,0:0:0:0:
285,344,26951,2,0,P|220:351|192:342,1,70,6|0,0:0|0:0,0:0:0:0:
138,302,27383,2,0,P|135:267|144:233,1,70,14|0,0:0|0:0,0:0:0:0:
169,195,27706,1,0,0:0:0:0:
206,168,27814,6,0,L|59:139,1,140,6|10,0:0|0:0,0:0:0:0:
29,58,28462,1,0,0:0:0:0:
108,14,28678,2,0,P|161:11|192:25,1,70,2|2,0:0|0:0,0:0:0:0:
249,70,29109,1,10,0:0:0:0:
281,155,29325,2,0,B|288:188|288:188|283:223,1,70,0|2,0:0|0:0,0:0:0:0:
241,305,29757,6,0,L|329:310,2,70,0|10|0,0:0|0:0|0:0,0:0:0:0:
156,339,30404,2,0,L|146:176,1,140,2|10,0:0|0:0,0:0:0:0:
158,108,31052,1,0,0:0:0:0:
92,44,31268,6,0,P|39:79|28:164,1,140,2|10,0:0|0:0,0:0:0:0:
30,241,31915,1,0,0:0:0:0:
71,322,32131,2,0,L|171:336,1,70,2|2,0:0|0:0,0:0:0:0:
226,300,32563,2,0,L|326:286,1,70,10|0,0:0|0:0,0:0:0:0:
376,330,32994,6,0,L|390:181,1,140,6|14,0:0|0:0,0:0:0:0:
444,117,33642,1,0,0:0:0:0:
395,39,33858,2,0,P|334:29|301:36,1,70,6|0,0:0|0:0,0:0:0:0:
247,75,34289,2,0,P|212:75|178:65,1,70,14|0,0:0|0:0,0:0:0:0:
88,9,34721,6,0,L|73:163,1,140,4|8,0:0|0:0,0:0:0:0:
5,207,35368,2,0,P|70:238|142:199,1,140,0|0,0:0|0:0,0:0:0:0:
207,166,36016,6,0,B|209:269|209:269|250:228,1,140,8|0,0:0|0:0,0:0:0:0:
306,186,36663,2,0,P|383:186|423:248,1,140,0|0,0:0|0:0,0:0:0:0:
505,200,37311,2,0,L|507:121,1,70,2|0,0:0|0:0,0:0:0:0:
454,55,37742,1,8,0:0:0:0:
299,151,38174,6,0,P|223:169|169:136,1,140,2|8,0:0|0:0,0:0:0:0:
17,173,39037,2,0,L|24:252,1,70,2|0,0:0|0:0,0:0:0:0:
5,324,39469,2,0,P|66:300|95:310,1,70,10|0,0:0|0:0,0:0:0:0:
150,347,39901,6,0,P|209:358|295:337,1,140,2|10,0:0|0:0,0:0:0:0:
347,273,40548,1,0,0:0:0:0:
432,305,40764,2,0,L|444:138,1,140,2|10,0:0|0:0,0:0:0:0:
508,12,41627,6,0,L|357:20,1,140,4|8,0:0|0:0,0:0:0:0:
276,15,42275,2,0,P|242:59|283:145,1,140,2|0,0:0|0:0,0:0:0:0:
353,158,42922,1,10,0:0:0:0:
382,303,43354,6,0,L|287:317,1,70,0|0,0:0|0:0,0:0:0:0:
228,347,43786,2,0,L|158:336,1,70,0|0,0:0|0:0,0:0:0:0:
73,305,44217,2,0,P|59:263|73:232,1,70,0|0,0:0|0:0,0:0:0:0:
123,168,44649,2,0,P|137:126|123:95,1,70,0|0,0:0|0:0,0:0:0:0:
70,32,45081,6,0,L|204:28,2,105,2|2|2,0:0|0:0|0:0,0:0:0:0:
406,335,46807,6,0,L|413:226,1,83.9999974365235,4|2,0:0|0:0,0:0:0:0:
456,160,47239,2,0,L|449:51,1,83.9999974365235,8|0,0:0|0:0,0:0:0:0:
355,40,47671,2,0,L|162:34,1,167.999994873047,2|8,0:0|0:0,0:0:0:0:
86,41,48318,1,0,0:0:0:0:
18,116,48534,6,0,P|7:174|16:218,1,83.9999974365235,0|0,0:0|0:0,0:0:0:0:
53,289,48965,2,0,P|111:300|155:291,1,83.9999974365235,8|0,0:0|0:0,0:0:0:0:
220,242,49397,1,2,0:0:0:0:
242,143,49613,1,10,0:0:0:0:
214,45,49829,2,0,L|333:37,1,83.9999974365235,8|2,0:0|0:0,0:0:0:0:
398,29,50260,6,0,P|407:78|399:111,1,83.9999974365235,0|0,0:0|0:0,0:0:0:0:
353,201,50692,2,0,P|344:250|352:283,1,83.9999974365235,8|0,0:0|0:0,0:0:0:0:
428,348,51124,2,0,L|255:352,1,167.999994873047,2|8,0:0|0:0,0:0:0:0:
159,342,51771,1,0,0:0:0:0:
105,256,51987,6,0,L|94:169,1,83.9999974365235,6|0,0:0|0:0,0:0:0:0:
173,108,52419,2,0,L|184:21,1,83.9999974365235,14|0,0:0|0:0,0:0:0:0:
273,70,52850,1,6,0:0:0:0:
373,62,53066,1,10,0:0:0:0:
437,139,53282,2,0,L|450:254,1,83.9999974365235,12|2,0:0|0:0,0:0:0:0:
463,322,53714,6,0,B|343:313|343:313|379:359,1,167.999994873047,2|8,0:0|0:0,0:0:0:0:
271,342,54361,1,0,0:0:0:0:
234,248,54577,2,0,P|185:226|129:231,1,83.9999974365235,2|0,0:0|0:0,0:0:0:0:
87,299,55009,1,10,0:0:0:0:
27,217,55224,2,0,B|19:175|19:175|31:123,1,83.9999974365235,0|2,0:0|0:0,0:0:0:0:
125,104,55656,6,0,L|121:20,2,83.9999974365235,0|8|0,0:0|0:0|0:0,0:0:0:0:
173,192,56304,2,0,P|219:202|256:190,1,83.9999974365235,2|0,0:0|0:0,0:0:0:0:
333,132,56735,1,10,0:0:0:0:
425,136,56951,1,2,0:0:0:0:
473,224,57167,6,0,L|481:321,1,83.9999974365235,8|0,0:0|0:0,0:0:0:0:
383,338,57599,2,0,L|376:254,1,83.9999974365235,8|0,0:0|0:0,0:0:0:0:
279,225,58030,2,0,L|287:322,1,83.9999974365235,8|0,0:0|0:0,0:0:0:0:
190,343,58462,1,8,0:0:0:0:
117,273,58678,6,0,L|124:189,1,83.9999974365235,0|6,0:0|0:0,0:0:0:0:
93,93,59109,1,0,0:0:0:0:
175,35,59325,2,0,P|220:18|280:51,1,83.9999974365235,14|2,0:0|0:0,0:0:0:0:
286,59,59649,1,2,0:0:0:0:
286,59,59757,2,0,P|361:90|439:62,1,167.999994873047,2|12,0:0|0:0,0:0:0:0:
512,363,60620,6,0,L|417:371,1,83.9999974365235,2|0,0:0|0:0,0:0:0:0:
338,323,61052,2,0,L|254:315,1,83.9999974365235,8|0,0:0|0:0,0:0:0:0:
154,330,61483,1,2,0:0:0:0:
61,289,61699,1,2,0:0:0:0:
35,191,61915,2,0,L|43:81,1,83.9999974365235,8|2,0:0|0:0,0:0:0:0:
119,43,62347,6,0,L|125:126,1,83.9999974365235,2|0,0:0|0:0,0:0:0:0:
158,222,62778,2,0,P|220:257|255:246,1,83.9999974365235,8|0,0:0|0:0,0:0:0:0:
310,195,63210,1,2,0:0:0:0:
309,94,63426,1,2,0:0:0:0:
370,14,63642,2,0,P|428:18|457:40,1,83.9999974365235,8|2,0:0|0:0,0:0:0:0:
478,127,64073,6,0,L|470:247,1,83.9999974365235,2|0,0:0|0:0,0:0:0:0:
507,306,64505,2,0,L|387:298,1,83.9999974365235,8|0,0:0|0:0,0:0:0:0:
328,337,64937,2,0,L|336:217,2,83.9999974365235,2|2|8,0:0|0:0|0:0,0:0:0:0:
228,352,65584,2,0,P|178:335|131:351,1,83.9999974365235,2|6,0:0|0:0,0:0:0:0:
55,301,66016,6,0,L|49:193,2,83.9999974365235,0|12|0,0:0|0:0|0:0,0:0:0:0:
137,242,66663,2,0,P|195:224|242:243,1,83.9999974365235,6|2,0:0|0:0,0:0:0:0:
306,275,67095,2,0,B|347:278|347:278|389:259,1,83.9999974365235,14|2,0:0|0:0,0:0:0:0:
427,230,67419,1,0,0:0:0:0:
444,182,67527,6,0,L|349:174,1,83.9999974365235,6|0,0:0|0:0,0:0:0:0:
292,99,67959,2,0,L|208:106,1,83.9999974365235,8|0,0:0|0:0,0:0:0:0:
112,136,68390,1,2,0:0:0:0:
47,213,68606,1,2,0:0:0:0:
56,313,68822,2,0,L|166:305,1,83.9999974365235,8|2,0:0|0:0,0:0:0:0:
228,355,69254,6,0,L|234:271,1,83.9999974365235,2|0,0:0|0:0,0:0:0:0:
196,177,69685,2,0,P|258:142|293:153,1,83.9999974365235,8|0,0:0|0:0,0:0:0:0:
364,172,70117,1,2,0:0:0:0:
458,137,70333,1,2,0:0:0:0:
438,38,70548,2,0,P|377:12|341:14,1,83.9999974365235,8|2,0:0|0:0,0:0:0:0:
283,77,70980,6,0,L|191:82,1,83.9999974365235,2|0,0:0|0:0,0:0:0:0:
109,34,71412,2,0,L|17:29,1,83.9999974365235,8|0,0:0|0:0,0:0:0:0:
4,128,71843,1,2,0:0:0:0:
75,198,72059,2,0,L|57:307,2,83.9999974365235,2|8|2,0:0|0:0|0:0,0:0:0:0:
154,136,72706,6,0,P|200:125|238:145,1,83.9999974365235,6|0,0:0|0:0,0:0:0:0:
298,215,73138,2,0,P|336:229|376:218,1,83.9999974365235,14|2,0:0|0:0,0:0:0:0:
466,171,73570,2,0,L|475:274,1,83.9999974365235,6|0,0:0|0:0,0:0:0:0:
426,344,74001,2,0,B|380:359|380:359|323:353,1,83.9999974365235,14|2,0:0|0:0,0:0:0:0:
294,348,74325,1,0,0:0:0:0:
254,317,74433,6,0,L|264:221,1,83.9999974365235,6|0,0:0|0:0,0:0:0:0:
165,201,74865,2,0,L|156:117,1,83.9999974365235,8|0,0:0|0:0,0:0:0:0:
216,36,75296,1,2,0:0:0:0:
316,36,75512,1,2,0:0:0:0:
383,111,75728,2,0,L|374:194,1,83.9999974365235,8|2,0:0|0:0,0:0:0:0:
323,282,76160,6,0,P|381:299|410:285,1,83.9999974365235,2|0,0:0|0:0,0:0:0:0:
485,236,76591,2,0,L|476:139,1,83.9999974365235,8|0,0:0|0:0,0:0:0:0:
429,63,77023,1,2,0:0:0:0:
339,16,77239,1,2,0:0:0:0:
240,36,77455,2,0,L|243:149,1,83.9999974365235,8|2,0:0|0:0,0:0:0:0:
285,210,77886,6,0,P|222:219|181:199,1,83.9999974365235,2|0,0:0|0:0,0:0:0:0:
130,143,78318,2,0,P|89:135|48:146,1,83.9999974365235,10|2,0:0|0:0,0:0:0:0:
13,240,78750,1,2,0:0:0:0:
41,336,78965,1,2,0:0:0:0:
138,361,79181,2,0,L|241:358,1,83.9999974365235,8|2,0:0|0:0,0:0:0:0:
323,363,79613,6,0,L|310:245,2,83.9999974365235,6|0|12,0:0|0:0|0:0,0:0:0:0:
419,332,80260,1,2,0:0:0:0:
456,238,80476,2,0,L|463:121,1,83.9999974365235,6|2,0:0|0:0,0:0:0:0:
485,55,80908,2,0,B|439:69|439:69|368:62,1,83.9999974365235,12|2,0:0|0:0,0:0:0:0:
356,44,81232,1,0,0:0:0:0:
308,27,81340,6,0,P|253:21|219:42,1,83.9999974365235,6|0,0:0|0:0,0:0:0:0:
162,109,81771,2,0,L|171:206,1,83.9999974365235,8|0,0:0|0:0,0:0:0:0:
183,293,82203,1,2,0:0:0:0:
268,347,82419,1,2,0:0:0:0:
366,327,82635,2,0,L|363:214,1,83.9999974365235,8|2,0:0|0:0,0:0:0:0:
341,144,83066,6,0,L|441:133,1,83.9999974365235,2|0,0:0|0:0,0:0:0:0:
496,205,83498,2,0,P|508:258|500:291,1,83.9999974365235,8|0,0:0|0:0,0:0:0:0:
421,348,83930,1,2,0:0:0:0:
320,353,84145,1,2,0:0:0:0:
238,294,84361,2,0,L|229:181,1,83.9999974365235,8|2,0:0|0:0,0:0:0:0:
270,116,84793,6,0,P|215:99|180:121,1,83.9999974365235,2|0,0:0|0:0,0:0:0:0:
105,159,85224,2,0,P|65:169|28:151,1,83.9999974365235,8|0,0:0|0:0,0:0:0:0:
27,252,85656,2,0,L|27:351,2,83.9999974365235,2|2|8,0:0|0:0|0:0,0:0:0:0:
128,247,86304,1,2,0:0:0:0:
178,333,86519,6,0,P|239:314|287:331,1,83.9999974365235,6|0,0:0|0:0,0:0:0:0:
348,360,86951,2,0,P|389:361|427:343,1,83.9999974365235,12|2,0:0|0:0,0:0:0:0:
475,257,87383,1,6,0:0:0:0:
475,257,87491,1,0,0:0:0:0:
475,257,87599,1,0,0:0:0:0:
436,164,87814,2,0,P|369:148|333:161,1,83.9999974365235,12|2,0:0|0:0,0:0:0:0:
264,279,88246,5,4,0:0:0:0:
