osu file format v12

[General]
AudioFilename: D_VOR - dEKA.mp3
AudioLeadIn: 0
PreviewTime: 63304
Countdown: 0
SampleSet: Soft
StackLeniency: 0.7
Mode: 0
LetterboxInBreaks: 1
WidescreenStoryboard: 1

[Editor]
DistanceSpacing: 1
BeatDivisor: 2
GridSize: 4

[Metadata]
Title:dEKA
TitleUnicode:dEKA
Artist:D_VOR
ArtistUnicode:D_VOR
Creator:Tidek
Version:Standard
Source:
Tags:Bass Techno D_VOR Stepmania earsdestroyer
BeatmapID:284085
BeatmapSetID:108708

[Difficulty]
HPDrainRate:4
CircleSize:4
OverallDifficulty:5
ApproachRate:5
SliderMultiplier:0.69999990463257
SliderTickRate:1

[Events]
//Background and Video events
0,0,"bg.png",0,0
//Break Periods
2,100957,101899
//Storyboard Layer 0 (Background)
//Storyboard Layer 1 (Fail)
//Storyboard Layer 2 (Pass)
//Storyboard Layer 3 (Foreground)
//Storyboard Sound Samples
//Background Colour Transformations
3,100,163,162,255

[TimingPoints]
75,292.682926829268,4,1,0,100,1,0
4757,-133.333333333333,4,2,0,75,0,0
18806,-100,4,1,0,75,0,0
41635,-100,4,2,0,5,0,0
42221,-100,4,2,0,75,0,0
63294,-100,4,1,0,75,0,1
82026,-100,4,1,0,75,0,0
105440,-100,4,1,0,75,0,1
105587,-100,4,1,0,75,0,0
107782,-100,4,2,0,5,0,0

[Colours]
Combo1 : 192,192,192
Combo2 : 0,255,255
Combo3 : 0,0,255
Combo4 : 164,0,164

[HitObjects]
84,112,4757,1,0,0:0:0:0:
184,144,5343,1,0,0:0:0:0:
284,112,5928,1,0,0:0:0:0:
384,144,6514,2,0,L|436:112,2,52.4999948501586,0|2|0,0:0|0:0|0:0,0:0:0:0:
328,232,7684,5,0,0:0:0:0:
232,192,8270,1,0,0:0:0:0:
136,232,8855,2,0,L|136:288,2,52.4999948501586,0|2|0,0:0|0:0|0:0,0:0:0:0:
80,144,10026,5,0,0:0:0:0:
136,56,10611,1,0,0:0:0:0:
240,56,11196,2,0,L|296:56,2,52.4999948501586,0|2|0,0:0|0:0|0:0,0:0:0:0:
184,144,12367,5,0,0:0:0:0:
288,144,12953,1,0,0:0:0:0:
240,236,13538,2,0,L|240:300,2,52.4999948501586,0|2|0,0:0|0:0|0:0,0:0:0:0:
344,220,14709,6,0,B|400:228|400:228|456:220,1,104.999989700317
384,136,15879,1,0,0:0:0:0:
384,136,16172,1,2,0:0:0:0:
384,136,16465,1,0,0:0:0:0:
280,112,17050,5,0,0:0:0:0:
176,88,17635,1,0,0:0:0:0:
76,120,18221,1,0,0:0:0:0:
88,172,18514,1,2,0:0:0:0:
120,208,18806,6,0,P|176:200|232:208,1,104.999985694886
228,280,19684,2,0,P|284:288|332:280,1,104.999985694886
396,244,20562,2,0,P|412:216|408:176,1,69.999990463257,0|8,0:0|0:0,0:0:0:0:
390,134,21148,6,0,P|357:97|308:115,1,104.999985694886,0|0,0:0|0:0,0:0:0:0:
252,160,22026,1,0,0:0:0:0:
204,160,22318,2,0,L|140:208,1,69.9999952316285,0|8,0:0|0:0,0:0:0:0:
100,200,22904,2,0,L|44:144,1,69.9999952316285,0|8,0:0|0:0,0:0:0:0:
20,112,23489,6,0,B|4:160|4:160|4:216,1,104.999985694886
76,216,24367,2,0,B|76:264|76:264|52:320,1,104.999985694886
116,352,25245,2,0,P|148:376|188:384,2,69.9999952316285,0|8|0,0:0|0:0|0:0,0:0:0:0:
196,296,26416,5,0,0:0:0:0:
276,240,27001,2,0,P|300:224|324:176,1,69.999990463257,0|0,0:0|0:0,0:0:0:0:
348,148,27587,2,0,P|356:72|268:40,1,139.999980926514,0|8,0:0|0:0,0:0:0:0:
292,104,28611,6,0,L|212:176,1,104.999985694886
224,248,29489,1,0,0:0:0:0:
279,295,29928,2,0,B|256:320|216:320,1,69.999990463257,0|8,0:0|0:0,0:0:0:0:
168,320,30514,6,0,P|118:339|80:312,1,104.999985694886,0|0,0:0|0:0,0:0:0:0:
92,240,31392,1,0,0:0:0:0:
108,192,31684,2,0,P|140:180|172:192,1,69.999990463257,0|8,0:0|0:0,0:0:0:0:
216,216,32270,2,0,P|248:228|280:216,1,69.999990463257,0|8,0:0|0:0,0:0:0:0:
324,192,32855,6,0,B|388:168|388:168|404:120,1,104.999985694886
400,60,33733,2,0,B|388:25|388:25|324:1,1,104.999985694886
272,52,34611,2,0,L|192:52,2,69.9999952316285,0|8|0,0:0|0:0|0:0,0:0:0:0:
216,132,35782,5,0,0:0:0:0:
156,208,36367,2,0,P|164:248|196:272,1,69.999990463257,0|8,0:0|0:0,0:0:0:0:
232,280,36953,2,0,B|272:296|328:256|376:280,1,139.999990463257,0|4,0:0|0:0,0:0:0:0:
256,192,37831,12,0,41635,0:0:0:0:
32,192,42221,5,4,0:0:0:0:
104,124,42806,1,0,0:0:0:0:
172,192,43392,1,0,0:0:0:0:
104,264,43977,1,0,0:0:0:0:
200,292,44562,5,0,0:0:0:0:
264,368,45148,1,0,0:0:0:0:
332,296,45733,1,0,0:0:0:0:
264,224,46318,1,0,0:0:0:0:
356,188,46904,5,0,0:0:0:0:
356,92,47489,1,0,0:0:0:0:
452,92,48074,1,0,0:0:0:0:
452,188,48660,1,0,0:0:0:0:
376,248,49245,5,0,0:0:0:0:
376,348,49831,1,0,0:0:0:0:
472,348,50416,1,0,0:0:0:0:
472,248,51001,1,0,0:0:0:0:
404,176,51587,5,0,0:0:0:0:
308,176,52172,1,0,0:0:0:0:
356,92,52757,1,0,0:0:0:0:
256,92,53343,2,0,L|256:20,2,69.9999952316285
196,168,54514,6,0,L|236:204,2,34.9999952316285
116,108,55392,2,0,L|148:72,2,34.9999952316285
84,144,55977,1,0,0:0:0:0:
52,180,56270,1,0,0:0:0:0:
112,256,56855,6,0,L|160:320,1,69.9999952316285
236,256,57733,2,0,L|284:320,1,69.9999952316285
360,256,58611,2,0,L|384:288,2,34.9999952316285
232,308,59489,6,0,L|200:336,2,34.9999952316285
196,276,60074,1,0,0:0:0:0:
232,244,60367,2,0,L|288:184,1,69.999990463257
316,160,60953,1,0,0:0:0:0:
256,192,61245,12,0,62709,0:0:0:0:
92,124,63294,6,0,L|176:124,1,69.999990463257,0|8,0:0|0:0,0:0:0:0:
225,124,63879,2,0,P|237:156|225:188,1,69.999990463257,0|8,0:0|0:0,0:0:0:0:
160,188,64465,2,0,L|80:188,1,69.999990463257,0|8,0:0|0:0,0:0:0:0:
32,208,65050,1,0,0:0:0:0:
0,264,65343,1,8,0:0:0:0:
36,316,65635,6,0,L|108:316,1,69.9999952316285,0|8,0:0|0:0,0:0:0:0:
168,316,66221,2,0,L|240:316,1,69.9999952316285,0|8,0:0|0:0,0:0:0:0:
300,316,66806,2,0,P|348:292|356:252,1,69.9999952316285,0|8,0:0|0:0,0:0:0:0:
356,216,67392,2,0,P|348:176|244:112,1,139.999990463257,0|4,0:0|0:0,0:0:0:0:
232,72,68270,5,8,0:0:0:0:
188,116,68562,1,0,0:0:0:0:
144,72,68855,1,8,0:0:0:0:
100,116,69148,1,0,0:0:0:0:
56,72,69440,1,8,0:0:0:0:
12,116,69733,2,0,B|32:148|12:188|12:188|-4:224|12:260,1,139.999980926514,0|4,0:0|0:0,0:0:0:0:
60,284,70611,5,8,0:0:0:0:
108,244,70904,1,0,0:0:0:0:
156,284,71196,1,8,0:0:0:0:
204,244,71489,2,0,P|212:204|236:172,1,69.999990463257
268,132,72074,2,4,L|268:92,2,34.9999952316285
316,172,72660,5,0,0:0:0:0:
364,220,72953,2,0,L|428:268,1,69.9999952316285,8|0,0:0|0:0,0:0:0:0:
468,300,73538,1,8,0:0:0:0:
468,300,73831,2,0,L|412:356,1,69.9999952316285,0|8,0:0|0:0,0:0:0:0:
372,308,74416,1,0,0:0:0:0:
324,268,74709,1,8,0:0:0:0:
276,228,75001,6,0,B|236:236|236:236|196:228,1,69.9999952316285,4|8,0:0|0:0,0:0:0:0:
188,168,75587,1,0,0:0:0:0:
252,168,75879,1,8,0:0:0:0:
252,104,76172,1,0,0:0:0:0:
316,104,76465,1,8,0:0:0:0:
380,104,76757,2,0,P|452:136|476:216,1,139.999990463257,0|4,0:0|0:0,0:0:0:0:
476,248,77635,6,0,L|476:320,1,69.9999952316285,8|0,0:0|0:0,0:0:0:0:
412,320,78221,2,0,L|412:248,1,69.9999952316285,8|0,0:0|0:0,0:0:0:0:
348,248,78806,2,0,L|348:328,1,69.9999952316285,8|0,0:0|0:0,0:0:0:0:
284,320,79392,1,8,0:0:0:0:
220,320,79684,5,4,0:0:0:0:
76,184,80270,1,4,0:0:0:0:
220,56,80855,2,0,P|228:88|220:128,1,69.9999952316285,4|0,0:0|0:0,0:0:0:0:
208,200,81440,2,0,P|200:232|208:272,1,69.9999952316285,4|0,0:0|0:0,0:0:0:0:
264,320,82026,5,0,0:0:0:0:
336,288,82318,1,0,0:0:0:0:
376,220,82611,2,0,P|340:196|320:168,1,69.999990463257
252,144,83196,1,0,0:0:0:0:
180,176,83489,2,8,P|163:196|127:220,2,69.999990463257
108,148,84367,5,0,0:0:0:0:
164,96,84660,2,0,P|188:72|224:52,1,69.999990463257
296,56,85245,2,0,P|328:72|352:97,1,69.999990463257
304,156,85831,2,8,P|324:188|356:212,2,69.999990463257
252,100,86709,5,4,0:0:0:0:
188,144,87001,1,0,0:0:0:0:
148,208,87294,2,0,P|180:228|220:240,1,69.999990463257
288,236,87879,2,0,P|324:224|351:207,1,69.999990463257,0|8,0:0|0:0,0:0:0:0:
352,132,88465,2,8,L|352:60,1,69.999990463257
280,32,89050,5,0,0:0:0:0:
208,64,89343,2,0,L|208:140,1,69.999990463257
172,204,89928,1,0,0:0:0:0:
120,260,90221,2,0,P|84:232|84:196,1,69.999990463257,0|8,0:0|0:0,0:0:0:0:
80,132,90806,2,8,P|83:110|119:82,1,69.999990463257
180,36,91392,6,0,P|216:40|252:36,1,69.999990463257,4|0,0:0|0:0,0:0:0:0:
328,36,91977,2,0,P|364:40|400:36,1,69.999990463257
416,112,92562,2,0,L|348:140,1,69.999990463257,0|8,0:0|0:0,0:0:0:0:
284,172,93148,1,8,0:0:0:0:
284,172,93440,1,8,0:0:0:0:
212,140,93733,6,0,L|147:113,1,69.999990463257
100,176,94318,1,0,0:0:0:0:
56,240,94611,2,0,P|80:268|116:280,1,69.999990463257
172,236,95196,1,8,0:0:0:0:
228,288,95489,1,8,0:0:0:0:
284,236,95782,1,8,0:0:0:0:
352,268,96074,6,0,P|388:248|404:216,1,69.999990463257,4|0,0:0|0:0,0:0:0:0:
364,156,96660,2,0,L|296:132,1,69.999990463257
224,108,97245,1,0,0:0:0:0:
152,136,97538,2,8,L|85:159,2,69.999990463257
224,108,98416,5,4,0:0:0:0:
396,328,99587,1,4,0:0:0:0:
476,60,100757,1,4,0:0:0:0:
124,192,103099,6,0,B|164:216|200:192|200:192|236:160|276:160|312:192|312:192|348:216|384:192,2,279.999961853028,0|0|4,0:0|0:0|0:0,0:0:0:0:
256,192,105733,12,0,107782,0:0:0:0:
