osu file format v12

[General]
AudioFilename: D_VOR - dEKA.mp3
AudioLeadIn: 0
PreviewTime: 63304
Countdown: 0
SampleSet: Normal
StackLeniency: 0.7
Mode: 0
LetterboxInBreaks: 1
WidescreenStoryboard: 1

[Editor]
DistanceSpacing: 1.1
BeatDivisor: 2
GridSize: 4

[Metadata]
Title:dEKA
TitleUnicode:dEKA
Artist:D_VOR
ArtistUnicode:D_VOR
Creator:Tidek
Version:Light
Source:
Tags:Bass Techno D_VOR Stepmania earsdestroyer
BeatmapID:284082
BeatmapSetID:108708

[Difficulty]
HPDrainRate:2
CircleSize:3
OverallDifficulty:2
ApproachRate:3
SliderMultiplier:0.69999990463257
SliderTickRate:1

[Events]
//Background and Video events
0,0,"bg.png",0,0
//Break Periods
2,100958,101659
//Storyboard Layer 0 (Background)
//Storyboard Layer 1 (Fail)
//Storyboard Layer 2 (Pass)
//Storyboard Layer 3 (Foreground)
//Storyboard Sound Samples
//Background Colour Transformations
3,100,163,162,255

[TimingPoints]
75,292.682926829268,4,1,0,100,1,0
4757,-133.333333333333,4,2,0,75,0,0
18806,-100,4,1,0,75,0,0
41050,-100,4,2,0,5,0,0
42221,-100,4,2,0,75,0,0
63294,-100,4,1,0,75,0,1
82026,-100,4,1,0,75,0,0
105440,-100,4,2,0,75,0,1
105587,-100,4,2,0,75,0,0
107782,-100,4,2,0,5,0,0

[Colours]
Combo1 : 192,192,192
Combo2 : 0,255,255
Combo3 : 0,0,255
Combo4 : 164,0,164

[HitObjects]
192,192,4757,2,0,P|148:168|104:192,2,104.999989700317
308,192,6514,2,0,L|364:192,2,52.4999948501586,0|2|0,0:0|0:0|0:0,0:0:0:0:
180,76,7977,2,0,P|248:36|308:80,1,157.499984550476
312,192,9440,6,0,P|286:237|232:264,1,104.999989700317
136,312,10611,1,2,0:0:0:0:
48,236,11196,2,0,L|0:280,2,52.4999948501586,0|2|0,0:0|0:0|0:0,0:0:0:0:
136,160,12367,1,0,0:0:0:0:
224,236,12953,2,0,P|276:248|328:236,2,104.999989700317,2|0|0,0:0|0:0|0:0,0:0:0:0:
228,120,14709,6,0,B|252:68|252:68|320:68,1,104.999989700317
416,72,15879,2,0,L|464:32,2,52.4999948501586,0|2|0,0:0|0:0|0:0,0:0:0:0:
416,188,17050,2,0,B|348:164|325:300|232:272,1,209.999979400634
108,192,18806,6,0,P|68:144|108:88,2,139.999980926514,0|8|0,0:0|0:0|0:0,0:0:0:0:
252,136,20562,1,8,0:0:0:0:
322,168,20855,1,0,0:0:0:0:
380,220,21148,6,0,P|384:292|464:328,2,139.999980926514,0|8|0,0:0|0:0|0:0,0:0:0:0:
452,252,22611,2,0,P|448:180|390:142,1,139.999980926514,8|0,0:0|0:0,0:0:0:0:
344,88,23489,6,0,P|276:94|233:41,1,139.999980926514,0|8,0:0|0:0,0:0:0:0:
204,192,24660,1,0,0:0:0:0:
124,324,25245,2,0,P|90:307|76:268,2,69.999990463257,8|0|0,0:0|0:0|0:0,0:0:0:0:
272,276,26416,1,8,0:0:0:0:
392,172,27001,2,0,B|320:140|256:172|256:172|192:204|120:172,1,279.999961853028
8,244,28757,6,0,P|-12:176|8:108,1,139.999980926514,8|0,0:0|0:0,0:0:0:0:
156,76,29928,1,8,0:0:0:0:
232,92,30221,1,0,0:0:0:0:
308,108,30514,6,0,P|364:68|412:108,2,139.999980926514,0|8|0,0:0|0:0|0:0,0:0:0:0:
361,164,31977,2,0,B|399:199|323:264|361:304,1,139.999980926514,8|0,0:0|0:0,0:0:0:0:
376,372,32855,1,0,0:0:0:0:
224,372,33440,6,0,P|156:344|136:280,1,139.999980926514,8|0,0:0|0:0,0:0:0:0:
136,132,34611,2,0,P|96:116|84:84,2,69.999990463257,8|0|0,0:0|0:0|0:0,0:0:0:0:
292,132,35782,1,8,0:0:0:0:
400,240,36367,2,0,P|296:320|192:240,1,279.999961853028,0|4,0:0|0:0,0:0:0:0:
256,192,37831,12,0,41635,0:0:0:0:
44,192,42221,6,0,P|64:120|120:88,1,139.999980926514,4|0,0:0|0:0,0:0:0:0:
271,87,43392,2,0,P|329:124|344:191,1,139.999980926514
200,236,44562,2,0,P|208:304|268:336,1,139.999980926514
420,336,45733,2,0,P|478:303|486:236,1,139.999980926514
484,80,46904,5,0,0:0:0:0:
344,12,47489,1,0,0:0:0:0:
204,80,48074,2,0,P|152:36|116:80,1,139.999980926514
68,228,49245,5,0,0:0:0:0:
188,324,49831,1,0,0:0:0:0:
308,228,50416,2,0,P|351:273|395:228,1,139.999980926514
360,76,51587,6,0,B|396:28|464:128|500:76,2,139.999980926514
256,188,53343,1,0,0:0:0:0:
128,276,53928,2,0,P|204:336|284:276,2,209.999971389771
76,132,56270,1,0,0:0:0:0:
228,104,56855,6,0,P|253:77|288:64,1,69.999990463257
436,64,57733,2,0,P|468:77|491:103,1,69.999990463257
412,236,58611,5,0,0:0:0:0:
216,356,59489,1,0,0:0:0:0:
216,124,60367,2,0,B|180:108|144:124|144:124|112:140|76:124,1,139.999980926514
256,192,61245,12,0,62709,0:0:0:0:
56,192,63294,6,0,P|40:120|56:48,1,139.999980926514,4|8,0:0|0:0,0:0:0:0:
208,56,64465,2,0,L|352:56,1,139.999980926514,0|8,0:0|0:0,0:0:0:0:
424,56,65343,1,0,0:0:0:0:
500,56,65635,2,0,P|512:124|496:192,1,139.999980926514,4|8,0:0|0:0,0:0:0:0:
340,192,66806,2,0,B|303:223|237:154|200:192,2,139.999980926514,0|8|4,0:0|0:0|0:0,0:0:0:0:
456,292,68562,5,8,0:0:0:0:
308,328,69148,1,0,0:0:0:0:
160,292,69733,1,8,0:0:0:0:
92,256,70026,1,0,0:0:0:0:
56,188,70318,2,0,P|80:112|156:88,1,139.999980926514,4|8,0:0|0:0,0:0:0:0:
284,104,71489,1,4,0:0:0:0:
436,88,72074,2,0,P|476:76|488:52,2,69.999990463257,8|0|0,0:0|0:0|0:0,0:0:0:0:
376,232,73245,5,8,0:0:0:0:
276,348,73831,2,0,B|240:332|208:348|208:348|172:364|136:348,1,139.999980926514,0|8,0:0|0:0,0:0:0:0:
24,248,75001,1,4,0:0:0:0:
144,152,75587,1,8,0:0:0:0:
268,64,76172,2,0,P|336:60|344:120,2,139.999980926514,0|8|4,0:0|0:0|0:0,0:0:0:0:
188,196,77928,5,8,0:0:0:0:
264,328,78514,1,0,0:0:0:0:
412,292,79099,1,8,0:0:0:0:
448,224,79392,1,0,0:0:0:0:
472,152,79684,2,0,P|432:96|368:48,1,139.999980926514,4|12,0:0|0:0,0:0:0:0:
224,52,80855,2,0,P|160:100|120:156,1,139.999980926514,4|12,0:0|0:0,0:0:0:0:
80,296,82026,1,4,0:0:0:0:
412,104,83489,6,0,P|452:88|464:56,2,69.999990463257
368,168,84367,2,0,P|384:220|448:236,2,104.999985694886,0|8|0,0:0|0:0|0:0,0:0:0:0:
324,104,85538,6,0,P|304:72|264:56,1,69.999990463257
200,56,86123,2,0,P|169:72|152:102,1,69.999990463257
128,176,86709,2,0,P|88:152|76:88,2,104.999985694886,4|8|0,0:0|0:0|0:0,0:0:0:0:
204,176,87879,6,0,L|276:176,1,69.999990463257
352,176,88465,1,0,0:0:0:0:
352,176,88757,1,0,0:0:0:0:
408,228,89050,2,0,P|460:236|496:296,2,104.999985694886,0|8|0,0:0|0:0|0:0,0:0:0:0:
420,304,90221,6,0,P|428:352|468:364,2,69.999990463257
348,276,91099,1,0,0:0:0:0:
272,264,91392,2,0,P|248:332|192:332,2,104.999985694886,4|8|0,0:0|0:0|0:0,0:0:0:0:
268,188,92562,6,0,P|262:148|228:124,1,69.999990463257
164,128,93148,2,0,P|140:152|137:187,1,69.999990463257
136,264,93733,2,0,P|148:320|208:348,2,104.999985694886,0|8|0,0:0|0:0|0:0,0:0:0:0:
212,272,94904,5,0,0:0:0:0:
212,196,95196,2,0,P|203:159|212:120,1,69.999990463257
236,56,95782,1,0,0:0:0:0:
312,56,96074,2,0,B|348:12|408:36,2,104.999985694886,4|8|0,0:0|0:0|0:0,0:0:0:0:
372,104,97245,6,0,P|404:124|420:156,1,69.999990463257
348,180,97831,1,0,0:0:0:0:
272,180,98123,1,0,0:0:0:0:
308,248,98416,6,0,P|332:344|244:376,1,209.999971389771,4|0,0:0|0:0,0:0:0:0:
168,376,99587,2,0,P|70:336|96:244,1,209.999971389771,4|0,0:0|0:0,0:0:0:0:
148,204,100758,1,4,0:0:0:0:
152,112,103099,6,0,P|256:192|360:104,2,279.999961853028
256,192,105733,12,0,107782,0:0:0:0:
