osu file format v14

[General]
AudioFilename: D_VOR - dEKA.mp3
AudioLeadIn: 0
PreviewTime: 42220
Countdown: 0
SampleSet: Soft
StackLeniency: 0.7
Mode: 3
LetterboxInBreaks: 0
SpecialStyle: 0
WidescreenStoryboard: 1

[Editor]
DistanceSpacing: 1.5
BeatDivisor: 4
GridSize: 4
TimelineZoom: 1.7

[Metadata]
Title:dEKA
TitleUnicode:dEKA
Artist:D_VOR
ArtistUnicode:D_VOR
Creator:Tidek
Version:4K Edit
Source:
Tags:Bass Techno D_VOR Stepmania earsdestroyer SV
BeatmapID:978398
BeatmapSetID:108708

[Difficulty]
HPDrainRate:7
CircleSize:4
OverallDifficulty:10
ApproachRate:9
SliderMultiplier:1.39999990463257
SliderTickRate:1

[Events]
//Background and Video events
0,0,"bg.png",0,0
//Break Periods
//Storyboard Layer 0 (Background)
//Storyboard Layer 1 (Fail)
//Storyboard Layer 2 (Pass)
//Storyboard Layer 3 (Foreground)
//Storyboard Sound Samples

[TimingPoints]
74,292.682926829268,4,2,0,5,1,0
74,-200,4,2,0,5,0,0
18805,-26.3157894736842,4,2,0,5,0,0
18842,-1000,4,2,0,5,0,0
18952,-100,4,2,0,5,0,0
19098,-52.6315789473684,4,2,0,5,0,0
19171,-1000,4,2,0,5,0,0
19244,-100,4,2,0,5,0,0
19391,-52.6315789473684,4,2,0,5,0,0
19464,-1000,4,2,0,5,0,0
19537,-100,4,2,0,5,0,0
19683,-52.6315789473684,4,2,0,5,0,0
19756,-1000,4,2,0,5,0,0
19830,-100,4,2,0,5,0,0
19976,-52.6315789473684,4,2,0,5,0,0
20049,-1000,4,2,0,5,0,0
20122,-100,4,2,0,5,0,0
20269,-52.6315789473684,4,2,0,5,0,0
20342,-1000,4,2,0,5,0,0
20415,-100,4,2,0,5,0,0
20561,-52.6315789473684,4,2,0,5,0,0
20634,-1000,4,2,0,5,0,0
20708,-100,4,2,0,5,0,0
20854,-52.6315789473684,4,2,0,5,0,0
20927,-1000,4,2,0,5,0,0
21000,-52.6315789473684,4,2,0,5,0,0
21073,-1000,4,2,0,5,0,0
21147,-52.6315789473684,4,2,0,5,0,0
21220,-1000,4,2,0,5,0,0
21293,-100,4,2,0,5,0,0
21439,-52.6315789473684,4,2,0,5,0,0
21513,-1000,4,2,0,5,0,0
21586,-100,4,2,0,5,0,0
21732,-52.6315789473684,4,2,0,5,0,0
21805,-1000,4,2,0,5,0,0
21878,-100,4,2,0,5,0,0
22025,-52.6315789473684,4,2,0,5,0,0
22098,-1000,4,2,0,5,0,0
22171,-100,4,2,0,5,0,0
22317,-52.6315789473684,4,2,0,5,0,0
22391,-1000,4,2,0,5,0,0
22464,-52.6315789473684,4,2,0,5,0,0
22500,-1000,4,2,0,5,0,0
22537,-52.6315789473684,4,2,0,5,0,0
22573,-1000,4,2,0,5,0,0
22610,-52.6315789473684,4,2,0,5,0,0
22683,-1000,4,2,0,5,0,0
22756,-100,4,2,0,5,0,0
22903,-52.6315789473684,4,2,0,5,0,0
22976,-1000,4,2,0,5,0,0
23049,-52.6315789473684,4,2,0,5,0,0
23086,-1000,4,2,0,5,0,0
23122,-52.6315789473684,4,2,0,5,0,0
23159,-1000,4,2,0,5,0,0
23195,-52.6315789473684,4,2,0,5,0,0
23269,-1000,4,2,0,5,0,0
23342,-52.6315789473684,4,2,0,5,0,0
23415,-1000,4,2,0,5,0,0
23488,-52.6315789473684,4,2,0,5,0,0
23561,-1000,4,2,0,5,0,0
23634,-100,4,2,0,5,0,0
23781,-52.6315789473684,4,2,0,5,0,0
23854,-1000,4,2,0,5,0,0
23927,-100,4,2,0,5,0,0
24073,-52.6315789473684,4,2,0,5,0,0
24147,-1000,4,2,0,5,0,0
24220,-100,4,2,0,5,0,0
24366,-52.6315789473684,4,2,0,5,0,0
24439,-1000,4,2,0,5,0,0
24513,-100,4,2,0,5,0,0
24659,-52.6315789473684,4,2,0,5,0,0
24732,-1000,4,2,0,5,0,0
24805,-100,4,2,0,5,0,0
24952,-52.6315789473684,4,2,0,5,0,0
25025,-1000,4,2,0,5,0,0
25098,-100,4,2,0,5,0,0
25244,-52.6315789473684,4,2,0,5,0,0
25317,-1000,4,2,0,5,0,0
25391,-100,4,2,0,5,0,0
25537,-52.6315789473684,4,2,0,5,0,0
25610,-1000,4,2,0,5,0,0
25683,-52.6315789473684,4,2,0,5,0,0
25756,-1000,4,2,0,5,0,0
25830,-52.6315789473684,4,2,0,5,0,0
25903,-1000,4,2,0,5,0,0
25976,-100,4,2,0,5,0,0
26122,-52.6315789473684,4,2,0,5,0,0
26195,-1000,4,2,0,5,0,0
26269,-100,4,2,0,5,0,0
26415,-52.6315789473684,4,2,0,5,0,0
26488,-1000,4,2,0,5,0,0
26561,-100,4,2,0,5,0,0
26708,-52.6315789473684,4,2,0,5,0,0
26781,-1000,4,2,0,5,0,0
26854,-100,4,2,0,5,0,0
27000,-52.6315789473684,4,2,0,5,0,0
27073,-1000,4,2,0,5,0,0
27147,-52.6315789473684,4,2,0,5,0,0
27183,-1000,4,2,0,5,0,0
27220,-52.6315789473684,4,2,0,5,0,0
27256,-1000,4,2,0,5,0,0
27293,-52.6315789473684,4,2,0,5,0,0
27366,-1000,4,2,0,5,0,0
27439,-52.6315789473684,4,2,0,5,0,0
27513,-1000,4,2,0,5,0,0
27586,-26.3157894736842,4,2,0,5,0,0
27641,-1000,4,2,0,5,0,0
27805,-26.3157894736842,4,2,0,5,0,0
27860,-1000,4,2,0,5,0,0
28025,-52.6315789473684,4,2,0,5,0,0
28061,-1000,4,2,0,5,0,0
28098,-52.6315789473684,4,2,0,5,0,0
28134,-1000,4,2,0,5,0,0
28171,-52.6315789473684,4,2,0,5,0,0
28244,-1000,4,2,0,5,0,0
28317,-100,4,2,0,5,0,0
28464,-52.6315789473684,4,2,0,5,0,0
28537,-1000,4,2,0,5,0,0
28610,-100,4,2,0,5,0,0
28756,-52.6315789473684,4,2,0,5,0,0
28830,-1000,4,2,0,5,0,0
28903,-100,4,2,0,5,0,0
29049,-52.6315789473684,4,2,0,5,0,0
29122,-1000,4,2,0,5,0,0
29195,-100,4,2,0,5,0,0
29342,-52.6315789473684,4,2,0,5,0,0
29415,-1000,4,2,0,5,0,0
29488,-100,4,2,0,5,0,0
29634,-52.6315789473684,4,2,0,5,0,0
29708,-1000,4,2,0,5,0,0
29781,-100,4,2,0,5,0,0
29927,-52.6315789473684,4,2,0,5,0,0
30000,-1000,4,2,0,5,0,0
30073,-100,4,2,0,5,0,0
30220,-52.6315789473684,4,2,0,5,0,0
30293,-1000,4,2,0,5,0,0
30366,-52.6315789473684,4,2,0,5,0,0
30439,-1000,4,2,0,5,0,0
30513,-52.6315789473684,4,2,0,5,0,0
30586,-1000,4,2,0,5,0,0
30659,-100,4,2,0,5,0,0
30805,-52.6315789473684,4,2,0,5,0,0
30878,-1000,4,2,0,5,0,0
30952,-100,4,2,0,5,0,0
31098,-52.6315789473684,4,2,0,5,0,0
31171,-1000,4,2,0,5,0,0
31244,-100,4,2,0,5,0,0
31391,-52.6315789473684,4,2,0,5,0,0
31464,-1000,4,2,0,5,0,0
31537,-100,4,2,0,5,0,0
31683,-52.6315789473684,4,2,0,5,0,0
31756,-1000,4,2,0,5,0,0
31830,-52.6315789473684,4,2,0,5,0,0
31866,-1000,4,2,0,5,0,0
31903,-52.6315789473684,4,2,0,5,0,0
31939,-1000,4,2,0,5,0,0
31976,-52.6315789473684,4,2,0,5,0,0
32049,-1000,4,2,0,5,0,0
32122,-100,4,2,0,5,0,0
32269,-52.6315789473684,4,2,0,5,0,0
32342,-1000,4,2,0,5,0,0
32415,-52.6315789473684,4,2,0,5,0,0
32452,-1000,4,2,0,5,0,0
32488,-52.6315789473684,4,2,0,5,0,0
32525,-1000,4,2,0,5,0,0
32561,-52.6315789473684,4,2,0,5,0,0
32634,-1000,4,2,0,5,0,0
32708,-52.6315789473684,4,2,0,5,0,0
32781,-1000,4,2,0,5,0,0
32854,-52.6315789473684,4,2,0,5,0,0
32927,-1000,4,2,0,5,0,0
33000,-100,4,2,0,5,0,0
33147,-52.6315789473684,4,2,0,5,0,0
33220,-1000,4,2,0,5,0,0
33293,-100,4,2,0,5,0,0
33439,-52.6315789473684,4,2,0,5,0,0
33513,-1000,4,2,0,5,0,0
33586,-100,4,2,0,5,0,0
33732,-52.6315789473684,4,2,0,5,0,0
33805,-1000,4,2,0,5,0,0
33878,-100,4,2,0,5,0,0
34025,-52.6315789473684,4,2,0,5,0,0
34098,-1000,4,2,0,5,0,0
34171,-100,4,2,0,5,0,0
34317,-52.6315789473684,4,2,0,5,0,0
34391,-1000,4,2,0,5,0,0
34464,-100,4,2,0,5,0,0
34610,-52.6315789473684,4,2,0,5,0,0
34683,-1000,4,2,0,5,0,0
34756,-100,4,2,0,5,0,0
34903,-52.6315789473684,4,2,0,5,0,0
34976,-1000,4,2,0,5,0,0
35049,-52.6315789473684,4,2,0,5,0,0
35122,-1000,4,2,0,5,0,0
35195,-52.6315789473684,4,2,0,5,0,0
35269,-1000,4,2,0,5,0,0
35342,-100,4,2,0,5,0,0
35488,-52.6315789473684,4,2,0,5,0,0
35561,-1000,4,2,0,5,0,0
35634,-100,4,2,0,5,0,0
35781,-52.6315789473684,4,2,0,5,0,0
35854,-1000,4,2,0,5,0,0
35927,-100,4,2,0,5,0,0
36073,-52.6315789473684,4,2,0,5,0,0
36147,-1000,4,2,0,5,0,0
36220,-100,4,2,0,5,0,0
36366,-52.6315789473684,4,2,0,5,0,0
36439,-1000,4,2,0,5,0,0
36513,-52.6315789473684,4,2,0,5,0,0
36549,-1000,4,2,0,5,0,0
36586,-52.6315789473684,4,2,0,5,0,0
36622,-1000,4,2,0,5,0,0
36659,-52.6315789473684,4,2,0,5,0,0
36732,-1000,4,2,0,5,0,0
36805,-52.6315789473684,4,2,0,5,0,0
36878,-1000,4,2,0,5,0,0
36952,-26.3157894736842,4,2,0,5,0,0
37006,-1000,4,2,0,5,0,0
37171,-26.3157894736842,4,2,0,5,0,0
37226,-1000,4,2,0,5,0,0
37391,-26.3157894736842,4,2,0,5,0,0
37427,-1000,4,2,0,5,0,0
37537,-400,4,2,0,5,0,0
41050,585.365853658537,4,2,0,5,1,0
41050,-26.3157894736842,4,2,0,5,0,0
41068,-1000,4,2,0,5,0,0
41123,-26.3157894736842,4,2,0,5,0,0
41142,-1000,4,2,0,5,0,0
41196,-26.3157894736842,4,2,0,5,0,0
41215,-1000,4,2,0,5,0,0
41270,-26.3157894736842,4,2,0,5,0,0
41288,-1000,4,2,0,5,0,0
41343,-26.3157894736842,4,2,0,5,0,0
41361,-1000,4,2,0,5,0,0
41416,-26.3157894736842,4,2,0,5,0,0
41434,-1000,4,2,0,5,0,0
41489,-26.3157894736842,4,2,0,5,0,0
41507,-1000,4,2,0,5,0,0
41562,-26.3157894736842,4,2,0,5,0,0
41581,-1000,4,2,0,5,0,0
41635,-26.3157894736842,4,2,0,5,0,0
41654,-1000,4,2,0,5,0,0
41709,-26.3157894736842,4,2,0,5,0,0
41727,-1000,4,2,0,5,0,0
41782,-26.3157894736842,4,2,0,5,0,0
41800,-1000,4,2,0,5,0,0
41855,-26.3157894736842,4,2,0,5,0,0
41873,-1000,4,2,0,5,0,0
41928,-26.3157894736842,4,2,0,5,0,0
41946,-1000,4,2,0,5,0,0
42001,-26.3157894736842,4,2,0,5,0,0
42020,-1000,4,2,0,5,0,0
42074,-26.3157894736842,4,2,0,5,0,0
42093,-1000,4,2,0,5,0,0
42148,-26.3157894736842,4,2,0,5,0,0
42166,-1000,4,2,0,5,0,0
42220,2341.46341463415,4,2,0,5,1,0
42220,-100,4,2,0,5,0,0
52756,-52.6315789473684,4,2,0,5,0,0
52902,-68.9655172413793,4,2,0,5,0,0
53049,-181.818181818182,4,2,0,5,0,0
53195,-1000,4,2,0,5,0,0
53341,-100,4,2,0,5,0,0
53927,-52.6315789473684,4,2,0,5,0,0
54073,-68.9655172413793,4,2,0,5,0,0
54220,-181.818181818182,4,2,0,5,0,0
54366,-1000,4,2,0,5,0,0
54512,-100,4,2,0,5,0,0
54805,-52.6315789473684,4,2,0,5,0,0
54951,-68.9655172413793,4,2,0,5,0,0
55098,-181.818181818182,4,2,0,5,0,0
55244,-1000,4,2,0,5,0,0
55390,-100,4,2,0,5,0,0
56268,-52.6315789473684,4,2,0,5,0,0
56415,-68.9655172413793,4,2,0,5,0,0
56561,-181.818181818182,4,2,0,5,0,0
56707,-1000,4,2,0,5,0,0
56854,-100,4,2,0,5,0,0
57146,-52.6315789473684,4,2,0,5,0,0
57293,-68.9655172413793,4,2,0,5,0,0
57439,-181.818181818182,4,2,0,5,0,0
57585,-1000,4,2,0,5,0,0
57732,-100,4,2,0,5,0,0
58024,-52.6315789473684,4,2,0,5,0,0
58171,-68.9655172413793,4,2,0,5,0,0
58317,-181.818181818182,4,2,0,5,0,0
58463,-1000,4,2,0,5,0,0
58610,-100,4,2,0,5,0,0
58902,-52.6315789473684,4,2,0,5,0,0
59049,-68.9655172413793,4,2,0,5,0,0
59195,-181.818181818182,4,2,0,5,0,0
59341,-1000,4,2,0,5,0,0
59488,-100,4,2,0,5,0,0
60951,600000000.571429,4,2,0,5,1,0
60951,-133.333333333333,4,2,0,5,0,0
63292,6,4,2,0,5,1,0
63293,292.682926829268,4,2,0,5,1,0
63293,-52.6315789473684,4,2,0,5,0,1
63439,-1000,4,2,0,5,0,1
63585,-100,4,2,0,5,0,1
65634,-52.6315789473684,4,2,0,5,0,1
65780,-1000,4,2,0,5,0,1
65927,-100,4,2,0,5,0,1
67390,-52.6315789473684,4,2,0,5,0,1
67500,-1000,4,2,0,5,0,1
67610,-52.6315789473684,4,2,0,5,0,1
67719,-1000,4,2,0,5,0,1
67829,-52.6315789473684,4,2,0,5,0,1
67902,-1000,4,2,0,5,0,1
67975,-52.6315789473684,4,2,0,5,0,1
68122,-1000,4,2,0,5,0,1
68268,-100,4,2,0,5,0,1
70317,-52.6315789473684,4,2,0,5,0,1
70463,-1000,4,2,0,5,0,1
70610,-100,4,2,0,5,0,1
71488,-52.6315789473684,4,2,0,5,0,1
71634,-1000,4,2,0,5,0,1
71780,-100,4,2,0,5,0,1
72073,-52.6315789473684,4,2,0,5,0,1
72146,-1000,4,2,0,5,0,1
72219,-52.6315789473684,4,2,0,5,0,1
72292,-1000,4,2,0,5,0,1
72366,-52.6315789473684,4,2,0,5,0,1
72439,-1000,4,2,0,5,0,1
72512,-52.6315789473684,4,2,0,5,0,1
72585,-1000,4,2,0,5,0,1
72658,-52.6315789473684,4,2,0,5,0,1
72805,-1000,4,2,0,5,0,1
72951,-100,4,2,0,5,0,1
75000,-52.6315789473684,4,2,0,5,0,1
75146,-1000,4,2,0,5,0,1
75292,-100,4,2,0,5,0,1
76756,-52.6315789473684,4,2,0,5,0,1
76866,-1000,4,2,0,5,0,1
76975,-52.6315789473684,4,2,0,5,0,1
77085,-1000,4,2,0,5,0,1
77195,-52.6315789473684,4,2,0,5,0,1
77268,-1000,4,2,0,5,0,1
77341,-52.6315789473684,4,2,0,5,0,1
77488,-1000,4,2,0,5,0,1
77634,-100,4,2,0,5,0,1
79683,-52.6315789473684,4,2,0,5,0,1
79829,-1000,4,2,0,5,0,1
79975,-100,4,2,0,5,0,1
80268,-52.6315789473684,4,2,0,5,0,1
80414,-1000,4,2,0,5,0,1
80561,-100,4,2,0,5,0,1
80853,-52.6315789473684,4,2,0,5,0,1
80890,-1000,4,2,0,5,0,1
80927,-52.6315789473684,4,2,0,5,0,1
80963,-1000,4,2,0,5,0,1
81000,-52.6315789473684,4,2,0,5,0,1
81036,-1000,4,2,0,5,0,1
81073,-52.6315789473684,4,2,0,5,0,1
81110,-1000,4,2,0,5,0,1
81146,-52.6315789473684,4,2,0,5,0,1
81219,-1000,4,2,0,5,0,1
81292,-52.6315789473684,4,2,0,5,0,1
81366,-1000,4,2,0,5,0,1
81439,-52.6315789473684,4,2,0,5,0,1
81475,-1000,4,2,0,5,0,1
81512,-52.6315789473684,4,2,0,5,0,1
81549,-1000,4,2,0,5,0,1
81585,-52.6315789473684,4,2,0,5,0,1
81658,-1000,4,2,0,5,0,1
81732,-52.6315789473684,4,2,0,5,0,1
81878,-1000,4,2,0,5,0,1
82024,-13.1578947368421,4,2,0,5,0,0
82042,-1000,4,2,0,5,0,0
82171,-13.1578947368421,4,2,0,5,0,0
82189,-1000,4,2,0,5,0,0
82317,-13.1578947368421,4,2,0,5,0,0
82335,-1000,4,2,0,5,0,0
82463,-13.1578947368421,4,2,0,5,0,0
82482,-1000,4,2,0,5,0,0
82610,-13.1578947368421,4,2,0,5,0,0
82628,-1000,4,2,0,5,0,0
82756,-13.1578947368421,4,2,0,5,0,0
82774,-1000,4,2,0,5,0,0
82902,-13.1578947368421,4,2,0,5,0,0
82921,-1000,4,2,0,5,0,0
83049,-13.1578947368421,4,2,0,5,0,0
83067,-1000,4,2,0,5,0,0
83195,-13.1578947368421,4,2,0,5,0,0
83213,-1000,4,2,0,5,0,0
83341,-13.1578947368421,4,2,0,5,0,0
83360,-1000,4,2,0,5,0,0
83488,146.341463414634,4,2,0,5,1,0
83488,-10,4,2,0,5,0,0
83524,-833.333333333333,4,2,0,5,0,0
83561,-200,4,2,0,5,0,0
83780,-10,4,2,0,5,0,0
83817,-833.333333333333,4,2,0,5,0,0
83853,-200,4,2,0,5,0,0
84073,-10,4,2,0,5,0,0
84109,-833.333333333333,4,2,0,5,0,0
84146,-200,4,2,0,5,0,0
84366,292.682926829268,4,2,0,5,1,0
84366,-13.1578947368421,4,2,0,5,0,0
84384,-1000,4,2,0,5,0,0
84512,-13.1578947368421,4,2,0,5,0,0
84530,-1000,4,2,0,5,0,0
84658,-13.1578947368421,4,2,0,5,0,0
84676,-1000,4,2,0,5,0,0
84805,-13.1578947368421,4,2,0,5,0,0
84823,-1000,4,2,0,5,0,0
84951,-13.1578947368421,4,2,0,5,0,0
84969,-1000,4,2,0,5,0,0
85097,-13.1578947368421,4,2,0,5,0,0
85116,-1000,4,2,0,5,0,0
85244,-13.1578947368421,4,2,0,5,0,0
85262,-1000,4,2,0,5,0,0
85390,-13.1578947368421,4,2,0,5,0,0
85408,-1000,4,2,0,5,0,0
85536,-13.1578947368421,4,2,0,5,0,0
85555,-1000,4,2,0,5,0,0
85683,-13.1578947368421,4,2,0,5,0,0
85701,-1000,4,2,0,5,0,0
85829,146.341463414634,4,2,0,5,1,0
85829,-10,4,2,0,5,0,0
85865,-833.333333333333,4,2,0,5,0,0
85902,-200,4,2,0,5,0,0
86121,-10,4,2,0,5,0,0
86158,-833.333333333333,4,2,0,5,0,0
86194,-200,4,2,0,5,0,0
86414,-10,4,2,0,5,0,0
86450,-833.333333333333,4,2,0,5,0,0
86487,-200,4,2,0,5,0,0
86707,292.682926829268,4,2,0,5,1,0
86707,-13.1578947368421,4,2,0,5,0,0
86725,-1000,4,2,0,5,0,0
86853,-13.1578947368421,4,2,0,5,0,0
86871,-1000,4,2,0,5,0,0
86999,-13.1578947368421,4,2,0,5,0,0
87017,-1000,4,2,0,5,0,0
87146,-13.1578947368421,4,2,0,5,0,0
87164,-1000,4,2,0,5,0,0
87292,-13.1578947368421,4,2,0,5,0,0
87310,-1000,4,2,0,5,0,0
87438,-13.1578947368421,4,2,0,5,0,0
87457,-1000,4,2,0,5,0,0
87585,-13.1578947368421,4,2,0,5,0,0
87603,-1000,4,2,0,5,0,0
87731,-13.1578947368421,4,2,0,5,0,0
87749,-1000,4,2,0,5,0,0
87877,-13.1578947368421,4,2,0,5,0,0
87896,-1000,4,2,0,5,0,0
88024,-13.1578947368421,4,2,0,5,0,0
88042,-1000,4,2,0,5,0,0
88170,146.341463414634,4,2,0,5,1,0
88170,-10,4,2,0,5,0,0
88206,-833.333333333333,4,2,0,5,0,0
88243,-200,4,2,0,5,0,0
88462,-10,4,2,0,5,0,0
88499,-833.333333333333,4,2,0,5,0,0
88535,-200,4,2,0,5,0,0
88755,-10,4,2,0,5,0,0
88791,-833.333333333333,4,2,0,5,0,0
88828,-200,4,2,0,5,0,0
89048,292.682926829268,4,2,0,5,1,0
89048,-13.1578947368421,4,2,0,5,0,0
89066,-1000,4,2,0,5,0,0
89194,-13.1578947368421,4,2,0,5,0,0
89212,-1000,4,2,0,5,0,0
89340,-13.1578947368421,4,2,0,5,0,0
89358,-1000,4,2,0,5,0,0
89487,-13.1578947368421,4,2,0,5,0,0
89505,-1000,4,2,0,5,0,0
89633,-13.1578947368421,4,2,0,5,0,0
89651,-1000,4,2,0,5,0,0
89779,-13.1578947368421,4,2,0,5,0,0
89798,-1000,4,2,0,5,0,0
89926,-13.1578947368421,4,2,0,5,0,0
89944,-1000,4,2,0,5,0,0
90072,-13.1578947368421,4,2,0,5,0,0
90090,-1000,4,2,0,5,0,0
90218,-13.1578947368421,4,2,0,5,0,0
90237,-1000,4,2,0,5,0,0
90365,-13.1578947368421,4,2,0,5,0,0
90383,-1000,4,2,0,5,0,0
90511,146.341463414634,4,2,0,5,1,0
90511,-10,4,2,0,5,0,0
90547,-833.333333333333,4,2,0,5,0,0
90584,-200,4,2,0,5,0,0
90803,-10,4,2,0,5,0,0
90840,-833.333333333333,4,2,0,5,0,0
90876,-200,4,2,0,5,0,0
91096,-10,4,2,0,5,0,0
91132,-833.333333333333,4,2,0,5,0,0
91169,-200,4,2,0,5,0,0
91389,292.682926829268,4,2,0,5,1,0
91389,-13.1578947368421,4,2,0,5,0,0
91407,-1000,4,2,0,5,0,0
91535,-13.1578947368421,4,2,0,5,0,0
91553,-1000,4,2,0,5,0,0
91681,-13.1578947368421,4,2,0,5,0,0
91699,-1000,4,2,0,5,0,0
91828,-13.1578947368421,4,2,0,5,0,0
91846,-1000,4,2,0,5,0,0
91974,-13.1578947368421,4,2,0,5,0,0
91992,-1000,4,2,0,5,0,0
92120,-13.1578947368421,4,2,0,5,0,0
92139,-1000,4,2,0,5,0,0
92267,-13.1578947368421,4,2,0,5,0,0
92285,-1000,4,2,0,5,0,0
92413,-13.1578947368421,4,2,0,5,0,0
92431,-1000,4,2,0,5,0,0
92559,-13.1578947368421,4,2,0,5,0,0
92578,-1000,4,2,0,5,0,0
92706,-13.1578947368421,4,2,0,5,0,0
92724,-1000,4,2,0,5,0,0
92852,146.341463414634,4,2,0,5,1,0
92852,-10,4,2,0,5,0,0
92888,-833.333333333333,4,2,0,5,0,0
92925,-200,4,2,0,5,0,0
93144,-10,4,2,0,5,0,0
93181,-833.333333333333,4,2,0,5,0,0
93217,-200,4,2,0,5,0,0
93437,-10,4,2,0,5,0,0
93473,-833.333333333333,4,2,0,5,0,0
93510,-200,4,2,0,5,0,0
93730,292.682926829268,4,2,0,5,1,0
93730,-13.1578947368421,4,2,0,5,0,0
93748,-1000,4,2,0,5,0,0
93876,-13.1578947368421,4,2,0,5,0,0
93894,-1000,4,2,0,5,0,0
94022,-13.1578947368421,4,2,0,5,0,0
94040,-1000,4,2,0,5,0,0
94169,-13.1578947368421,4,2,0,5,0,0
94187,-1000,4,2,0,5,0,0
94315,-13.1578947368421,4,2,0,5,0,0
94333,-1000,4,2,0,5,0,0
94461,-13.1578947368421,4,2,0,5,0,0
94480,-1000,4,2,0,5,0,0
94608,-13.1578947368421,4,2,0,5,0,0
94626,-1000,4,2,0,5,0,0
94754,-13.1578947368421,4,2,0,5,0,0
94772,-1000,4,2,0,5,0,0
94900,-13.1578947368421,4,2,0,5,0,0
94919,-1000,4,2,0,5,0,0
95047,-13.1578947368421,4,2,0,5,0,0
95065,-1000,4,2,0,5,0,0
95193,146.341463414634,4,2,0,5,1,0
95193,-10,4,2,0,5,0,0
95229,-833.333333333333,4,2,0,5,0,0
95266,-200,4,2,0,5,0,0
95485,-10,4,2,0,5,0,0
95522,-833.333333333333,4,2,0,5,0,0
95558,-200,4,2,0,5,0,0
95778,-10,4,2,0,5,0,0
95814,-833.333333333333,4,2,0,5,0,0
95851,-200,4,2,0,5,0,0
96071,292.682926829268,4,2,0,5,1,0
96071,-13.1578947368421,4,2,0,5,0,0
96089,-1000,4,2,0,5,0,0
96217,-13.1578947368421,4,2,0,5,0,0
96235,-1000,4,2,0,5,0,0
96363,-13.1578947368421,4,2,0,5,0,0
96381,-1000,4,2,0,5,0,0
96510,-13.1578947368421,4,2,0,5,0,0
96528,-1000,4,2,0,5,0,0
96656,-13.1578947368421,4,2,0,5,0,0
96674,-1000,4,2,0,5,0,0
96802,-13.1578947368421,4,2,0,5,0,0
96821,-1000,4,2,0,5,0,0
96949,-13.1578947368421,4,2,0,5,0,0
96967,-1000,4,2,0,5,0,0
97095,-13.1578947368421,4,2,0,5,0,0
97113,-1000,4,2,0,5,0,0
97241,-13.1578947368421,4,2,0,5,0,0
97260,-1000,4,2,0,5,0,0
97388,-13.1578947368421,4,2,0,5,0,0
97406,-1000,4,2,0,5,0,0
97534,146.341463414634,4,2,0,5,1,0
97534,-10,4,2,0,5,0,0
97570,-833.333333333333,4,2,0,5,0,0
97607,-200,4,2,0,5,0,0
97826,-10,4,2,0,5,0,0
97863,-833.333333333333,4,2,0,5,0,0
97899,-200,4,2,0,5,0,0
98119,-10,4,2,0,5,0,0
98155,-833.333333333333,4,2,0,5,0,0
98192,-200,4,2,0,5,0,0
98412,292.682926829268,4,2,0,5,1,0
98412,-13.1578947368421,4,2,0,5,0,0
98430,-1000,4,2,0,5,0,0
98558,-13.1578947368421,4,2,0,5,0,0
98576,-1000,4,2,0,5,0,0
98704,-13.1578947368421,4,2,0,5,0,0
98722,-1000,4,2,0,5,0,0
98851,-13.1578947368421,4,2,0,5,0,0
98869,-1000,4,2,0,5,0,0
98997,-13.1578947368421,4,2,0,5,0,0
99015,-1000,4,2,0,5,0,0
99143,-13.1578947368421,4,2,0,5,0,0
99162,-1000,4,2,0,5,0,0
99290,-13.1578947368421,4,2,0,5,0,0
99308,-1000,4,2,0,5,0,0
99436,-13.1578947368421,4,2,0,5,0,0
99454,-1000,4,2,0,5,0,0
99582,-13.1578947368421,4,2,0,5,0,0
99601,-1000,4,2,0,5,0,0
99729,-13.1578947368421,4,2,0,5,0,0
99747,-1000,4,2,0,5,0,0
99875,146.341463414634,4,2,0,5,1,0
99875,-10,4,2,0,5,0,0
99911,-833.333333333333,4,2,0,5,0,0
99948,-200,4,2,0,5,0,0
100167,-10,4,2,0,5,0,0
100204,-833.333333333333,4,2,0,5,0,0
100240,-200,4,2,0,5,0,0
100460,-10,4,2,0,5,0,0
100496,-833.333333333333,4,2,0,5,0,0
100533,-200,4,2,0,5,0,0
100753,585.365853658537,4,2,0,5,1,0
103094,-52.6315789473684,4,2,0,5,0,0
103131,-1000,4,2,0,5,0,0
103167,-52.6315789473684,4,2,0,5,0,0
103204,-1000,4,2,0,5,0,0
103240,-100,4,2,0,5,0,0
103826,-52.6315789473684,4,2,0,5,0,0
103862,-1000,4,2,0,5,0,0
103899,-52.6315789473684,4,2,0,5,0,0
103935,-1000,4,2,0,5,0,0
103972,-100,4,2,0,5,0,0
104118,-52.6315789473684,4,2,0,5,0,0
104155,-1000,4,2,0,5,0,0
104192,-52.6315789473684,4,2,0,5,0,0
104228,-1000,4,2,0,5,0,0
104265,-100,4,2,0,5,0,0
104996,-83.3333333333333,4,2,0,5,0,0
105033,-71.4285714285714,4,2,0,5,0,0
105070,-62.5,4,2,0,5,0,0
105106,-55.5555555555556,4,2,0,5,0,0
105143,-50,4,2,0,5,0,0
105179,-45.4545454545455,4,2,0,5,0,0
105216,-41.6666666666667,4,2,0,5,0,0
105253,-38.4615384615385,4,2,0,5,0,0
105289,-35.7142857142857,4,2,0,5,0,0
105326,-33.3333333333333,4,2,0,5,0,0
105362,-31.25,4,2,0,5,0,0
105399,-29.4117647058824,4,2,0,5,0,0
105435,-200,4,2,0,5,0,0

[Colours]
Combo1 : 192,192,192
Combo2 : 0,255,255
Combo3 : 0,0,255
Combo4 : 128,0,128

[HitObjects]
64,192,74,5,0,0:0:0:0:
448,192,74,1,0,0:0:0:0:
64,192,513,1,0,0:0:0:0:
320,192,952,1,0,0:0:0:0:
192,192,1098,1,0,0:0:0:0:
320,192,1244,1,0,0:0:0:0:
64,192,1683,1,0,0:0:0:0:
448,192,1683,1,0,0:0:0:0:
320,192,2122,1,0,0:0:0:0:
64,192,2415,1,0,0:0:0:0:
448,192,2415,1,0,0:0:0:0:
64,192,2854,1,0,0:0:0:0:
64,192,3293,1,0,0:0:0:0:
320,192,3586,1,0,0:0:0:0:
192,192,3732,1,0,0:0:0:0:
320,192,3878,1,0,0:0:0:0:
64,192,4171,1,0,0:0:0:0:
320,192,4464,1,0,0:0:0:0:
64,192,4756,1,0,0:0:0:0:
448,192,4756,1,0,0:0:0:0:
448,192,4903,1,0,0:0:0:0:
192,192,5195,1,0,0:0:0:0:
192,192,5342,1,0,0:0:0:0:
320,192,5634,1,0,0:0:0:0:
320,192,5781,1,0,0:0:0:0:
64,192,6073,1,0,0:0:0:0:
64,192,6220,1,0,0:0:0:0:
448,192,6513,1,0,0:0:0:0:
320,192,6805,1,0,0:0:0:0:
64,192,7098,1,0,0:0:0:0:
448,192,7098,1,0,0:0:0:0:
64,192,7244,1,0,0:0:0:0:
320,192,7537,1,0,0:0:0:0:
320,192,7683,1,0,0:0:0:0:
192,192,7976,1,0,0:0:0:0:
192,192,8122,1,0,0:0:0:0:
448,192,8415,1,0,0:0:0:0:
448,192,8561,1,0,0:0:0:0:
64,192,8854,1,0,0:0:0:0:
192,192,9147,1,0,0:0:0:0:
448,192,9439,1,0,0:0:0:0:
320,192,9513,1,0,0:0:0:0:
64,192,9586,1,0,0:0:0:0:
320,192,9732,1,0,0:0:0:0:
64,192,9805,1,0,0:0:0:0:
448,192,9952,1,0,0:0:0:0:
320,192,10025,1,0,0:0:0:0:
192,192,10098,1,0,0:0:0:0:
64,192,10171,1,0,0:0:0:0:
448,192,10317,1,0,0:0:0:0:
320,192,10464,1,0,0:0:0:0:
192,192,10537,1,0,0:0:0:0:
448,192,10756,1,0,0:0:0:0:
320,192,10903,1,0,0:0:0:0:
64,192,11159,1,0,0:0:0:0:
448,192,11452,1,0,0:0:0:0:
320,192,11598,1,0,0:0:0:0:
192,192,11671,1,0,0:0:0:0:
64,192,11744,1,0,0:0:0:0:
448,192,12037,1,0,0:0:0:0:
320,192,12183,1,0,0:0:0:0:
192,192,12256,1,0,0:0:0:0:
448,192,12769,1,0,0:0:0:0:
320,192,13171,1,0,0:0:0:0:
192,192,13720,1,0,0:0:0:0:
64,192,13866,1,0,0:0:0:0:
448,192,13976,1,0,0:0:0:0:
320,192,14049,1,0,0:0:0:0:
192,192,14122,1,0,0:0:0:0:
64,192,14195,1,0,0:0:0:0:
448,192,14561,1,0,0:0:0:0:
320,192,14634,1,0,0:0:0:0:
192,192,14708,1,0,0:0:0:0:
448,192,15000,1,0,0:0:0:0:
320,192,15073,1,0,0:0:0:0:
64,192,15147,1,0,0:0:0:0:
448,192,15293,1,0,0:0:0:0:
320,192,15366,1,0,0:0:0:0:
64,192,15439,1,0,0:0:0:0:
448,192,15732,1,0,0:0:0:0:
320,192,15805,1,0,0:0:0:0:
192,192,15878,1,0,0:0:0:0:
448,192,16171,1,0,0:0:0:0:
320,192,16244,1,0,0:0:0:0:
64,192,16317,1,0,0:0:0:0:
448,192,16464,1,0,0:0:0:0:
320,192,16537,1,0,0:0:0:0:
64,192,16610,1,0,0:0:0:0:
448,192,16903,1,0,0:0:0:0:
320,192,16976,1,0,0:0:0:0:
192,192,17049,1,0,0:0:0:0:
448,192,17342,1,0,0:0:0:0:
320,192,17415,1,0,0:0:0:0:
64,192,17488,1,0,0:0:0:0:
448,192,17634,1,0,0:0:0:0:
192,192,17781,1,0,0:0:0:0:
320,192,17854,1,0,0:0:0:0:
192,192,17927,1,0,0:0:0:0:
448,192,18073,1,0,0:0:0:0:
320,192,18220,1,0,0:0:0:0:
64,192,18366,1,0,0:0:0:0:
320,192,18513,1,0,0:0:0:0:
192,192,18586,1,0,0:0:0:0:
320,192,18659,1,0,0:0:0:0:
64,192,18805,1,0,0:0:0:0:
320,192,18805,1,0,0:0:0:0:
448,192,18805,1,0,0:0:0:0:
192,192,18805,1,0,0:0:0:0:
320,192,19098,1,0,0:0:0:0:
448,192,19098,1,0,0:0:0:0:
192,192,19391,1,0,0:0:0:0:
64,192,19683,1,0,0:0:0:0:
448,192,19683,1,0,0:0:0:0:
320,192,19976,1,0,0:0:0:0:
64,192,20269,1,0,0:0:0:0:
192,192,20269,1,0,0:0:0:0:
320,192,20561,1,0,0:0:0:0:
64,192,20854,1,0,0:0:0:0:
448,192,20854,1,0,0:0:0:0:
192,192,21000,1,0,0:0:0:0:
320,192,21147,1,0,0:0:0:0:
64,192,21439,1,0,0:0:0:0:
192,192,21439,1,0,0:0:0:0:
320,192,21732,1,0,0:0:0:0:
64,192,22025,1,0,0:0:0:0:
448,192,22025,1,0,0:0:0:0:
192,192,22317,1,0,0:0:0:0:
448,192,22464,1,0,0:0:0:0:
320,192,22537,1,0,0:0:0:0:
64,192,22610,1,0,0:0:0:0:
192,192,22610,1,0,0:0:0:0:
320,192,22903,1,0,0:0:0:0:
64,192,23049,1,0,0:0:0:0:
192,192,23122,1,0,0:0:0:0:
320,192,23195,1,0,0:0:0:0:
448,192,23195,1,0,0:0:0:0:
64,192,23342,1,0,0:0:0:0:
192,192,23342,1,0,0:0:0:0:
320,192,23488,1,0,0:0:0:0:
64,192,23781,1,0,0:0:0:0:
192,192,23781,1,0,0:0:0:0:
320,192,24073,1,0,0:0:0:0:
64,192,24366,1,0,0:0:0:0:
448,192,24366,1,0,0:0:0:0:
192,192,24659,1,0,0:0:0:0:
320,192,24952,1,0,0:0:0:0:
448,192,24952,1,0,0:0:0:0:
192,192,25244,1,0,0:0:0:0:
64,192,25537,1,0,0:0:0:0:
448,192,25537,1,0,0:0:0:0:
320,192,25683,1,0,0:0:0:0:
192,192,25830,1,0,0:0:0:0:
320,192,26122,1,0,0:0:0:0:
448,192,26122,1,0,0:0:0:0:
192,192,26415,1,0,0:0:0:0:
64,192,26708,1,0,0:0:0:0:
448,192,26708,1,0,0:0:0:0:
320,192,27000,1,0,0:0:0:0:
64,192,27147,1,0,0:0:0:0:
192,192,27220,1,0,0:0:0:0:
320,192,27293,1,0,0:0:0:0:
448,192,27293,1,0,0:0:0:0:
192,192,27439,1,0,0:0:0:0:
64,192,27586,1,0,0:0:0:0:
448,192,27586,1,0,0:0:0:0:
192,192,27805,1,0,0:0:0:0:
320,192,27805,1,0,0:0:0:0:
64,192,28025,1,0,0:0:0:0:
448,192,28025,1,0,0:0:0:0:
320,192,28098,1,0,0:0:0:0:
192,192,28171,1,0,0:0:0:0:
448,192,28464,1,0,0:0:0:0:
320,192,28464,1,0,0:0:0:0:
192,192,28756,1,0,0:0:0:0:
64,192,29049,1,0,0:0:0:0:
448,192,29049,1,0,0:0:0:0:
320,192,29342,1,0,0:0:0:0:
64,192,29634,1,0,0:0:0:0:
192,192,29634,1,0,0:0:0:0:
320,192,29927,1,0,0:0:0:0:
64,192,30220,1,0,0:0:0:0:
448,192,30220,1,0,0:0:0:0:
192,192,30366,1,0,0:0:0:0:
320,192,30513,1,0,0:0:0:0:
64,192,30805,1,0,0:0:0:0:
192,192,30805,1,0,0:0:0:0:
320,192,31098,1,0,0:0:0:0:
64,192,31391,1,0,0:0:0:0:
448,192,31391,1,0,0:0:0:0:
192,192,31683,1,0,0:0:0:0:
448,192,31830,1,0,0:0:0:0:
320,192,31903,1,0,0:0:0:0:
64,192,31976,1,0,0:0:0:0:
192,192,31976,1,0,0:0:0:0:
320,192,32269,1,0,0:0:0:0:
64,192,32415,1,0,0:0:0:0:
192,192,32488,1,0,0:0:0:0:
320,192,32561,1,0,0:0:0:0:
448,192,32561,1,0,0:0:0:0:
64,192,32708,1,0,0:0:0:0:
192,192,32708,1,0,0:0:0:0:
320,192,32854,1,0,0:0:0:0:
64,192,33147,1,0,0:0:0:0:
192,192,33147,1,0,0:0:0:0:
320,192,33439,1,0,0:0:0:0:
64,192,33732,1,0,0:0:0:0:
448,192,33732,1,0,0:0:0:0:
192,192,34025,1,0,0:0:0:0:
320,192,34317,1,0,0:0:0:0:
448,192,34317,1,0,0:0:0:0:
192,192,34610,1,0,0:0:0:0:
64,192,34903,1,0,0:0:0:0:
448,192,34903,1,0,0:0:0:0:
320,192,35049,1,0,0:0:0:0:
192,192,35195,1,0,0:0:0:0:
320,192,35488,1,0,0:0:0:0:
448,192,35488,1,0,0:0:0:0:
192,192,35781,1,0,0:0:0:0:
64,192,36073,1,0,0:0:0:0:
448,192,36073,1,0,0:0:0:0:
320,192,36366,1,0,0:0:0:0:
64,192,36513,1,0,0:0:0:0:
192,192,36586,1,0,0:0:0:0:
320,192,36659,1,0,0:0:0:0:
448,192,36659,1,0,0:0:0:0:
192,192,36805,1,0,0:0:0:0:
64,192,36952,1,0,0:0:0:0:
448,192,36952,1,0,0:0:0:0:
192,192,37171,1,0,0:0:0:0:
320,192,37171,1,0,0:0:0:0:
64,192,37391,1,0,0:0:0:0:
448,192,37391,1,0,0:0:0:0:
64,192,37537,128,0,41049:0:0:0:0:
192,192,37537,128,0,41049:0:0:0:0:
320,192,37537,128,0,41049:0:0:0:0:
448,192,37537,128,0,41049:0:0:0:0:
64,192,42220,1,0,0:0:0:0:
192,192,42220,1,0,0:0:0:0:
320,192,42220,1,0,0:0:0:0:
448,192,42220,1,0,0:0:0:0:
320,192,42805,1,0,0:0:0:0:
448,192,42805,1,0,0:0:0:0:
320,192,43390,1,0,0:0:0:0:
448,192,43390,1,0,0:0:0:0:
320,192,43976,1,0,0:0:0:0:
448,192,43976,1,0,0:0:0:0:
64,192,44561,1,0,0:0:0:0:
192,192,44561,1,0,0:0:0:0:
64,192,45146,1,0,0:0:0:0:
192,192,45146,1,0,0:0:0:0:
64,192,45732,1,0,0:0:0:0:
192,192,45732,1,0,0:0:0:0:
64,192,46317,1,0,0:0:0:0:
192,192,46317,1,0,0:0:0:0:
320,192,46902,1,0,0:0:0:0:
448,192,46902,1,0,0:0:0:0:
320,192,47488,1,0,0:0:0:0:
448,192,47488,1,0,0:0:0:0:
320,192,48073,1,0,0:0:0:0:
448,192,48073,1,0,0:0:0:0:
320,192,48659,1,0,0:0:0:0:
448,192,48659,1,0,0:0:0:0:
64,192,49244,1,0,0:0:0:0:
192,192,49244,1,0,0:0:0:0:
64,192,49829,1,0,0:0:0:0:
192,192,49829,1,0,0:0:0:0:
64,192,50415,1,0,0:0:0:0:
192,192,50415,1,0,0:0:0:0:
64,192,51000,1,0,0:0:0:0:
192,192,51000,1,0,0:0:0:0:
320,192,51585,1,0,0:0:0:0:
448,192,51585,1,0,0:0:0:0:
320,192,52171,1,0,0:0:0:0:
448,192,52171,1,0,0:0:0:0:
320,192,52756,1,0,0:0:0:0:
448,192,52756,1,0,0:0:0:0:
64,192,53341,1,0,0:0:0:0:
192,192,53341,1,0,0:0:0:0:
320,192,53634,1,0,0:0:0:0:
448,192,53634,1,0,0:0:0:0:
64,192,53927,1,0,0:0:0:0:
192,192,53927,1,0,0:0:0:0:
320,192,54512,1,0,0:0:0:0:
448,192,54512,1,0,0:0:0:0:
64,192,54659,1,0,0:0:0:0:
192,192,54659,1,0,0:0:0:0:
320,192,54805,1,0,0:0:0:0:
448,192,54805,1,0,0:0:0:0:
192,192,55390,1,0,0:0:0:0:
64,192,55390,1,0,0:0:0:0:
320,192,55537,1,0,0:0:0:0:
448,192,55537,1,0,0:0:0:0:
64,192,55683,1,0,0:0:0:0:
192,192,55683,1,0,0:0:0:0:
320,192,55976,1,0,0:0:0:0:
448,192,55976,1,0,0:0:0:0:
64,192,56268,1,0,0:0:0:0:
192,192,56268,1,0,0:0:0:0:
320,192,56854,1,0,0:0:0:0:
448,192,56854,1,0,0:0:0:0:
64,192,57146,1,0,0:0:0:0:
192,192,57146,1,0,0:0:0:0:
320,192,57732,1,0,0:0:0:0:
448,192,57732,1,0,0:0:0:0:
64,192,58024,1,0,0:0:0:0:
192,192,58024,1,0,0:0:0:0:
320,192,58610,1,0,0:0:0:0:
448,192,58610,1,0,0:0:0:0:
64,192,58756,1,0,0:0:0:0:
192,192,58756,1,0,0:0:0:0:
320,192,58902,1,0,0:0:0:0:
448,192,58902,1,0,0:0:0:0:
64,192,59488,1,0,0:0:0:0:
192,192,59488,1,0,0:0:0:0:
320,192,59634,1,0,0:0:0:0:
448,192,59634,1,0,0:0:0:0:
64,192,59780,1,0,0:0:0:0:
192,192,59780,1,0,0:0:0:0:
320,192,60073,1,0,0:0:0:0:
448,192,60073,1,0,0:0:0:0:
64,192,60366,1,0,0:0:0:0:
192,192,60366,1,0,0:0:0:0:
320,192,60512,1,0,0:0:0:0:
448,192,60512,1,0,0:0:0:0:
64,192,60659,1,0,0:0:0:0:
192,192,60732,1,0,0:0:0:0:
320,192,60805,1,0,0:0:0:0:
448,192,60878,1,0,0:0:0:0:
64,192,60951,1,0,0:0:0:0:
320,192,63293,128,0,63585:0:0:0:0:
448,192,63293,128,0,63585:0:0:0:0:
64,192,63585,1,0,0:0:0:0:
192,192,63585,1,0,0:0:0:0:
448,192,63878,1,0,0:0:0:0:
192,192,64024,1,0,0:0:0:0:
320,192,64097,1,0,0:0:0:0:
192,192,64244,1,0,0:0:0:0:
320,192,64317,1,0,0:0:0:0:
64,192,64463,1,0,0:0:0:0:
192,192,64536,1,0,0:0:0:0:
320,192,64610,128,0,64756:0:0:0:0:
192,192,64756,128,0,64902:0:0:0:0:
448,192,64902,128,0,65049:0:0:0:0:
64,192,65049,128,0,65268:0:0:0:0:
320,192,65268,128,0,65488:0:0:0:0:
192,192,65488,128,0,65634:0:0:0:0:
320,192,65634,128,0,65927:0:0:0:0:
448,192,65634,128,0,65927:0:0:0:0:
64,192,65927,1,0,0:0:0:0:
192,192,65927,1,0,0:0:0:0:
448,192,66219,128,0,66805:0:0:0:0:
320,192,66439,128,0,66805:0:0:0:0:
192,192,66658,128,0,66805:0:0:0:0:
64,192,66805,128,0,67390:0:0:0:0:
192,192,67097,128,0,67390:0:0:0:0:
320,192,67390,128,0,67610:0:0:0:0:
448,192,67390,128,0,67610:0:0:0:0:
64,192,67610,128,0,67829:0:0:0:0:
192,192,67610,128,0,67829:0:0:0:0:
320,192,67829,128,0,67975:0:0:0:0:
448,192,67829,128,0,67975:0:0:0:0:
64,192,67975,128,0,68268:0:0:0:0:
192,192,67975,128,0,68268:0:0:0:0:
320,192,68268,1,0,0:0:0:0:
448,192,68268,1,0,0:0:0:0:
64,192,68561,1,0,0:0:0:0:
320,192,68707,1,0,0:0:0:0:
192,192,68780,1,0,0:0:0:0:
320,192,68927,1,0,0:0:0:0:
192,192,69000,1,0,0:0:0:0:
448,192,69146,1,0,0:0:0:0:
320,192,69219,1,0,0:0:0:0:
192,192,69293,128,0,69439:0:0:0:0:
320,192,69439,128,0,69585:0:0:0:0:
64,192,69585,128,0,69732:0:0:0:0:
448,192,69732,128,0,69951:0:0:0:0:
192,192,69951,128,0,70171:0:0:0:0:
320,192,70171,128,0,70317:0:0:0:0:
64,192,70317,128,0,70610:0:0:0:0:
192,192,70317,128,0,70610:0:0:0:0:
320,192,70610,1,0,0:0:0:0:
448,192,70610,1,0,0:0:0:0:
192,192,70902,128,0,71122:0:0:0:0:
320,192,71122,128,0,71341:0:0:0:0:
448,192,71341,128,0,71488:0:0:0:0:
64,192,71488,128,0,71780:0:0:0:0:
192,192,71488,128,0,71780:0:0:0:0:
320,192,71780,1,0,0:0:0:0:
448,192,71780,1,0,0:0:0:0:
64,192,72073,128,0,72219:0:0:0:0:
192,192,72073,128,0,72219:0:0:0:0:
320,192,72219,128,0,72366:0:0:0:0:
448,192,72219,128,0,72366:0:0:0:0:
192,192,72366,128,0,72512:0:0:0:0:
64,192,72366,128,0,72512:0:0:0:0:
320,192,72512,128,0,72658:0:0:0:0:
448,192,72512,128,0,72658:0:0:0:0:
64,192,72658,128,0,72951:0:0:0:0:
192,192,72658,128,0,72951:0:0:0:0:
320,192,72951,1,0,0:0:0:0:
448,192,72951,1,0,0:0:0:0:
64,192,73244,1,0,0:0:0:0:
320,192,73390,1,0,0:0:0:0:
192,192,73463,1,0,0:0:0:0:
320,192,73610,1,0,0:0:0:0:
192,192,73683,1,0,0:0:0:0:
448,192,73829,1,0,0:0:0:0:
320,192,73902,1,0,0:0:0:0:
192,192,73975,128,0,74122:0:0:0:0:
320,192,74122,128,0,74268:0:0:0:0:
64,192,74268,128,0,74414:0:0:0:0:
448,192,74414,128,0,74634:0:0:0:0:
192,192,74634,128,0,74853:0:0:0:0:
320,192,74853,128,0,75000:0:0:0:0:
64,192,75000,128,0,75292:0:0:0:0:
192,192,75000,128,0,75292:0:0:0:0:
320,192,75292,1,0,0:0:0:0:
448,192,75292,1,0,0:0:0:0:
64,192,75585,128,0,76171:0:0:0:0:
192,192,75805,128,0,76171:0:0:0:0:
320,192,76024,128,0,76171:0:0:0:0:
448,192,76171,128,0,76756:0:0:0:0:
320,192,76463,128,0,76756:0:0:0:0:
64,192,76756,128,0,76975:0:0:0:0:
192,192,76756,128,0,76975:0:0:0:0:
320,192,76975,128,0,77195:0:0:0:0:
448,192,76975,128,0,77195:0:0:0:0:
64,192,77195,128,0,77341:0:0:0:0:
192,192,77195,128,0,77341:0:0:0:0:
320,192,77341,128,0,77634:0:0:0:0:
448,192,77341,128,0,77634:0:0:0:0:
64,192,77634,1,0,0:0:0:0:
192,192,77634,1,0,0:0:0:0:
448,192,77927,1,0,0:0:0:0:
192,192,78073,1,0,0:0:0:0:
320,192,78146,1,0,0:0:0:0:
192,192,78292,1,0,0:0:0:0:
320,192,78366,1,0,0:0:0:0:
64,192,78512,1,0,0:0:0:0:
192,192,78585,1,0,0:0:0:0:
320,192,78658,128,0,78805:0:0:0:0:
192,192,78805,128,0,78951:0:0:0:0:
448,192,78951,128,0,79097:0:0:0:0:
64,192,79097,128,0,79317:0:0:0:0:
320,192,79317,128,0,79536:0:0:0:0:
192,192,79536,128,0,79683:0:0:0:0:
320,192,79683,128,0,79975:0:0:0:0:
448,192,79683,128,0,79975:0:0:0:0:
64,192,79975,1,0,0:0:0:0:
192,192,79975,1,0,0:0:0:0:
320,192,80268,128,0,80561:0:0:0:0:
448,192,80268,128,0,80561:0:0:0:0:
64,192,80561,1,0,0:0:0:0:
192,192,80561,1,0,0:0:0:0:
320,192,80853,1,0,0:0:0:0:
192,192,80927,1,0,0:0:0:0:
320,192,81000,1,0,0:0:0:0:
192,192,81073,1,0,0:0:0:0:
320,192,81146,1,0,0:0:0:0:
192,192,81292,1,0,0:0:0:0:
320,192,81439,1,0,0:0:0:0:
192,192,81512,1,0,0:0:0:0:
320,192,81585,1,0,0:0:0:0:
192,192,81732,1,0,0:0:0:0:
64,192,82024,1,0,0:0:0:0:
448,192,82024,1,0,0:0:0:0:
320,192,82024,1,0,0:0:0:0:
192,192,82024,1,0,0:0:0:0:
320,192,82171,1,0,0:0:0:0:
64,192,82317,1,0,0:0:0:0:
448,192,82317,1,0,0:0:0:0:
192,192,82463,1,0,0:0:0:0:
320,192,82610,1,0,0:0:0:0:
192,192,82756,1,0,0:0:0:0:
64,192,82902,1,0,0:0:0:0:
448,192,82902,1,0,0:0:0:0:
320,192,83049,1,0,0:0:0:0:
192,192,83195,1,0,0:0:0:0:
320,192,83341,1,0,0:0:0:0:
448,192,83488,1,0,0:0:0:0:
64,192,83780,1,0,0:0:0:0:
192,192,84073,1,0,0:0:0:0:
320,192,84366,1,0,0:0:0:0:
192,192,84512,1,0,0:0:0:0:
448,192,84658,1,0,0:0:0:0:
64,192,84658,1,0,0:0:0:0:
320,192,84805,1,0,0:0:0:0:
192,192,84951,1,0,0:0:0:0:
320,192,85097,1,0,0:0:0:0:
448,192,85244,1,0,0:0:0:0:
64,192,85244,1,0,0:0:0:0:
192,192,85390,1,0,0:0:0:0:
320,192,85536,1,0,0:0:0:0:
192,192,85683,1,0,0:0:0:0:
64,192,85829,1,0,0:0:0:0:
448,192,86121,1,0,0:0:0:0:
320,192,86414,1,0,0:0:0:0:
192,192,86707,1,0,0:0:0:0:
64,192,86707,1,0,0:0:0:0:
320,192,86853,1,0,0:0:0:0:
448,192,86999,1,0,0:0:0:0:
64,192,86999,1,0,0:0:0:0:
192,192,87146,1,0,0:0:0:0:
320,192,87292,1,0,0:0:0:0:
192,192,87438,1,0,0:0:0:0:
448,192,87585,1,0,0:0:0:0:
64,192,87585,1,0,0:0:0:0:
320,192,87731,1,0,0:0:0:0:
192,192,87877,1,0,0:0:0:0:
320,192,88024,1,0,0:0:0:0:
448,192,88170,1,0,0:0:0:0:
192,192,88462,1,0,0:0:0:0:
64,192,88755,1,0,0:0:0:0:
320,192,89048,1,0,0:0:0:0:
192,192,89194,1,0,0:0:0:0:
64,192,89340,1,0,0:0:0:0:
448,192,89340,1,0,0:0:0:0:
320,192,89487,1,0,0:0:0:0:
192,192,89633,1,0,0:0:0:0:
320,192,89779,1,0,0:0:0:0:
64,192,89926,1,0,0:0:0:0:
448,192,89926,1,0,0:0:0:0:
192,192,90072,1,0,0:0:0:0:
320,192,90218,1,0,0:0:0:0:
192,192,90365,1,0,0:0:0:0:
64,192,90511,1,0,0:0:0:0:
320,192,90803,1,0,0:0:0:0:
448,192,91096,1,0,0:0:0:0:
192,192,91389,1,0,0:0:0:0:
64,192,91389,1,0,0:0:0:0:
320,192,91535,1,0,0:0:0:0:
64,192,91681,1,0,0:0:0:0:
448,192,91681,1,0,0:0:0:0:
192,192,91828,1,0,0:0:0:0:
320,192,91974,1,0,0:0:0:0:
192,192,92120,1,0,0:0:0:0:
64,192,92267,1,0,0:0:0:0:
448,192,92267,1,0,0:0:0:0:
320,192,92413,1,0,0:0:0:0:
192,192,92559,1,0,0:0:0:0:
320,192,92706,1,0,0:0:0:0:
448,192,92852,1,0,0:0:0:0:
320,192,93144,1,0,0:0:0:0:
192,192,93437,1,0,0:0:0:0:
320,192,93730,1,0,0:0:0:0:
192,192,93876,1,0,0:0:0:0:
64,192,94022,1,0,0:0:0:0:
448,192,94022,1,0,0:0:0:0:
320,192,94169,1,0,0:0:0:0:
192,192,94315,1,0,0:0:0:0:
320,192,94461,1,0,0:0:0:0:
64,192,94608,1,0,0:0:0:0:
448,192,94608,1,0,0:0:0:0:
192,192,94754,1,0,0:0:0:0:
320,192,94900,1,0,0:0:0:0:
192,192,95047,1,0,0:0:0:0:
64,192,95193,1,0,0:0:0:0:
192,192,95485,1,0,0:0:0:0:
320,192,95778,1,0,0:0:0:0:
64,192,96071,1,0,0:0:0:0:
192,192,96071,1,0,0:0:0:0:
320,192,96217,1,0,0:0:0:0:
64,192,96363,1,0,0:0:0:0:
448,192,96363,1,0,0:0:0:0:
192,192,96510,1,0,0:0:0:0:
320,192,96656,1,0,0:0:0:0:
192,192,96802,1,0,0:0:0:0:
64,192,96949,1,0,0:0:0:0:
448,192,96949,1,0,0:0:0:0:
320,192,97095,1,0,0:0:0:0:
192,192,97241,1,0,0:0:0:0:
320,192,97388,1,0,0:0:0:0:
448,192,97534,1,0,0:0:0:0:
64,192,97826,1,0,0:0:0:0:
192,192,98119,1,0,0:0:0:0:
320,192,98412,1,0,0:0:0:0:
448,192,98412,1,0,0:0:0:0:
192,192,98558,1,0,0:0:0:0:
64,192,98704,1,0,0:0:0:0:
448,192,98704,1,0,0:0:0:0:
320,192,98851,1,0,0:0:0:0:
192,192,98997,1,0,0:0:0:0:
320,192,99143,1,0,0:0:0:0:
64,192,99290,1,0,0:0:0:0:
448,192,99290,1,0,0:0:0:0:
192,192,99436,1,0,0:0:0:0:
320,192,99582,1,0,0:0:0:0:
448,192,99582,1,0,0:0:0:0:
192,192,99729,1,0,0:0:0:0:
64,192,99875,1,0,0:0:0:0:
448,192,100167,1,0,0:0:0:0:
320,192,100460,1,0,0:0:0:0:
64,192,100753,1,0,0:0:0:0:
192,192,100753,1,0,0:0:0:0:
320,192,100753,1,0,0:0:0:0:
448,192,100753,1,0,0:0:0:0:
320,192,103094,1,0,0:0:0:0:
192,192,103167,1,0,0:0:0:0:
320,192,103240,1,0,0:0:0:0:
64,192,103387,1,0,0:0:0:0:
192,192,103533,1,0,0:0:0:0:
448,192,103679,1,0,0:0:0:0:
320,192,103826,1,0,0:0:0:0:
192,192,103899,1,0,0:0:0:0:
320,192,103972,1,0,0:0:0:0:
192,192,104118,1,0,0:0:0:0:
320,192,104192,1,0,0:0:0:0:
192,192,104265,1,0,0:0:0:0:
448,192,104484,1,0,0:0:0:0:
320,192,104704,1,0,0:0:0:0:
64,192,104996,1,0,0:0:0:0:
448,192,105435,128,0,107777:0:0:0:0:
320,192,105435,128,0,107192:0:0:0:0:
192,192,105435,128,0,106606:0:0:0:0:
64,192,105435,128,0,106021:0:0:0:0:
