osu file format v14

[General]
AudioFilename: audio.ogg
AudioLeadIn: 0
PreviewTime: 122848
Countdown: 0
SampleSet: Drum
StackLeniency: 0.7
Mode: 3
LetterboxInBreaks: 0
SpecialStyle: 0
WidescreenStoryboard: 1

[Editor]
DistanceSpacing: 1.3
BeatDivisor: 4
GridSize: 4
TimelineZoom: 1.8

[Metadata]
Title:Another Me
TitleUnicode:Another Me
Artist:D_AAN
ArtistUnicode:D_AAN
Creator:Slick6969
Version:Normal
Source:Phigros
Tags:Hatsune Miku Hardcore EDM Vocaloid Electronic Dance Music Japanese Kazemura Adidkh ZxNX KALPA 初音ミク keysound SV instrumental
BeatmapID:3396646
BeatmapSetID:1662281

[Difficulty]
HPDrainRate:7.5
CircleSize:4
OverallDifficulty:7
ApproachRate:5
SliderMultiplier:1
SliderTickRate:1

[Events]
//Background and Video events
0,0,"anotherme.jpg",0,0
//Break Periods
//Storyboard Layer 0 (Background)
//Storyboard Layer 1 (Fail)
//Storyboard Layer 2 (Pass)
//Storyboard Layer 3 (Foreground)
//Storyboard Layer 4 (Overlay)
//Storyboard Sound Samples
Sample,68563,0,"D5S.wav",40
Sample,83420,0,"D#4S_Eb4S.wav",40
Sample,84563,0,"D4S.wav",40
Sample,85705,0,"A3S.wav",40

[TimingPoints]
4563,285.714285714286,4,3,1,100,1,0
22848,-100,4,3,1,50,0,0
23420,-100,4,3,1,55,0,0
23991,-100,4,3,1,60,0,0
24563,-100,4,3,1,65,0,0
25134,-100,4,3,1,70,0,0
25705,-100,4,3,1,75,0,0
26277,-100,4,3,1,80,0,0
26848,-100,4,3,1,85,0,0
27420,-100,4,3,1,90,0,0
29705,-100,4,3,1,95,0,0
30277,-100,4,3,1,100,0,0
40705,-100,4,3,1,70,0,0
40848,-100,4,3,1,80,0,0
40991,-100,4,3,1,90,0,0
41134,-100,4,3,1,100,0,0
68705,-100,4,3,1,5,0,0
86848,-100,4,3,1,100,0,1
105134,-100,4,3,1,100,0,0
113991,-100,4,3,1,50,0,0
114277,-100,4,3,1,100,0,0
114563,-100,4,3,1,65,0,0
115420,-100,4,3,1,70,0,0
116563,-100,4,3,1,75,0,0
117705,-100,4,3,1,80,0,0
118848,-100,4,3,1,85,0,0
119991,-100,4,3,1,90,0,0
121134,-100,4,3,1,95,0,0
123420,-100,4,3,1,100,0,1
140563,-100,4,3,1,100,0,0
157723,-100,4,3,1,69,0,0

[HitObjects]
64,192,4562,5,6,0:0:0:0:
448,192,4562,1,0,0:0:0:60:D7S.wav
320,192,4848,1,0,0:0:0:60:D6S.wav
64,192,4991,1,0,0:0:0:60:G6S.wav
448,192,5134,1,0,0:0:0:60:C7S.wav
320,192,5420,1,0,0:0:0:60:D6S.wav
192,192,5562,1,0,0:0:0:60:C7S.wav
64,192,5705,1,0,0:0:0:60:A#6S_Bb6S.wav
320,192,5991,1,0,0:0:0:60:G6S.wav
448,192,6134,1,0,0:0:0:60:A6S.wav
64,192,6420,1,0,0:0:0:60:D6S.wav
192,192,6563,1,0,0:0:0:60:G6S.wav
448,192,6705,1,0,0:0:0:60:A6S.wav
64,192,6848,1,0,0:0:0:60:A6S.wav
192,192,7134,1,0,0:0:0:60:D6S.wav
64,192,7277,1,0,0:0:0:60:G6S.wav
448,192,7420,1,0,0:0:0:60:A#6S_Bb6S.wav
192,192,7705,1,0,0:0:0:60:G6S.wav
320,192,7848,1,0,0:0:0:60:A6S.wav
448,192,7991,1,0,0:0:0:60:C7S.wav
192,192,8277,1,0,0:0:0:60:A#6S_Bb6S.wav
64,192,8420,1,0,0:0:0:60:A6S.wav
448,192,8705,1,0,0:0:0:60:A#6S_Bb6S.wav
320,192,8848,1,0,0:0:0:60:G6S.wav
64,192,8991,1,0,0:0:0:60:F#6S_Gb6S.wav
320,192,9134,1,0,0:0:0:60:G6S.wav
64,192,9420,1,0,0:0:0:60:D6S.wav
192,192,9563,1,0,0:0:0:60:G6S.wav
448,192,9705,1,0,0:0:0:60:A6S.wav
64,192,9991,1,0,0:0:0:60:D6S.wav
320,192,10134,1,0,0:0:0:60:A6S.wav
448,192,10277,1,0,0:0:0:60:A#6S_Bb6S.wav
320,192,10563,1,0,0:0:0:60:G6S.wav
64,192,10705,1,0,0:0:0:60:A6S.wav
192,192,10848,1,0,0:0:0:60:C7S.wav
64,192,11134,1,0,0:0:0:60:G6S.wav
320,192,11277,1,0,0:0:0:60:C7S.wav
448,192,11420,1,0,0:0:0:60:D7S.wav
320,192,11705,1,0,0:0:0:60:G6S.wav
64,192,11848,1,0,0:0:0:60:D7S.wav
192,192,11991,1,0,0:0:0:60:D#7S_Eb7S.wav
64,192,12277,1,0,0:0:0:60:G6S.wav
448,192,12420,1,0,0:0:0:60:G7S.wav
320,192,12563,1,0,0:0:0:60:F#7S_Gb7S.wav
192,192,12563,128,8,13134:0:0:0:0:
448,192,13134,1,0,0:0:0:60:G7S.wav
320,192,13420,1,0,0:0:0:60:F#7S_Gb7S.wav
448,192,13705,1,0,0:0:0:60:G7S.wav
64,192,13705,128,6,14277:0:0:0:0:
320,192,13991,1,0,0:0:0:0:
192,192,14277,1,8,0:0:0:0:
448,192,14277,1,0,0:0:0:0:
320,192,14420,1,0,0:0:0:0:
64,192,14563,1,0,0:0:0:0:
448,192,14705,1,0,0:0:0:0:
320,192,14848,128,0,15420:0:0:0:0:
192,192,14848,1,2,0:0:0:0:
448,192,15134,1,0,0:0:0:0:
64,192,15420,1,0,0:0:0:0:
192,192,15420,1,8,0:0:0:0:
64,192,15705,1,0,0:0:0:0:
192,192,15848,1,0,0:0:0:0:
320,192,15991,5,2,0:0:0:0:
448,192,15991,128,0,16563:0:0:0:0:
64,192,16277,1,0,0:0:0:0:
320,192,16563,1,0,0:0:0:0:
192,192,16563,1,8,0:0:0:0:
448,192,16848,1,0,0:0:0:0:
320,192,16991,1,0,0:0:0:0:
192,192,17134,128,0,17705:0:0:0:0:
64,192,17134,1,2,0:0:0:0:
320,192,17420,1,0,0:0:0:0:
64,192,17705,1,0,0:0:0:0:
448,192,17705,1,8,0:0:0:0:
320,192,17848,1,0,0:0:0:0:
192,192,17991,1,0,0:0:0:0:
64,192,18134,1,0,0:0:0:0:
448,192,18277,128,4,18848:0:0:0:0:
192,192,18277,1,2,0:0:0:0:
64,192,18563,1,0,0:0:0:0:
320,192,18848,1,8,0:0:0:0:
192,192,18848,1,0,0:0:0:0:
64,192,18991,1,0,0:0:0:0:
320,192,19134,1,0,0:0:0:0:
448,192,19277,1,0,0:0:0:0:
64,192,19420,128,0,19991:0:0:0:0:
192,192,19420,1,2,0:0:0:0:
320,192,19705,1,0,0:0:0:0:
448,192,19991,1,8,0:0:0:0:
192,192,19991,1,0,0:0:0:0:
320,192,20134,1,0,0:0:0:0:
64,192,20277,1,0,0:0:0:0:
192,192,20420,1,0,0:0:0:0:
320,192,20563,128,2,21134:0:0:0:0:
448,192,20563,1,4,0:0:0:0:
192,192,20848,1,0,0:0:0:0:
64,192,21134,1,8,0:0:0:0:
448,192,21134,1,0,0:0:0:0:
192,192,21277,1,0,0:0:0:0:
64,192,21420,128,2,21705:0:0:0:0:
320,192,21705,1,4,0:0:0:0:
448,192,21705,1,2,0:0:0:0:
448,192,21991,128,2,22277:0:0:0:0:
64,192,22277,1,2,0:0:0:0:
192,192,22277,1,8,0:0:0:0:
64,192,22848,128,2,23134:0:0:0:0:
448,192,22848,1,4,0:0:0:0:
320,192,23134,1,2,0:0:0:0:
192,192,23420,128,2,23705:0:0:0:0:
448,192,23420,1,0,0:0:0:0:
64,192,23705,1,2,0:0:0:0:
448,192,23991,128,2,24277:0:0:0:0:
320,192,23991,1,0,0:0:0:0:
64,192,24277,1,2,0:0:0:0:
192,192,24563,128,2,24848:0:0:0:0:
320,192,24563,1,0,0:0:0:0:
448,192,24848,1,2,0:0:0:0:
320,192,24991,1,0,0:0:0:0:
64,192,25134,128,2,25420:0:0:0:0:
192,192,25134,1,0,0:0:0:0:
448,192,25420,1,2,0:0:0:0:
320,192,25705,128,2,25991:0:0:0:0:
192,192,25705,1,0,0:0:0:0:
64,192,25991,1,2,0:0:0:0:
448,192,26277,128,2,26563:0:0:0:0:
192,192,26277,1,0,0:0:0:0:
320,192,26563,1,2,0:0:0:0:
192,192,26848,128,2,27134:0:0:0:0:
64,192,26848,1,0,0:0:0:0:
320,192,27134,1,2,0:0:0:0:
192,192,27277,1,2,0:0:0:0:
448,192,27420,1,4,0:0:0:0:
64,192,27420,1,2,0:0:0:0:
320,192,27563,5,2,0:0:0:0:
192,192,27705,5,2,0:0:0:0:
64,192,27848,1,2,0:0:0:0:
448,192,27991,1,2,0:0:0:0:
320,192,28134,5,2,0:0:0:0:
192,192,28277,1,2,0:0:0:0:
64,192,28420,1,2,0:0:0:0:
320,192,28563,1,2,0:0:0:0:
448,192,28705,1,2,0:0:0:0:
192,192,28848,1,2,0:0:0:0:
64,192,28991,1,2,0:0:0:0:
320,192,29134,1,2,0:0:0:0:
448,192,29277,1,2,0:0:0:0:
192,192,29420,1,2,0:0:0:0:
64,192,29563,1,2,0:0:0:0:
448,192,29705,128,2,29991:0:0:0:0:
192,192,29991,128,2,30134:0:0:0:0:
320,192,30134,128,2,30277:0:0:0:0:
64,192,30277,128,2,30563:0:0:0:0:
320,192,30563,128,2,30705:0:0:0:0:
192,192,30705,128,2,30848:0:0:0:0:
64,192,30848,1,2,0:0:0:0:
448,192,30848,1,4,0:0:0:0:
448,192,31420,128,8,31705:0:0:0:0:
320,192,31420,1,0,0:0:0:0:
64,192,31705,128,0,31991:0:0:0:0:
192,192,31991,1,2,0:0:0:0:
320,192,31991,128,0,32134:0:0:0:0:
64,192,32277,1,2,0:0:0:0:
448,192,32277,1,4,0:0:0:0:
192,192,32420,1,0,0:0:0:0:
448,192,32563,1,2,0:0:0:0:
64,192,32705,1,0,0:0:0:0:
320,192,32848,1,2,0:0:0:0:
448,192,32991,1,0,0:0:0:0:
192,192,33134,1,2,0:0:0:0:
64,192,33277,1,0,0:0:0:0:
320,192,33420,1,2,0:0:0:0:
192,192,33563,1,0,0:0:0:0:
448,192,33705,1,2,0:0:0:0:
320,192,33848,1,0,0:0:0:0:
192,192,33991,1,2,0:0:0:0:
320,192,34134,1,0,0:0:0:0:
64,192,34277,1,2,0:0:0:0:
448,192,34420,1,0,0:0:0:0:
192,192,34563,1,2,0:0:0:0:
320,192,34705,1,0,0:0:0:0:
64,192,34848,1,2,0:0:0:0:
320,192,34991,1,0,0:0:0:0:
192,192,35134,1,2,0:0:0:0:
448,192,35277,1,0,0:0:0:0:
64,192,35420,1,2,0:0:0:0:
192,192,35563,1,0,0:0:0:0:
320,192,35705,1,2,0:0:0:0:
448,192,35848,1,0,0:0:0:0:
192,192,35991,128,2,36277:0:0:0:0:
64,192,35991,1,0,0:0:0:0:
448,192,36277,128,2,36563:0:0:0:0:
320,192,36277,1,0,0:0:0:0:
192,192,36563,128,2,36705:0:0:0:0:
64,192,36563,1,0,0:0:0:0:
448,192,36848,1,2,0:0:0:0:
64,192,36848,1,4,0:0:0:0:
320,192,36991,1,0,0:0:0:0:
192,192,37134,1,2,0:0:0:0:
448,192,37277,1,0,0:0:0:0:
64,192,37420,1,2,0:0:0:0:
320,192,37563,1,0,0:0:0:0:
448,192,37705,1,2,0:0:0:0:
64,192,37848,1,0,0:0:0:0:
320,192,37991,1,2,0:0:0:0:
192,192,38134,1,0,0:0:0:0:
448,192,38277,1,2,0:0:0:0:
192,192,38420,1,0,0:0:0:0:
320,192,38563,1,2,0:0:0:0:
64,192,38705,1,0,0:0:0:0:
448,192,38848,1,2,0:0:0:0:
448,192,38991,1,0,0:0:0:0:
192,192,39134,1,2,0:0:0:0:
192,192,39277,1,0,0:0:0:0:
320,192,39420,1,2,0:0:0:0:
320,192,39563,1,0,0:0:0:0:
64,192,39705,1,2,0:0:0:0:
64,192,39848,1,0,0:0:0:0:
448,192,39991,128,2,40134:0:0:0:0:
320,192,40134,1,0,0:0:0:0:
192,192,40277,1,0,0:0:0:0:
192,192,40420,1,0,0:0:0:0:
64,192,40563,1,0,0:0:0:0:
448,192,40563,1,8,0:0:0:0:
320,192,40705,1,2,0:0:0:0:
192,192,40848,1,2,0:0:0:0:
320,192,40991,1,2,0:0:0:0:
64,192,41134,1,2,0:0:0:0:
320,192,41420,1,2,0:0:0:0:
448,192,41420,1,8,0:0:0:0:
192,192,41705,1,2,0:0:0:0:
64,192,41991,1,2,0:0:0:0:
320,192,41991,1,8,0:0:0:0:
192,192,42134,1,0,0:0:0:0:
64,192,42277,1,2,0:0:0:0:
448,192,42420,1,0,0:0:0:0:
192,192,42563,1,2,0:0:0:0:
320,192,42563,1,8,0:0:0:0:
64,192,42705,1,0,0:0:0:0:
320,192,42848,1,2,0:0:0:0:
192,192,43134,1,2,0:0:0:0:
448,192,43134,128,8,43420:0:0:0:0:
320,192,43277,128,0,43420:0:0:0:0:
64,192,43420,1,2,0:0:0:0:
320,192,43705,1,2,0:0:0:0:
448,192,43705,1,8,0:0:0:0:
192,192,43848,1,0,0:0:0:0:
320,192,43991,1,2,0:0:0:0:
192,192,44277,1,8,0:0:0:0:
64,192,44277,1,2,0:0:0:0:
320,192,44420,1,0,0:0:0:0:
192,192,44563,1,2,0:0:0:0:
448,192,44705,1,0,0:0:0:0:
320,192,44848,1,8,0:0:0:0:
64,192,44848,128,2,45134:0:0:0:0:
192,192,44991,1,0,0:0:0:0:
448,192,45134,1,2,0:0:0:0:
192,192,45420,1,8,0:0:0:0:
64,192,45420,1,2,0:0:0:0:
320,192,45705,1,2,0:0:0:0:
64,192,45991,1,2,0:0:0:0:
448,192,45991,1,8,0:0:0:0:
320,192,46277,1,2,0:0:0:0:
192,192,46563,1,8,0:0:0:0:
64,192,46563,1,2,0:0:0:0:
448,192,46705,1,0,0:0:0:0:
320,192,46848,1,2,0:0:0:0:
192,192,46991,1,0,0:0:0:0:
320,192,47134,1,8,0:0:0:0:
448,192,47134,1,2,0:0:0:0:
64,192,47277,1,0,0:0:0:0:
192,192,47420,1,2,0:0:0:0:
448,192,47705,1,8,0:0:0:0:
64,192,47705,128,2,47991:0:0:0:0:
192,192,47848,128,0,47991:0:0:0:0:
320,192,47991,1,2,0:0:0:0:
448,192,48277,1,8,0:0:0:0:
64,192,48277,1,2,0:0:0:0:
192,192,48563,1,2,0:0:0:0:
320,192,48848,1,2,0:0:0:0:
448,192,48848,1,8,0:0:0:0:
64,192,48991,1,0,0:0:0:0:
448,192,49134,1,2,0:0:0:0:
320,192,49277,1,2,0:0:0:0:
192,192,49420,1,10,0:0:0:0:
64,192,49563,128,2,49705:0:0:0:0:
448,192,49705,128,2,49991:0:0:0:0:
192,192,49848,1,2,0:0:0:0:
64,192,49991,128,2,50277:0:0:0:0:
320,192,50134,1,2,0:0:0:0:
448,192,50277,1,4,0:0:0:0:
192,192,50277,128,2,50420:0:0:0:0:
448,192,50563,128,0,50848:0:0:0:0:
192,192,50705,1,0,0:0:0:0:
64,192,50848,1,8,0:0:0:0:
320,192,50848,1,0,0:0:0:0:
192,192,50991,1,0,0:0:0:0:
320,192,51134,128,0,51420:0:0:0:0:
448,192,51277,1,0,0:0:0:0:
192,192,51420,1,2,0:0:0:0:
64,192,51420,1,0,0:0:0:0:
448,192,51563,1,0,0:0:0:0:
192,192,51705,128,0,51991:0:0:0:0:
64,192,51848,1,0,0:0:0:0:
320,192,51991,1,0,0:0:0:0:
448,192,51991,1,8,0:0:0:0:
64,192,52134,1,0,0:0:0:0:
448,192,52277,128,2,52420:0:0:0:0:
320,192,52420,1,0,0:0:0:0:
192,192,52563,1,2,0:0:0:0:
64,192,52563,128,0,53348:0:0:0:0:
192,192,54848,1,2,0:0:0:0:
320,192,54848,1,4,0:0:0:0:
64,192,55063,128,0,55277:0:0:0:0:
320,192,55277,1,0,0:0:0:0:
192,192,55277,1,2,0:0:0:0:
448,192,55491,128,0,55705:0:0:0:0:
192,192,55705,1,2,0:0:0:0:
320,192,55705,1,0,0:0:0:0:
64,192,55920,128,0,56134:0:0:0:0:
320,192,56134,1,0,0:0:0:0:
192,192,56134,1,2,0:0:0:0:
320,192,56348,1,2,0:0:0:0:
448,192,56348,1,0,0:0:0:0:
192,192,56563,1,0,0:0:0:0:
64,192,56563,1,2,0:0:0:0:
448,192,56848,1,0,0:0:0:0:
64,192,56848,1,2,0:0:0:0:
192,192,56991,1,2,0:0:0:0:
320,192,56991,1,0,0:0:0:0:
64,192,57134,1,2,0:0:0:0:
448,192,57134,1,0,0:0:0:0:
192,192,57420,1,0,0:0:0:0:
64,192,57420,1,2,0:0:0:0:
192,192,57705,1,2,0:0:0:0:
320,192,57705,1,0,0:0:0:0:
320,192,57991,1,2,0:0:0:0:
448,192,57991,1,0,0:0:0:0:
192,192,58134,1,2,0:0:0:0:
64,192,58277,1,2,0:0:0:0:
448,192,58277,1,0,0:0:0:0:
320,192,58420,1,0,0:0:0:0:
192,192,58420,1,2,0:0:0:0:
448,192,58705,1,2,0:0:0:0:
320,192,58777,1,2,0:0:0:0:
64,192,58848,1,2,0:0:0:0:
448,192,58991,1,2,0:0:0:0:
192,192,59063,1,2,0:0:0:0:
64,192,59134,1,2,0:0:0:0:
320,192,59277,1,2,0:0:0:0:
448,192,59420,1,0,0:0:0:0:
192,192,59420,1,2,0:0:0:0:
320,192,59705,1,0,0:0:0:0:
64,192,59705,1,2,0:0:0:0:
192,192,59991,1,2,0:0:0:0:
320,192,59991,1,0,0:0:0:0:
64,192,60277,1,2,0:0:0:0:
448,192,60277,1,0,0:0:0:0:
320,192,60563,1,0,0:0:0:0:
448,192,60563,1,2,0:0:0:0:
320,192,60848,1,2,0:0:0:0:
64,192,60848,1,0,0:0:0:0:
448,192,61134,1,0,0:0:0:0:
192,192,61134,1,2,0:0:0:0:
64,192,61420,1,2,0:0:0:0:
192,192,61420,1,0,0:0:0:0:
320,192,61705,1,0,0:0:0:0:
448,192,61705,1,2,0:0:0:0:
320,192,61991,1,0,0:0:0:0:
448,192,61991,1,2,0:0:0:0:
192,192,62277,1,0,0:0:0:0:
64,192,62277,1,2,0:0:0:0:
448,192,62563,1,0,0:0:0:0:
64,192,62563,1,2,0:0:0:0:
192,192,62705,1,2,0:0:0:0:
448,192,62848,1,2,0:0:0:0:
320,192,62848,1,0,0:0:0:0:
448,192,63134,1,2,0:0:0:0:
320,192,63134,1,0,0:0:0:0:
64,192,63277,1,2,0:0:0:0:
192,192,63348,1,2,0:0:0:0:
448,192,63420,1,2,0:0:0:0:
320,192,63563,1,2,0:0:0:0:
192,192,63634,1,2,0:0:0:0:
64,192,63705,1,2,0:0:0:0:
192,192,63991,128,0,64277:0:0:0:0:
64,192,64277,1,2,0:0:0:0:
448,192,64277,1,4,0:0:0:0:
320,192,64563,1,0,0:0:0:0:
448,192,64563,1,8,0:0:0:0:
192,192,64705,1,0,0:0:0:0:
320,192,64848,1,0,0:0:0:0:
64,192,64991,1,2,0:0:0:0:
320,192,65134,1,0,0:0:0:0:
192,192,65277,1,0,0:0:0:0:
64,192,65420,128,2,65705:0:0:0:0:
448,192,65420,1,0,0:0:0:0:
320,192,65705,1,0,0:0:0:0:
448,192,65705,1,8,0:0:0:0:
64,192,65848,1,2,0:0:0:0:
320,192,65991,1,0,0:0:0:0:
192,192,66134,1,0,0:0:0:0:
64,192,66277,1,2,0:0:0:0:
448,192,66277,1,4,0:0:0:0:
192,192,66563,1,0,0:0:0:0:
64,192,66563,1,2,0:0:0:0:
320,192,66848,1,2,0:0:0:0:
448,192,66848,1,0,0:0:0:0:
320,192,67134,1,2,0:0:0:0:
192,192,67134,1,0,0:0:0:0:
64,192,67277,1,2,0:0:0:0:
448,192,67420,1,0,0:0:0:0:
192,192,67420,1,2,0:0:0:0:
320,192,67563,1,2,0:0:0:0:
64,192,67563,1,0,0:0:0:0:
192,192,67848,1,2,0:0:0:0:
320,192,67920,1,2,0:0:0:0:
448,192,67991,1,2,0:0:0:0:
64,192,68134,1,2,0:0:0:0:
192,192,68205,1,2,0:0:0:0:
448,192,68277,1,2,0:0:0:0:
320,192,68420,1,2,0:0:0:0:
192,192,68491,1,2,0:0:0:0:
64,192,68563,1,6,0:0:0:0:
448,192,68563,1,0,0:0:0:60:D6S.wav
320,192,68848,1,0,0:0:0:60:A#5S_Bb5S.wav
192,192,69134,1,0,0:0:0:60:A5S.wav
64,192,69420,1,0,0:0:0:60:G5S.wav
320,192,69705,1,0,0:0:0:60:C6S.wav
192,192,69991,1,0,0:0:0:60:D6S.wav
320,192,70277,1,0,0:0:0:60:D#6S_Eb6S.wav
448,192,70563,1,0,0:0:0:60:G6S.wav
192,192,70848,1,0,0:0:0:60:F#6S_Gb6S.wav
448,192,71277,1,0,0:0:0:60:G6S.wav
64,192,71705,1,0,0:0:0:60:C6S.wav
320,192,71991,128,0,72277:0:0:0:60:D6S.wav
448,192,72563,1,0,0:0:0:60:G6S.wav
64,192,72705,1,0,0:0:0:60:D6S.wav
192,192,72848,1,0,0:0:0:60:A#5S_Bb5S.wav
320,192,72991,1,0,0:0:0:60:A5S.wav
448,192,73134,1,0,0:0:0:60:G5S.wav
64,192,73134,1,0,0:0:0:40:G4S.wav
320,192,73420,1,0,0:0:0:60:D6S.wav
192,192,73705,1,0,0:0:0:60:C6S.wav
320,192,73848,1,0,0:0:0:60:D6S.wav
64,192,74277,1,0,0:0:0:60:D#6S_Eb6S.wav
192,192,74563,1,0,0:0:0:60:F#6S_Gb6S.wav
320,192,74848,1,0,0:0:0:60:G6S.wav
64,192,75134,1,0,0:0:0:60:A6S.wav
448,192,75420,1,0,0:0:0:60:A#6S_Bb6S.wav
192,192,75848,1,0,0:0:0:60:A6S.wav
320,192,75991,1,0,0:0:0:40:D#5S_Eb5S.wav
64,192,76277,1,0,0:0:0:60:D6S.wav
192,192,76563,128,0,76705:0:0:0:60:F#6S_Gb6S.wav
448,192,77134,1,0,0:0:0:60:G6S.wav
64,192,77420,1,0,0:0:0:60:D#6S_Eb6S.wav
448,192,77705,1,0,0:0:0:60:D6S.wav
320,192,77705,1,0,0:0:0:60:G3S.wav
192,192,77991,1,0,0:0:0:60:A#5S_Bb5S.wav
320,192,78277,1,0,0:0:0:60:A5S.wav
192,192,78563,1,0,0:0:0:60:G5S.wav
64,192,78848,1,0,0:0:0:60:C6S.wav
192,192,79134,1,0,0:0:0:60:D6S.wav
320,192,79420,1,0,0:0:0:60:D#6S_Eb6S.wav
448,192,79705,1,0,0:0:0:60:G6S.wav
192,192,79991,1,0,0:0:0:60:F#6S_Gb6S.wav
320,192,80420,1,0,0:0:0:60:G6S.wav
64,192,80848,1,0,0:0:0:60:A6S.wav
448,192,81134,128,0,81420:0:0:0:60:A#6S_Bb6S.wav
64,192,81705,1,0,0:0:0:60:G6S.wav
192,192,81848,1,0,0:0:0:60:A6S.wav
320,192,81991,1,0,0:0:0:60:A#6S_Bb6S.wav
448,192,82134,1,0,0:0:0:60:D7S.wav
192,192,82277,1,0,0:0:0:60:G7S.wav
64,192,82277,1,0,0:0:0:40:G3S.wav
448,192,82563,1,0,0:0:0:60:D7S.wav
64,192,82848,1,0,0:0:0:60:C7S.wav
320,192,82991,1,0,0:0:0:60:D7S.wav
192,192,83420,1,0,0:0:0:60:D#7S_Eb7S.wav
320,192,83705,1,0,0:0:0:60:F#7S_Gb7S.wav
64,192,83991,1,0,0:0:0:60:G7S.wav
192,192,84277,1,0,0:0:0:60:A7S.wav
448,192,84563,1,0,0:0:0:60:A#7S_Bb7S.wav
320,192,84991,1,0,0:0:0:60:A7S.wav
64,192,85420,1,0,0:0:0:60:G7S.wav
192,192,85705,128,0,85848:0:0:0:60:A7S.wav
448,192,86277,128,0,86563:0:0:0:60:G6S.wav
64,192,86563,128,0,86848:0:0:0:60:F#6S_Gb6S.wav
320,192,86848,128,0,86991:0:0:0:60:G6S.wav
192,192,86848,1,2,0:0:0:0:
64,192,87134,1,2,0:0:0:0:
448,192,87134,1,0,0:0:0:0:
320,192,87277,1,0,0:0:0:0:
192,192,87420,1,0,0:0:0:0:
64,192,87420,1,2,0:0:0:0:
320,192,87705,1,2,0:0:0:0:
448,192,87705,1,0,0:0:0:0:
192,192,87848,1,0,0:0:0:0:
320,192,87991,1,0,0:0:0:0:
64,192,87991,1,2,0:0:0:0:
448,192,88277,1,0,0:0:0:0:
192,192,88277,1,2,0:0:0:0:
320,192,88420,1,0,0:0:0:0:
192,192,88563,1,0,0:0:0:0:
64,192,88563,1,2,0:0:0:0:
64,192,88848,1,0,0:0:0:0:
320,192,88848,1,2,0:0:0:0:
320,192,89134,1,0,0:0:0:0:
448,192,89134,1,2,0:0:0:0:
448,192,89420,1,0,0:0:0:0:
192,192,89420,1,2,0:0:0:0:
64,192,89563,1,0,0:0:0:0:
192,192,89705,1,2,0:0:0:0:
320,192,89705,1,0,0:0:0:0:
64,192,89991,1,0,0:0:0:0:
448,192,89991,1,2,0:0:0:0:
192,192,90134,1,0,0:0:0:0:
448,192,90277,1,2,0:0:0:0:
320,192,90277,1,0,0:0:0:0:
192,192,90563,1,0,0:0:0:0:
64,192,90563,1,2,0:0:0:0:
320,192,90705,1,0,0:0:0:0:
448,192,90848,128,2,91134:0:0:0:0:
192,192,90848,1,0,0:0:0:0:
64,192,91134,128,2,91420:0:0:0:0:
320,192,91277,1,2,0:0:0:0:
192,192,91420,128,0,91563:0:0:0:0:
448,192,91420,1,2,0:0:0:0:
320,192,91705,1,0,0:0:0:0:
64,192,91705,1,2,0:0:0:0:
448,192,91848,1,0,0:0:0:0:
192,192,91991,1,0,0:0:0:0:
64,192,91991,1,2,0:0:0:0:
192,192,92277,1,2,0:0:0:0:
448,192,92277,1,0,0:0:0:0:
64,192,92420,1,0,0:0:0:0:
448,192,92563,1,0,0:0:0:0:
320,192,92563,1,2,0:0:0:0:
192,192,92848,1,0,0:0:0:0:
64,192,92848,1,2,0:0:0:0:
448,192,92991,1,0,0:0:0:0:
192,192,93134,1,2,0:0:0:0:
320,192,93134,1,0,0:0:0:0:
448,192,93420,1,2,0:0:0:0:
64,192,93420,1,0,0:0:0:0:
192,192,93563,1,0,0:0:0:0:
320,192,93705,1,2,0:0:0:0:
448,192,93705,1,0,0:0:0:0:
192,192,93991,1,2,0:0:0:0:
64,192,93991,1,0,0:0:0:0:
448,192,94134,1,0,0:0:0:0:
192,192,94277,1,0,0:0:0:0:
320,192,94277,1,2,0:0:0:0:
192,192,94563,1,0,0:0:0:0:
64,192,94563,1,2,0:0:0:0:
320,192,94705,1,0,0:0:0:0:
64,192,94848,1,0,0:0:0:0:
448,192,94848,1,2,0:0:0:0:
320,192,94991,1,2,0:0:0:0:
192,192,94991,1,0,0:0:0:0:
64,192,95277,1,2,0:0:0:0:
192,192,95348,1,2,0:0:0:0:
320,192,95420,1,2,0:0:0:0:
448,192,95563,1,2,0:0:0:0:
320,192,95634,1,2,0:0:0:0:
192,192,95705,1,2,0:0:0:0:
64,192,95848,1,2,0:0:0:0:
320,192,95991,1,2,0:0:0:0:
448,192,95991,1,0,0:0:0:0:
192,192,96277,1,0,0:0:0:0:
64,192,96277,1,2,0:0:0:0:
448,192,96420,1,0,0:0:0:0:
64,192,96563,1,0,0:0:0:0:
320,192,96563,1,2,0:0:0:0:
192,192,96848,1,2,0:0:0:0:
320,192,96848,1,0,0:0:0:0:
64,192,96991,1,0,0:0:0:0:
320,192,97134,1,2,0:0:0:0:
448,192,97134,1,0,0:0:0:0:
448,192,97420,1,0,0:0:0:0:
192,192,97420,1,2,0:0:0:0:
320,192,97563,1,0,0:0:0:0:
192,192,97705,1,2,0:0:0:0:
64,192,97705,1,0,0:0:0:0:
192,192,97991,1,0,0:0:0:0:
320,192,97991,1,2,0:0:0:0:
448,192,98134,1,0,0:0:0:0:
64,192,98277,1,0,0:0:0:0:
320,192,98277,1,2,0:0:0:0:
320,192,98563,1,0,0:0:0:0:
448,192,98563,1,2,0:0:0:0:
192,192,98705,1,0,0:0:0:0:
320,192,98848,1,2,0:0:0:0:
64,192,98848,1,0,0:0:0:0:
64,192,99134,1,2,0:0:0:0:
448,192,99134,1,0,0:0:0:0:
192,192,99277,1,0,0:0:0:0:
448,192,99420,1,0,0:0:0:0:
320,192,99420,1,2,0:0:0:0:
320,192,99705,1,0,0:0:0:0:
192,192,99705,1,2,0:0:0:0:
448,192,99848,1,0,0:0:0:0:
64,192,99991,128,2,100277:0:0:0:0:
192,192,99991,1,0,0:0:0:0:
448,192,100277,128,2,100563:0:0:0:0:
192,192,100420,1,2,0:0:0:0:
320,192,100563,128,0,100705:0:0:0:0:
64,192,100563,1,2,0:0:0:0:
192,192,100848,1,2,0:0:0:0:
64,192,100848,1,0,0:0:0:0:
320,192,100991,1,0,0:0:0:0:
64,192,101134,1,2,0:0:0:0:
448,192,101134,1,0,0:0:0:0:
320,192,101420,1,0,0:0:0:0:
192,192,101420,1,2,0:0:0:0:
448,192,101563,1,0,0:0:0:0:
64,192,101705,1,0,0:0:0:0:
192,192,101705,1,2,0:0:0:0:
320,192,101991,1,2,0:0:0:0:
448,192,101991,1,0,0:0:0:0:
192,192,102134,1,0,0:0:0:0:
320,192,102277,1,0,0:0:0:0:
64,192,102277,1,2,0:0:0:0:
320,192,102563,1,2,0:0:0:0:
192,192,102563,1,0,0:0:0:0:
64,192,102705,1,0,0:0:0:0:
448,192,102848,1,2,0:0:0:0:
320,192,102991,1,2,0:0:0:0:
64,192,103134,1,2,0:0:0:0:
192,192,103277,1,2,0:0:0:0:
320,192,103420,1,2,0:0:0:0:
448,192,103563,1,2,0:0:0:0:
192,192,103705,1,2,0:0:0:0:
64,192,103848,1,2,0:0:0:0:
320,192,103991,1,2,0:0:0:0:
64,192,104134,1,2,0:0:0:0:
192,192,104205,1,2,0:0:0:0:
448,192,104277,1,2,0:0:0:0:
64,192,104420,1,2,0:0:0:0:
320,192,104491,1,2,0:0:0:0:
448,192,104563,1,2,0:0:0:0:
192,192,104705,1,2,0:0:0:0:
320,192,104777,1,2,0:0:0:0:
448,192,104848,1,2,0:0:0:0:
64,192,104991,1,2,0:0:0:0:
192,192,105063,1,2,0:0:0:0:
320,192,105134,1,2,0:0:0:0:
448,192,105134,128,4,105420:0:0:0:0:
192,192,105420,1,0,0:0:0:0:
320,192,105563,1,0,0:0:0:0:
64,192,105705,128,0,105991:0:0:0:0:
448,192,105705,1,8,0:0:0:0:
320,192,105991,1,0,0:0:0:0:
192,192,106134,1,0,0:0:0:0:
320,192,106277,128,2,106563:0:0:0:0:
448,192,106277,1,0,0:0:0:0:
192,192,106563,1,0,0:0:0:0:
64,192,106705,1,0,0:0:0:0:
192,192,106848,128,0,107134:0:0:0:0:
448,192,106848,1,8,0:0:0:0:
320,192,107134,1,0,0:0:0:0:
448,192,107277,1,0,0:0:0:0:
64,192,107420,128,2,107705:0:0:0:0:
320,192,107420,1,0,0:0:0:0:
192,192,107705,1,0,0:0:0:0:
192,192,107848,1,0,0:0:0:0:
448,192,107991,128,8,108277:0:0:0:0:
64,192,107991,1,0,0:0:0:0:
320,192,108277,1,0,0:0:0:0:
192,192,108420,1,0,0:0:0:0:
320,192,108563,128,2,108848:0:0:0:0:
64,192,108563,1,0,0:0:0:0:
448,192,108848,1,0,0:0:0:0:
192,192,108991,128,0,109277:0:0:0:0:
448,192,109134,1,8,0:0:0:0:
320,192,109134,1,0,0:0:0:0:
64,192,109277,1,0,0:0:0:0:
448,192,109420,128,0,109705:0:0:0:0:
320,192,109563,1,0,0:0:0:0:
64,192,109705,128,2,109991:0:0:0:0:
192,192,109705,1,0,0:0:0:0:
320,192,109991,1,0,0:0:0:0:
448,192,110134,1,0,0:0:0:0:
320,192,110277,128,8,110563:0:0:0:0:
64,192,110277,1,0,0:0:0:0:
192,192,110563,1,0,0:0:0:0:
448,192,110705,1,0,0:0:0:0:
192,192,110848,128,2,111134:0:0:0:0:
320,192,110848,1,0,0:0:0:0:
448,192,111134,1,0,0:0:0:0:
64,192,111277,1,0,0:0:0:0:
448,192,111420,128,0,111705:0:0:0:0:
320,192,111420,1,8,0:0:0:0:
64,192,111705,1,0,0:0:0:0:
192,192,111848,1,0,0:0:0:0:
64,192,111991,128,2,112277:0:0:0:0:
448,192,111991,1,0,0:0:0:0:
320,192,112277,1,0,0:0:0:0:
192,192,112420,1,0,0:0:0:0:
448,192,112563,128,8,112848:0:0:0:0:
320,192,112563,1,0,0:0:0:0:
192,192,112848,128,0,113134:0:0:0:0:
320,192,113134,128,2,113420:0:0:0:0:
64,192,113134,1,0,0:0:0:0:
192,192,113420,1,0,0:0:0:0:
448,192,113705,128,8,113991:0:0:0:0:
320,192,113705,1,0,0:0:0:0:
64,192,113991,128,2,114277:0:0:0:0:
192,192,113991,1,4,0:0:0:0:
320,192,114277,1,2,0:0:0:0:
448,192,114277,128,4,114420:0:0:0:0:
320,192,114563,1,2,0:0:0:0:
192,192,114848,1,2,0:0:0:0:
192,192,115134,1,2,0:0:0:0:
64,192,115420,1,2,0:0:0:0:
64,192,115705,1,2,0:0:0:0:
320,192,115991,1,2,0:0:0:0:
320,192,116277,1,2,0:0:0:0:
448,192,116563,1,2,0:0:0:0:
64,192,116563,1,0,0:0:0:0:
448,192,116848,1,2,0:0:0:0:
64,192,117134,1,2,0:0:0:0:
320,192,117134,1,0,0:0:0:0:
64,192,117420,1,2,0:0:0:0:
320,192,117705,1,2,0:0:0:0:
448,192,117705,1,0,0:0:0:0:
320,192,117991,1,2,0:0:0:0:
448,192,117991,1,0,0:0:0:0:
64,192,118277,1,2,0:0:0:0:
192,192,118277,1,0,0:0:0:0:
64,192,118563,1,2,0:0:0:0:
192,192,118563,1,0,0:0:0:0:
320,192,118848,1,2,0:0:0:0:
448,192,118848,1,4,0:0:0:0:
192,192,119134,1,2,0:0:0:0:
448,192,119134,1,0,0:0:0:0:
64,192,119420,1,2,0:0:0:0:
320,192,119420,1,0,0:0:0:0:
64,192,119705,1,2,0:0:0:0:
192,192,119705,1,0,0:0:0:0:
320,192,119991,1,2,0:0:0:0:
448,192,119991,1,4,0:0:0:0:
64,192,120277,1,2,0:0:0:0:
320,192,120277,1,0,0:0:0:0:
448,192,120563,1,2,0:0:0:0:
192,192,120563,1,0,0:0:0:0:
192,192,120848,1,2,0:0:0:0:
64,192,120848,1,0,0:0:0:0:
448,192,121134,1,4,0:0:0:0:
64,192,121134,1,2,0:0:0:0:
320,192,121277,1,0,0:0:0:0:
192,192,121563,1,0,0:0:0:0:
320,192,121848,1,0,0:0:0:0:
192,192,122134,1,0,0:0:0:0:
64,192,122277,1,2,0:0:0:0:
448,192,122277,1,0,0:0:0:0:
320,192,122420,1,0,0:0:0:0:
192,192,122705,1,0,0:0:0:0:
64,192,122848,128,0,123134:0:0:0:0:
320,192,123134,128,0,123420:0:0:0:0:
448,192,123420,1,4,0:0:0:0:
64,192,123420,128,2,123563:0:0:0:0:
192,192,123705,1,2,0:0:0:0:
320,192,123705,1,8,0:0:0:0:
448,192,123991,1,2,0:0:0:0:
320,192,124277,1,8,0:0:0:0:
64,192,124277,1,2,0:0:0:0:
192,192,124563,1,2,0:0:0:0:
320,192,124848,1,2,0:0:0:0:
448,192,124848,1,8,0:0:0:0:
64,192,124991,1,0,0:0:0:0:
448,192,125134,1,2,0:0:0:0:
64,192,125420,1,8,0:0:0:0:
192,192,125420,128,2,125705:0:0:0:0:
320,192,125563,128,0,125705:0:0:0:0:
448,192,125705,1,2,0:0:0:0:
64,192,125991,1,2,0:0:0:0:
448,192,125991,128,8,126134:0:0:0:0:
320,192,126134,128,0,126277:0:0:0:0:
192,192,126277,1,2,0:0:0:0:
448,192,126563,1,8,0:0:0:0:
320,192,126563,128,2,126848:0:0:0:0:
192,192,126705,128,0,126848:0:0:0:0:
64,192,126848,1,2,0:0:0:0:
192,192,127134,1,2,0:0:0:0:
448,192,127134,128,8,127420:0:0:0:0:
320,192,127277,1,0,0:0:0:0:
192,192,127420,1,2,0:0:0:0:
64,192,127563,1,0,0:0:0:0:
320,192,127705,1,2,0:0:0:0:
448,192,127705,1,8,0:0:0:0:
64,192,127848,1,0,0:0:0:0:
192,192,127991,1,4,0:0:0:0:
448,192,127991,1,2,0:0:0:0:
320,192,128277,1,8,0:0:0:0:
64,192,128277,1,2,0:0:0:0:
192,192,128420,1,0,0:0:0:0:
448,192,128563,1,2,0:0:0:0:
192,192,128848,1,8,0:0:0:0:
64,192,128848,1,2,0:0:0:0:
448,192,128991,1,0,0:0:0:0:
320,192,129134,1,2,0:0:0:0:
64,192,129420,1,2,0:0:0:0:
448,192,129420,1,8,0:0:0:0:
192,192,129563,1,0,0:0:0:0:
320,192,129705,1,2,0:0:0:0:
448,192,129991,1,2,0:0:0:0:
192,192,129991,1,8,0:0:0:0:
320,192,130134,1,0,0:0:0:0:
64,192,130277,1,2,0:0:0:0:
192,192,130563,1,2,0:0:0:0:
448,192,130563,128,8,130705:0:0:0:0:
64,192,130848,1,2,0:0:0:0:
448,192,131134,1,2,0:0:0:0:
192,192,131134,128,8,131420:0:0:0:0:
320,192,131277,128,0,131420:0:0:0:0:
64,192,131420,1,2,0:0:0:0:
192,192,131705,1,2,0:0:0:0:
448,192,131705,128,8,131991:0:0:0:0:
64,192,131848,1,0,0:0:0:0:
192,192,131991,1,2,0:0:0:0:
320,192,132134,1,0,0:0:0:0:
448,192,132277,1,2,0:0:0:0:
64,192,132277,1,8,0:0:0:0:
192,192,132420,1,0,0:0:0:0:
448,192,132563,128,4,132705:0:0:0:0:
320,192,132563,1,2,0:0:0:0:
192,192,132848,1,8,0:0:0:0:
64,192,132848,128,2,132991:0:0:0:0:
320,192,133134,128,2,133277:0:0:0:0:
192,192,133420,128,2,133563:0:0:0:0:
448,192,133420,1,8,0:0:0:0:
64,192,133705,128,2,133848:0:0:0:0:
192,192,133991,1,2,0:0:0:0:
320,192,133991,128,8,134134:0:0:0:0:
448,192,134134,128,0,134277:0:0:0:0:
192,192,134277,1,2,0:0:0:0:
64,192,134563,128,8,134848:0:0:0:0:
320,192,134563,1,2,0:0:0:0:
448,192,134705,128,0,134848:0:0:0:0:
192,192,134848,128,2,134991:0:0:0:0:
192,192,135134,1,8,0:0:0:0:
448,192,135134,128,2,135277:0:0:0:0:
320,192,135277,128,0,135420:0:0:0:0:
64,192,135420,128,2,135563:0:0:0:0:
448,192,135705,1,8,0:0:0:0:
320,192,135705,128,2,135991:0:0:0:0:
192,192,135848,128,0,135991:0:0:0:0:
448,192,135991,128,2,136134:0:0:0:0:
192,192,136277,1,2,0:0:0:0:
64,192,136277,128,8,136563:0:0:0:0:
320,192,136420,128,0,136563:0:0:0:0:
448,192,136563,1,2,0:0:0:0:
192,192,136705,128,0,136848:0:0:0:0:
320,192,136848,128,8,136991:0:0:0:0:
448,192,136848,1,2,0:0:0:0:
64,192,136991,128,0,137134:0:0:0:0:
448,192,137134,128,4,137420:0:0:0:0:
192,192,137134,1,2,0:0:0:0:
320,192,137420,1,8,0:0:0:0:
64,192,137420,1,2,0:0:0:0:
192,192,137563,128,0,137705:0:0:0:0:
64,192,137705,128,4,137991:0:0:0:0:
448,192,137705,1,2,0:0:0:0:
192,192,137991,1,2,0:0:0:0:
448,192,137991,1,8,0:0:0:0:
320,192,138134,128,0,138277:0:0:0:0:
448,192,138277,128,4,138563:0:0:0:0:
64,192,138277,1,2,0:0:0:0:
64,192,138563,1,8,0:0:0:0:
320,192,138563,1,2,0:0:0:0:
192,192,138705,128,0,138848:0:0:0:0:
320,192,138848,128,4,139134:0:0:0:0:
448,192,138848,1,2,0:0:0:0:
64,192,139134,1,2,0:0:0:0:
448,192,139134,1,8,0:0:0:0:
192,192,139420,128,4,139705:0:0:0:0:
320,192,139420,1,2,0:0:0:0:
448,192,139563,1,0,0:0:0:0:
320,192,139705,1,8,0:0:0:0:
64,192,139705,1,2,0:0:0:0:
192,192,139848,1,0,0:0:0:0:
320,192,139991,128,4,140277:0:0:0:0:
448,192,139991,1,2,0:0:0:0:
192,192,140134,1,0,0:0:0:0:
448,192,140277,128,8,140563:0:0:0:0:
64,192,140277,1,2,0:0:0:0:
320,192,140420,1,0,0:0:0:0:
64,192,140563,1,2,0:0:0:0:
192,192,140563,1,4,0:0:0:0:
448,192,141134,128,0,141420:0:0:0:0:
192,192,141420,128,0,141705:0:0:0:0:
448,192,141705,128,4,141848:0:0:0:0:
64,192,141705,1,2,0:0:0:0:
192,192,141991,1,8,0:0:0:0:
320,192,142134,1,0,0:0:0:0:
448,192,142277,1,2,0:0:0:0:
64,192,142420,1,0,0:0:0:0:
192,192,142563,1,8,0:0:0:0:
320,192,142705,1,0,0:0:0:0:
64,192,142848,1,2,0:0:0:0:
192,192,142991,1,0,0:0:0:0:
448,192,143134,1,8,0:0:0:0:
64,192,143277,1,0,0:0:0:0:
320,192,143420,1,2,0:0:0:0:
192,192,143563,1,0,0:0:0:0:
448,192,143705,1,8,0:0:0:0:
64,192,143848,1,0,0:0:0:0:
192,192,143991,1,2,0:0:0:0:
448,192,144134,1,0,0:0:0:0:
320,192,144277,1,8,0:0:0:0:
448,192,144420,1,0,0:0:0:0:
64,192,144563,1,2,0:0:0:0:
192,192,144705,1,0,0:0:0:0:
64,192,144848,128,8,145134:0:0:0:0:
320,192,144991,1,0,0:0:0:0:
192,192,145134,1,2,0:0:0:0:
448,192,145277,1,0,0:0:0:0:
64,192,145420,1,8,0:0:0:0:
192,192,145563,1,0,0:0:0:0:
448,192,145705,1,2,0:0:0:0:
320,192,145848,1,0,0:0:0:0:
192,192,145991,1,8,0:0:0:0:
448,192,146134,1,0,0:0:0:0:
64,192,146277,1,2,0:0:0:0:
192,192,146277,1,4,0:0:0:0:
320,192,146563,1,8,0:0:0:0:
192,192,146705,1,0,0:0:0:0:
320,192,146848,1,2,0:0:0:0:
64,192,146991,1,0,0:0:0:0:
192,192,147134,1,8,0:0:0:0:
320,192,147277,1,0,0:0:0:0:
448,192,147420,1,2,0:0:0:0:
192,192,147563,1,0,0:0:0:0:
320,192,147705,1,8,0:0:0:0:
64,192,147848,1,0,0:0:0:0:
448,192,147991,1,2,0:0:0:0:
192,192,148134,1,0,0:0:0:0:
64,192,148277,1,8,0:0:0:0:
320,192,148420,1,0,0:0:0:0:
192,192,148563,1,2,0:0:0:0:
64,192,148705,1,0,0:0:0:0:
320,192,148848,1,8,0:0:0:0:
448,192,148991,1,0,0:0:0:0:
192,192,149134,1,2,0:0:0:0:
320,192,149277,1,0,0:0:0:0:
64,192,149420,1,8,0:0:0:0:
192,192,149563,1,0,0:0:0:0:
448,192,149705,1,2,0:0:0:0:
64,192,149848,1,0,0:0:0:0:
192,192,149991,1,8,0:0:0:0:
320,192,150134,1,0,0:0:0:0:
448,192,150277,1,2,0:0:0:0:
320,192,150420,1,0,0:0:0:0:
192,192,150563,1,8,0:0:0:0:
64,192,150705,1,0,0:0:0:0:
320,192,150848,1,2,0:0:0:0:
448,192,150848,1,4,0:0:0:0:
64,192,151134,1,8,0:0:0:0:
192,192,151277,1,0,0:0:0:0:
448,192,151420,1,2,0:0:0:0:
64,192,151563,1,0,0:0:0:0:
320,192,151705,1,8,0:0:0:0:
448,192,151848,1,0,0:0:0:0:
64,192,151991,1,2,0:0:0:0:
192,192,152134,1,0,0:0:0:0:
320,192,152277,1,8,0:0:0:0:
64,192,152420,1,0,0:0:0:0:
192,192,152563,1,2,0:0:0:0:
448,192,152705,1,0,0:0:0:0:
64,192,152848,1,8,0:0:0:0:
448,192,152991,1,0,0:0:0:0:
320,192,153134,1,2,0:0:0:0:
64,192,153277,1,0,0:0:0:0:
192,192,153420,1,8,0:0:0:0:
64,192,153563,1,0,0:0:0:0:
448,192,153705,1,2,0:0:0:0:
320,192,153848,1,0,0:0:0:0:
448,192,153991,128,8,154277:0:0:0:0:
64,192,154134,1,0,0:0:0:0:
192,192,154277,1,2,0:0:0:0:
320,192,154420,1,0,0:0:0:0:
64,192,154563,1,8,0:0:0:0:
448,192,154705,1,0,0:0:0:0:
320,192,154848,1,2,0:0:0:0:
64,192,154991,1,0,0:0:0:0:
192,192,155134,1,10,0:0:0:0:
320,192,155277,1,2,0:0:0:0:
64,192,155420,1,2,0:0:0:0:
448,192,155420,1,4,0:0:0:0:
64,192,155563,1,2,0:0:0:0:
192,192,155705,1,10,0:0:0:0:
192,192,155848,1,2,0:0:0:0:
320,192,155991,1,2,0:0:0:0:
320,192,156134,1,2,0:0:0:0:
448,192,156277,1,10,0:0:0:0:
448,192,156420,1,2,0:0:0:0:
192,192,156563,1,2,0:0:0:0:
320,192,156563,1,4,0:0:0:0:
192,192,156705,1,2,0:0:0:0:
320,192,156848,1,10,0:0:0:0:
320,192,156991,1,2,0:0:0:0:
64,192,157134,1,2,0:0:0:0:
64,192,157277,1,2,0:0:0:0:
448,192,157420,1,10,0:0:0:0:
448,192,157563,1,2,0:0:0:0:
64,192,157705,128,2,157991:0:0:0:0:
192,192,157705,1,4,0:0:0:0:
320,192,157991,1,2,0:0:0:0:
192,192,158134,1,2,0:0:0:0:
448,192,158277,128,4,158563:0:0:0:0:
320,192,158277,1,2,0:0:0:0:
192,192,158563,1,2,0:0:0:0:
320,192,158705,1,2,0:0:0:0:
64,192,158848,1,2,0:0:0:0:
192,192,158848,1,4,0:0:0:0:
448,192,158991,128,2,159134:0:0:0:0:
192,192,159134,1,2,0:0:0:0:
64,192,159277,128,2,159420:0:0:0:0:
320,192,159420,1,2,0:0:0:0:
448,192,159563,128,2,159705:0:0:0:0:
192,192,159705,128,2,159991:0:0:0:0:
320,192,159848,128,2,159991:0:0:0:0:
64,192,161134,128,0,163420:0:0:0:60:G2S.wav
192,192,161134,1,6,0:0:0:0:
