osu file format v14

[General]
AudioFilename: audio.ogg
AudioLeadIn: 0
PreviewTime: 122848
Countdown: 0
SampleSet: Drum
StackLeniency: 0.7
Mode: 3
LetterboxInBreaks: 0
SpecialStyle: 0
WidescreenStoryboard: 1

[Editor]
DistanceSpacing: 1.3
BeatDivisor: 4
GridSize: 4
TimelineZoom: 1

[Metadata]
Title:Another Me
TitleUnicode:Another Me
Artist:D_AAN
ArtistUnicode:D_AAN
Creator:Slick6969
Version:Easy
Source:Phigros
Tags:Hatsune Miku Hardcore EDM Vocaloid Electronic Dance Music Japanese Kazemura Adidkh ZxNX KALPA 初音ミク keysound SV instrumental
BeatmapID:3396716
BeatmapSetID:1662281

[Difficulty]
HPDrainRate:7
CircleSize:4
OverallDifficulty:6.5
ApproachRate:5
SliderMultiplier:1
SliderTickRate:1

[Events]
//Background and Video events
0,0,"anotherme.jpg",0,0
//Break Periods
//Storyboard Layer 0 (Background)
//Storyboard Layer 1 (Fail)
//Storyboard Layer 2 (Pass)
//Storyboard Layer 3 (Foreground)
//Storyboard Layer 4 (Overlay)
//Storyboard Sound Samples
Sample,68563,0,"D5S.wav",40
Sample,72705,0,"D6S.wav",60
Sample,72991,0,"A5S.wav",60
Sample,83420,0,"D#4S_Eb4S.wav",40
Sample,84563,0,"D4S.wav",40
Sample,85705,0,"A3S.wav",40

[TimingPoints]
4563,285.714285714286,4,3,1,100,1,0
22848,-100,4,3,1,50,0,0
23420,-100,4,3,1,55,0,0
23991,-100,4,3,1,60,0,0
24563,-100,4,3,1,65,0,0
25134,-100,4,3,1,70,0,0
25705,-100,4,3,1,75,0,0
26277,-100,4,3,1,80,0,0
26848,-100,4,3,1,85,0,0
27420,-100,4,3,1,90,0,0
29705,-100,4,3,1,95,0,0
30277,-100,4,3,1,100,0,0
40705,-100,4,3,1,70,0,0
40848,-100,4,3,1,80,0,0
40991,-100,4,3,1,90,0,0
41134,-100,4,3,1,100,0,0
86848,-100,4,3,1,100,0,1
105134,-100,4,3,1,100,0,0
113991,-100,4,3,1,50,0,0
114277,-100,4,3,1,100,0,0
114563,-100,4,3,1,65,0,0
115420,-100,4,3,1,70,0,0
116563,-100,4,3,1,75,0,0
117705,-100,4,3,1,80,0,0
118848,-100,4,3,1,85,0,0
119991,-100,4,3,1,90,0,0
121134,-100,4,3,1,95,0,0
123420,-100,4,3,1,100,0,1
140563,-100,4,3,1,100,0,0
157723,-100,4,3,1,69,0,0

[HitObjects]
448,192,4562,5,0,0:0:0:60:tick.wav
64,192,4562,1,6,0:0:0:0:
320,192,5134,1,0,0:0:0:60:tick.wav
192,192,5705,1,0,0:0:0:60:tick.wav
448,192,6277,1,0,0:0:0:60:tick.wav
64,192,6848,1,0,0:0:0:60:tick.wav
192,192,7420,1,0,0:0:0:60:tick.wav
448,192,7991,1,0,0:0:0:60:tick.wav
192,192,8563,1,0,0:0:0:60:tick.wav
320,192,9134,1,0,0:0:0:60:tick.wav
64,192,9705,1,0,0:0:0:60:tick.wav
192,192,10277,1,0,0:0:0:60:tick.wav
320,192,10848,1,0,0:0:0:60:tick.wav
192,192,11420,1,0,0:0:0:60:tick.wav
64,192,11991,1,0,0:0:0:60:tick.wav
448,192,12563,128,0,13134:0:0:0:60:tick.wav
320,192,12563,1,8,0:0:0:0:
64,192,13134,1,0,0:0:0:60:G7S.wav
192,192,13420,1,0,0:0:0:60:F#7S_Gb7S.wav
64,192,13705,1,6,0:0:0:0:
448,192,13705,128,0,14277:0:0:0:60:G7S.wav
320,192,14277,1,8,0:0:0:0:
192,192,14848,128,2,15420:0:0:0:0:
64,192,14848,1,0,0:0:0:0:
448,192,15420,1,8,0:0:0:0:
192,192,15705,1,0,0:0:0:0:
320,192,15991,128,0,16563:0:0:0:0:
64,192,15991,1,2,0:0:0:0:
448,192,16563,1,8,0:0:0:0:
64,192,17134,128,2,17705:0:0:0:0:
192,192,17134,1,0,0:0:0:0:
448,192,17705,1,8,0:0:0:0:
320,192,17991,1,0,0:0:0:0:
448,192,18277,128,4,18848:0:0:0:0:
64,192,18277,1,2,0:0:0:0:
192,192,18848,1,8,0:0:0:0:
320,192,19420,128,2,19991:0:0:0:0:
448,192,19420,1,0,0:0:0:0:
64,192,19991,1,8,0:0:0:0:
320,192,20277,1,0,0:0:0:0:
448,192,20563,1,2,0:0:0:0:
192,192,20563,128,4,21134:0:0:0:0:
320,192,21134,1,8,0:0:0:0:
64,192,21420,128,2,21705:0:0:0:0:
448,192,21705,1,4,0:0:0:0:
320,192,21705,1,2,0:0:0:0:
448,192,21991,128,2,22277:0:0:0:0:
64,192,22277,1,10,0:0:0:0:
192,192,22848,1,2,0:0:0:0:
320,192,22848,1,4,0:0:0:0:
192,192,23134,1,2,0:0:0:0:
448,192,23420,1,2,0:0:0:0:
448,192,23705,1,2,0:0:0:0:
64,192,23991,1,2,0:0:0:0:
64,192,24277,1,2,0:0:0:0:
320,192,24563,1,2,0:0:0:0:
448,192,24848,1,2,0:0:0:0:
64,192,25134,1,2,0:0:0:0:
64,192,25420,1,2,0:0:0:0:
320,192,25705,1,2,0:0:0:0:
320,192,25991,1,2,0:0:0:0:
448,192,26277,1,2,0:0:0:0:
320,192,26563,1,2,0:0:0:0:
192,192,26848,1,2,0:0:0:0:
192,192,27134,1,2,0:0:0:0:
64,192,27420,1,4,0:0:0:0:
448,192,27420,128,2,27705:0:0:0:0:
320,192,27705,128,2,27991:0:0:0:0:
192,192,27991,128,2,28277:0:0:0:0:
64,192,28277,128,2,28563:0:0:0:0:
320,192,28563,128,2,28848:0:0:0:0:
448,192,28848,128,2,29134:0:0:0:0:
192,192,29134,128,2,29420:0:0:0:0:
64,192,29420,128,2,29705:0:0:0:0:
448,192,29705,128,2,30277:0:0:0:0:
192,192,29991,1,2,0:0:0:0:
64,192,30277,128,2,30848:0:0:0:0:
320,192,30563,1,2,0:0:0:0:
192,192,30848,1,2,0:0:0:0:
448,192,30848,1,4,0:0:0:0:
320,192,31420,128,8,31705:0:0:0:0:
192,192,31705,128,0,31991:0:0:0:0:
448,192,31991,1,2,0:0:0:0:
192,192,32277,1,4,0:0:0:0:
64,192,32277,1,2,0:0:0:0:
320,192,32563,1,2,0:0:0:0:
320,192,32848,1,2,0:0:0:0:
64,192,33134,1,2,0:0:0:0:
64,192,33420,1,2,0:0:0:0:
192,192,33705,1,2,0:0:0:0:
192,192,33991,1,2,0:0:0:0:
448,192,34277,1,2,0:0:0:0:
448,192,34563,1,2,0:0:0:0:
64,192,34848,1,2,0:0:0:0:
64,192,35134,1,2,0:0:0:0:
320,192,35420,1,2,0:0:0:0:
320,192,35705,1,2,0:0:0:0:
64,192,35991,128,2,36277:0:0:0:0:
448,192,36277,128,2,36563:0:0:0:0:
192,192,36563,1,2,0:0:0:0:
320,192,36848,1,2,0:0:0:0:
448,192,36848,1,4,0:0:0:0:
64,192,37134,1,2,0:0:0:0:
64,192,37420,1,2,0:0:0:0:
320,192,37705,1,2,0:0:0:0:
320,192,37991,1,2,0:0:0:0:
192,192,38277,1,2,0:0:0:0:
192,192,38563,1,2,0:0:0:0:
448,192,38848,1,2,0:0:0:0:
320,192,39134,1,2,0:0:0:0:
192,192,39420,1,2,0:0:0:0:
64,192,39705,1,2,0:0:0:0:
448,192,39991,128,2,40277:0:0:0:0:
64,192,40277,1,0,0:0:0:0:
320,192,40563,1,8,0:0:0:0:
448,192,40563,1,0,0:0:0:0:
64,192,40705,1,2,0:0:0:0:
192,192,40848,1,2,0:0:0:0:
320,192,40991,1,2,0:0:0:0:
64,192,41134,1,2,0:0:0:0:
192,192,41420,1,2,0:0:0:0:
448,192,41420,1,8,0:0:0:0:
320,192,41705,1,2,0:0:0:0:
64,192,41991,1,2,0:0:0:0:
192,192,41991,1,8,0:0:0:0:
448,192,42277,1,2,0:0:0:0:
320,192,42563,1,2,0:0:0:0:
64,192,42563,1,8,0:0:0:0:
192,192,42848,1,2,0:0:0:0:
320,192,43134,1,2,0:0:0:0:
448,192,43134,1,8,0:0:0:0:
192,192,43277,1,0,0:0:0:0:
64,192,43420,1,2,0:0:0:0:
192,192,43705,1,2,0:0:0:0:
320,192,43705,1,8,0:0:0:0:
448,192,43991,1,2,0:0:0:0:
320,192,44277,1,8,0:0:0:0:
64,192,44277,1,2,0:0:0:0:
192,192,44563,1,2,0:0:0:0:
64,192,44848,1,2,0:0:0:0:
448,192,44848,128,8,45134:0:0:0:0:
320,192,45134,1,2,0:0:0:0:
192,192,45420,1,8,0:0:0:0:
64,192,45420,1,2,0:0:0:0:
448,192,45705,1,2,0:0:0:0:
320,192,45991,1,8,0:0:0:0:
192,192,45991,1,2,0:0:0:0:
64,192,46277,1,2,0:0:0:0:
192,192,46563,1,2,0:0:0:0:
448,192,46563,1,8,0:0:0:0:
320,192,46848,1,2,0:0:0:0:
64,192,47134,1,2,0:0:0:0:
448,192,47134,1,8,0:0:0:0:
192,192,47420,1,2,0:0:0:0:
320,192,47705,1,2,0:0:0:0:
448,192,47705,1,8,0:0:0:0:
192,192,47848,1,0,0:0:0:0:
64,192,47991,1,2,0:0:0:0:
192,192,48277,1,2,0:0:0:0:
320,192,48277,1,8,0:0:0:0:
448,192,48563,1,2,0:0:0:0:
64,192,48848,1,2,0:0:0:0:
192,192,48848,1,8,0:0:0:0:
448,192,49134,128,2,49420:0:0:0:0:
192,192,49420,1,10,0:0:0:0:
320,192,49563,1,2,0:0:0:0:
64,192,49705,128,2,49991:0:0:0:0:
320,192,49991,128,2,50277:0:0:0:0:
192,192,50277,1,4,0:0:0:0:
64,192,50277,1,2,0:0:0:0:
448,192,50563,128,0,50848:0:0:0:0:
192,192,50848,1,8,0:0:0:0:
320,192,51134,128,0,51420:0:0:0:0:
64,192,51420,1,2,0:0:0:0:
192,192,51705,128,0,51991:0:0:0:0:
448,192,51991,1,8,0:0:0:0:
64,192,52277,128,2,52563:0:0:0:0:
320,192,52563,1,2,0:0:0:0:
448,192,52563,128,0,53348:0:0:0:0:
64,192,54848,1,2,0:0:0:0:
448,192,54848,1,4,0:0:0:0:
320,192,55277,1,0,0:0:0:0:
192,192,55277,1,2,0:0:0:0:
64,192,55705,1,2,0:0:0:0:
448,192,55705,1,0,0:0:0:0:
320,192,56134,1,2,0:0:0:0:
448,192,56134,1,0,0:0:0:0:
192,192,56348,1,2,0:0:0:0:
448,192,56563,1,0,0:0:0:0:
320,192,56563,1,2,0:0:0:0:
192,192,56848,1,2,0:0:0:0:
320,192,56991,1,2,0:0:0:0:
64,192,57134,1,2,0:0:0:0:
192,192,57134,1,0,0:0:0:0:
64,192,57420,1,2,0:0:0:0:
448,192,57705,1,2,0:0:0:0:
448,192,57991,1,2,0:0:0:0:
192,192,58134,1,2,0:0:0:0:
320,192,58277,1,2,0:0:0:0:
64,192,58420,1,2,0:0:0:0:
448,192,58705,1,2,0:0:0:0:
64,192,58848,128,2,59134:0:0:0:0:
320,192,59134,1,2,0:0:0:0:
192,192,59277,1,2,0:0:0:0:
448,192,59420,1,2,0:0:0:0:
64,192,59420,1,0,0:0:0:0:
448,192,59705,1,2,0:0:0:0:
192,192,59991,1,2,0:0:0:0:
192,192,60277,1,2,0:0:0:0:
320,192,60563,1,2,0:0:0:0:
320,192,60848,1,2,0:0:0:0:
64,192,61134,1,2,0:0:0:0:
64,192,61420,1,2,0:0:0:0:
448,192,61705,1,2,0:0:0:0:
320,192,61705,1,0,0:0:0:0:
192,192,61991,1,2,0:0:0:0:
448,192,62277,1,2,0:0:0:0:
192,192,62563,1,2,0:0:0:0:
320,192,62705,1,2,0:0:0:0:
64,192,62848,1,2,0:0:0:0:
192,192,63134,1,2,0:0:0:0:
448,192,63277,1,2,0:0:0:0:
320,192,63420,1,2,0:0:0:0:
64,192,63563,1,2,0:0:0:0:
192,192,63705,1,2,0:0:0:0:
320,192,63991,128,0,64277:0:0:0:0:
64,192,64277,1,2,0:0:0:0:
192,192,64277,1,4,0:0:0:0:
448,192,64563,1,8,0:0:0:0:
64,192,64991,1,2,0:0:0:0:
64,192,65420,128,2,65705:0:0:0:0:
448,192,65705,1,8,0:0:0:0:
192,192,65848,1,2,0:0:0:0:
320,192,66277,1,2,0:0:0:0:
448,192,66277,1,4,0:0:0:0:
448,192,66563,1,2,0:0:0:0:
64,192,66848,1,2,0:0:0:0:
64,192,67134,1,2,0:0:0:0:
192,192,67277,1,2,0:0:0:0:
448,192,67420,1,2,0:0:0:0:
320,192,67563,1,2,0:0:0:0:
64,192,67848,1,2,0:0:0:0:
320,192,67991,128,2,68277:0:0:0:0:
192,192,68277,128,2,68563:0:0:0:0:
64,192,68563,1,6,0:0:0:0:
448,192,68563,1,0,0:0:0:60:D6S.wav
320,192,68848,1,0,0:0:0:60:A#5S_Bb5S.wav
192,192,69134,1,0,0:0:0:60:A5S.wav
64,192,69420,1,0,0:0:0:60:G5S.wav
448,192,69705,1,0,0:0:0:60:C6S.wav
192,192,69991,1,0,0:0:0:60:D6S.wav
320,192,70277,1,0,0:0:0:60:D#6S_Eb6S.wav
448,192,70563,1,0,0:0:0:60:G6S.wav
192,192,70848,1,0,0:0:0:60:F#6S_Gb6S.wav
320,192,71277,1,0,0:0:0:60:G6S.wav
64,192,71705,1,0,0:0:0:60:C6S.wav
192,192,71991,128,0,72277:0:0:0:60:D6S.wav
320,192,72563,128,0,72848:0:0:0:60:G6S.wav
64,192,72848,128,0,73134:0:0:0:60:A#5S_Bb5S.wav
448,192,73134,1,0,0:0:0:60:G5S.wav
192,192,73134,1,0,0:0:0:40:G4S.wav
320,192,73420,1,0,0:0:0:60:D6S.wav
192,192,73705,1,0,0:0:0:60:C6S.wav
320,192,73848,1,0,0:0:0:60:D6S.wav
64,192,74277,1,0,0:0:0:60:D#6S_Eb6S.wav
192,192,74563,1,0,0:0:0:60:F#6S_Gb6S.wav
320,192,74848,1,0,0:0:0:60:G6S.wav
448,192,75134,1,0,0:0:0:60:A6S.wav
192,192,75420,1,0,0:0:0:60:A#6S_Bb6S.wav
320,192,75848,1,0,0:0:0:60:A6S.wav
64,192,76277,1,0,0:0:0:60:D6S.wav
192,192,76563,1,0,0:0:0:60:F#6S_Gb6S.wav
448,192,77134,1,0,0:0:0:60:G6S.wav
64,192,77420,1,0,0:0:0:60:D#6S_Eb6S.wav
320,192,77705,1,0,0:0:0:60:G3S.wav
448,192,77705,1,0,0:0:0:60:D6S.wav
192,192,77991,1,0,0:0:0:60:A#5S_Bb5S.wav
64,192,78277,1,0,0:0:0:60:A5S.wav
320,192,78563,1,0,0:0:0:60:G5S.wav
64,192,78848,1,0,0:0:0:60:C6S.wav
192,192,79134,1,0,0:0:0:60:D6S.wav
320,192,79420,1,0,0:0:0:60:D#6S_Eb6S.wav
448,192,79705,1,0,0:0:0:60:G6S.wav
192,192,79991,1,0,0:0:0:60:F#6S_Gb6S.wav
320,192,80420,1,0,0:0:0:60:G6S.wav
64,192,80848,1,0,0:0:0:60:A6S.wav
448,192,81134,128,0,81420:0:0:0:60:A#6S_Bb6S.wav
64,192,81705,1,0,0:0:0:60:G6S.wav
192,192,81848,1,0,0:0:0:60:A6S.wav
320,192,81991,1,0,0:0:0:60:A#6S_Bb6S.wav
448,192,82134,1,0,0:0:0:60:D7S.wav
192,192,82277,1,0,0:0:0:60:G7S.wav
64,192,82277,1,0,0:0:0:40:G3S.wav
448,192,82563,1,0,0:0:0:60:D7S.wav
64,192,82848,1,0,0:0:0:60:C7S.wav
192,192,82991,1,0,0:0:0:60:D7S.wav
320,192,83420,1,0,0:0:0:60:D#7S_Eb7S.wav
64,192,83705,1,0,0:0:0:60:F#7S_Gb7S.wav
192,192,83991,1,0,0:0:0:60:G7S.wav
320,192,84277,1,0,0:0:0:60:A7S.wav
448,192,84563,1,0,0:0:0:60:A#7S_Bb7S.wav
320,192,84991,1,0,0:0:0:60:A7S.wav
64,192,85420,1,0,0:0:0:60:G7S.wav
192,192,85705,1,0,0:0:0:60:A7S.wav
448,192,86277,128,0,86563:0:0:0:60:G6S.wav
192,192,86563,128,0,86848:0:0:0:60:F#6S_Gb6S.wav
64,192,86848,1,2,0:0:0:0:
448,192,86848,1,0,0:0:0:60:G6S.wav
64,192,87134,1,2,0:0:0:0:
320,192,87420,1,2,0:0:0:0:
320,192,87705,1,2,0:0:0:0:
192,192,87991,1,2,0:0:0:0:
192,192,88277,1,2,0:0:0:0:
448,192,88563,1,2,0:0:0:0:
448,192,88848,1,2,0:0:0:0:
320,192,89134,1,2,0:0:0:0:
320,192,89420,1,2,0:0:0:0:
64,192,89705,1,2,0:0:0:0:
64,192,89991,1,2,0:0:0:0:
192,192,90277,1,2,0:0:0:0:
192,192,90563,1,2,0:0:0:0:
448,192,90848,128,2,91134:0:0:0:0:
64,192,91134,1,2,0:0:0:0:
192,192,91277,1,2,0:0:0:0:
320,192,91420,1,2,0:0:0:0:
320,192,91705,1,2,0:0:0:0:
192,192,91991,1,2,0:0:0:0:
192,192,92277,1,2,0:0:0:0:
448,192,92563,1,2,0:0:0:0:
448,192,92848,1,2,0:0:0:0:
64,192,93134,1,2,0:0:0:0:
64,192,93420,1,2,0:0:0:0:
320,192,93705,1,2,0:0:0:0:
320,192,93991,1,2,0:0:0:0:
192,192,94277,1,2,0:0:0:0:
192,192,94563,1,2,0:0:0:0:
320,192,94848,1,2,0:0:0:0:
448,192,94991,1,2,0:0:0:0:
64,192,95277,1,2,0:0:0:0:
192,192,95420,128,2,95705:0:0:0:0:
320,192,95705,128,2,95991:0:0:0:0:
64,192,95991,1,2,0:0:0:0:
64,192,96277,1,2,0:0:0:0:
448,192,96563,1,2,0:0:0:0:
448,192,96848,1,2,0:0:0:0:
192,192,97134,1,2,0:0:0:0:
192,192,97420,1,2,0:0:0:0:
320,192,97705,1,2,0:0:0:0:
320,192,97991,1,2,0:0:0:0:
64,192,98277,1,2,0:0:0:0:
64,192,98563,1,2,0:0:0:0:
448,192,98848,1,2,0:0:0:0:
448,192,99134,1,2,0:0:0:0:
192,192,99420,1,2,0:0:0:0:
192,192,99705,1,2,0:0:0:0:
64,192,99991,128,2,100277:0:0:0:0:
448,192,100277,1,2,0:0:0:0:
320,192,100420,1,2,0:0:0:0:
192,192,100563,1,2,0:0:0:0:
192,192,100848,1,2,0:0:0:0:
320,192,101134,1,2,0:0:0:0:
320,192,101420,1,2,0:0:0:0:
64,192,101705,1,2,0:0:0:0:
64,192,101991,1,2,0:0:0:0:
192,192,102277,1,2,0:0:0:0:
192,192,102563,1,2,0:0:0:0:
448,192,102848,128,2,103134:0:0:0:0:
320,192,103134,128,2,103420:0:0:0:0:
192,192,103420,128,2,103705:0:0:0:0:
64,192,103705,128,2,103991:0:0:0:0:
448,192,103991,1,2,0:0:0:0:
192,192,104134,1,2,0:0:0:0:
320,192,104277,128,2,104563:0:0:0:0:
64,192,104563,1,2,0:0:0:0:
448,192,104705,1,2,0:0:0:0:
192,192,104848,128,2,105134:0:0:0:0:
64,192,105134,1,4,0:0:0:0:
448,192,105134,128,2,105420:0:0:0:0:
320,192,105563,1,0,0:0:0:0:
192,192,105705,128,8,105991:0:0:0:0:
64,192,106134,1,0,0:0:0:0:
320,192,106277,128,2,106563:0:0:0:0:
192,192,106705,1,0,0:0:0:0:
448,192,106848,128,8,107134:0:0:0:0:
320,192,107277,1,0,0:0:0:0:
64,192,107420,128,2,107705:0:0:0:0:
192,192,107848,1,0,0:0:0:0:
320,192,107991,128,8,108277:0:0:0:0:
64,192,108420,1,0,0:0:0:0:
448,192,108563,128,2,108848:0:0:0:0:
192,192,108848,1,0,0:0:0:0:
64,192,108991,128,0,109277:0:0:0:0:
320,192,109277,1,0,0:0:0:0:
192,192,109420,128,0,109705:0:0:0:0:
448,192,109705,128,2,109991:0:0:0:0:
64,192,110134,1,0,0:0:0:0:
192,192,110277,128,8,110563:0:0:0:0:
320,192,110705,1,0,0:0:0:0:
64,192,110848,128,2,111134:0:0:0:0:
192,192,111277,1,0,0:0:0:0:
448,192,111420,128,8,111705:0:0:0:0:
64,192,111848,1,0,0:0:0:0:
320,192,111991,128,2,112277:0:0:0:0:
64,192,112563,128,8,112848:0:0:0:0:
448,192,112848,128,0,113134:0:0:0:0:
192,192,113134,128,2,113420:0:0:0:0:
448,192,113705,128,8,113991:0:0:0:0:
64,192,113991,128,6,114277:0:0:0:0:
320,192,114277,1,4,0:0:0:0:
192,192,114277,1,2,0:0:0:0:
448,192,114563,1,2,0:0:0:0:
192,192,114848,1,2,0:0:0:0:
448,192,115134,1,2,0:0:0:0:
64,192,115420,1,2,0:0:0:0:
320,192,115705,1,2,0:0:0:0:
64,192,115991,1,2,0:0:0:0:
320,192,116277,1,2,0:0:0:0:
64,192,116563,1,2,0:0:0:0:
192,192,116848,1,2,0:0:0:0:
320,192,117134,1,2,0:0:0:0:
448,192,117420,1,2,0:0:0:0:
192,192,117705,1,2,0:0:0:0:
64,192,117991,1,2,0:0:0:0:
448,192,118277,1,2,0:0:0:0:
320,192,118563,1,2,0:0:0:0:
448,192,118848,1,4,0:0:0:0:
64,192,118848,1,2,0:0:0:0:
64,192,119134,1,2,0:0:0:0:
320,192,119420,1,2,0:0:0:0:
320,192,119705,1,2,0:0:0:0:
64,192,119991,1,4,0:0:0:0:
448,192,119991,1,2,0:0:0:0:
448,192,120277,1,2,0:0:0:0:
192,192,120563,1,2,0:0:0:0:
192,192,120848,1,2,0:0:0:0:
448,192,121134,1,4,0:0:0:0:
64,192,121134,128,2,122277:0:0:0:0:
448,192,122277,128,2,122848:0:0:0:0:
192,192,122848,128,0,123134:0:0:0:0:
320,192,123134,128,0,123420:0:0:0:0:
64,192,123420,1,2,0:0:0:0:
448,192,123420,1,4,0:0:0:0:
192,192,123705,1,2,0:0:0:0:
320,192,123705,1,8,0:0:0:0:
64,192,123991,1,2,0:0:0:0:
320,192,124277,1,2,0:0:0:0:
448,192,124277,1,8,0:0:0:0:
192,192,124563,1,2,0:0:0:0:
64,192,124848,1,2,0:0:0:0:
448,192,124848,1,8,0:0:0:0:
192,192,125134,1,2,0:0:0:0:
320,192,125420,1,8,0:0:0:0:
64,192,125420,1,2,0:0:0:0:
192,192,125563,1,0,0:0:0:0:
448,192,125705,1,2,0:0:0:0:
192,192,125991,1,8,0:0:0:0:
64,192,125991,1,2,0:0:0:0:
320,192,126134,1,0,0:0:0:0:
64,192,126277,1,2,0:0:0:0:
320,192,126563,1,8,0:0:0:0:
192,192,126563,1,2,0:0:0:0:
448,192,126705,1,0,0:0:0:0:
64,192,126848,1,2,0:0:0:0:
192,192,127134,1,2,0:0:0:0:
448,192,127134,1,8,0:0:0:0:
64,192,127277,1,0,0:0:0:0:
320,192,127420,1,2,0:0:0:0:
192,192,127705,1,8,0:0:0:0:
64,192,127705,1,2,0:0:0:0:
448,192,127991,1,4,0:0:0:0:
320,192,127991,1,2,0:0:0:0:
64,192,128277,1,2,0:0:0:0:
192,192,128277,1,8,0:0:0:0:
448,192,128563,1,2,0:0:0:0:
320,192,128848,1,8,0:0:0:0:
192,192,128848,1,2,0:0:0:0:
64,192,129134,1,2,0:0:0:0:
192,192,129420,1,2,0:0:0:0:
448,192,129420,1,8,0:0:0:0:
64,192,129705,1,2,0:0:0:0:
320,192,129991,1,8,0:0:0:0:
448,192,129991,1,2,0:0:0:0:
192,192,130277,1,2,0:0:0:0:
64,192,130563,1,8,0:0:0:0:
320,192,130563,1,2,0:0:0:0:
192,192,130848,1,2,0:0:0:0:
320,192,131134,1,8,0:0:0:0:
448,192,131134,1,2,0:0:0:0:
192,192,131277,1,0,0:0:0:0:
64,192,131420,1,2,0:0:0:0:
192,192,131705,1,2,0:0:0:0:
448,192,131705,1,8,0:0:0:0:
64,192,131848,1,0,0:0:0:0:
320,192,131991,1,2,0:0:0:0:
192,192,132277,1,8,0:0:0:0:
64,192,132277,1,2,0:0:0:0:
448,192,132563,128,4,132848:0:0:0:0:
320,192,132563,1,2,0:0:0:0:
192,192,132848,128,10,133134:0:0:0:0:
64,192,133134,128,2,133420:0:0:0:0:
320,192,133420,128,10,133705:0:0:0:0:
448,192,133705,128,2,133991:0:0:0:0:
64,192,133991,1,10,0:0:0:0:
192,192,134134,128,0,134420:0:0:0:0:
64,192,134563,1,10,0:0:0:0:
320,192,134705,1,0,0:0:0:0:
448,192,134848,128,2,135134:0:0:0:0:
192,192,135134,1,10,0:0:0:0:
320,192,135277,1,0,0:0:0:0:
64,192,135420,128,2,135705:0:0:0:0:
448,192,135705,1,10,0:0:0:0:
192,192,135848,1,0,0:0:0:0:
320,192,135991,128,2,136277:0:0:0:0:
448,192,136277,1,10,0:0:0:0:
64,192,136420,128,0,136705:0:0:0:0:
192,192,136705,1,0,0:0:0:0:
320,192,136848,1,10,0:0:0:0:
448,192,136991,1,0,0:0:0:0:
64,192,137134,1,2,0:0:0:0:
192,192,137134,1,4,0:0:0:0:
64,192,137420,1,10,0:0:0:0:
192,192,137563,1,0,0:0:0:0:
448,192,137705,1,2,0:0:0:0:
320,192,137705,1,4,0:0:0:0:
448,192,137991,1,10,0:0:0:0:
192,192,138134,1,0,0:0:0:0:
64,192,138277,1,4,0:0:0:0:
320,192,138277,1,2,0:0:0:0:
320,192,138563,1,10,0:0:0:0:
64,192,138705,1,0,0:0:0:0:
448,192,138848,1,4,0:0:0:0:
192,192,138848,1,2,0:0:0:0:
192,192,139134,1,10,0:0:0:0:
64,192,139420,1,4,0:0:0:0:
448,192,139420,128,2,139991:0:0:0:0:
192,192,139705,1,10,0:0:0:0:
320,192,139991,1,4,0:0:0:0:
64,192,139991,128,2,140563:0:0:0:0:
448,192,140277,1,10,0:0:0:0:
320,192,140563,1,2,0:0:0:0:
192,192,140563,1,4,0:0:0:0:
320,192,141134,128,0,141420:0:0:0:0:
448,192,141420,128,0,141705:0:0:0:0:
64,192,141705,5,2,0:0:0:0:
192,192,141705,1,4,0:0:0:0:
448,192,141991,1,8,0:0:0:0:
192,192,142277,1,2,0:0:0:0:
320,192,142563,1,8,0:0:0:0:
64,192,142848,1,2,0:0:0:0:
448,192,143134,1,8,0:0:0:0:
192,192,143420,1,2,0:0:0:0:
320,192,143705,1,8,0:0:0:0:
64,192,143991,1,2,0:0:0:0:
448,192,144277,1,8,0:0:0:0:
64,192,144563,1,2,0:0:0:0:
448,192,144848,1,8,0:0:0:0:
192,192,144991,1,0,0:0:0:0:
320,192,145134,1,2,0:0:0:0:
192,192,145420,1,8,0:0:0:0:
64,192,145705,1,2,0:0:0:0:
192,192,145991,1,8,0:0:0:0:
320,192,146277,1,2,0:0:0:0:
448,192,146277,1,4,0:0:0:0:
64,192,146563,1,8,0:0:0:0:
192,192,146848,1,2,0:0:0:0:
320,192,147134,1,8,0:0:0:0:
448,192,147420,1,2,0:0:0:0:
320,192,147705,1,8,0:0:0:0:
192,192,147991,1,2,0:0:0:0:
448,192,148277,1,8,0:0:0:0:
64,192,148563,1,2,0:0:0:0:
320,192,148848,1,8,0:0:0:0:
192,192,149134,1,2,0:0:0:0:
64,192,149420,1,8,0:0:0:0:
320,192,149705,1,2,0:0:0:0:
192,192,149991,1,8,0:0:0:0:
448,192,150277,1,2,0:0:0:0:
320,192,150420,1,0,0:0:0:0:
192,192,150563,1,8,0:0:0:0:
448,192,150848,1,4,0:0:0:0:
64,192,150848,1,2,0:0:0:0:
320,192,151134,1,8,0:0:0:0:
192,192,151420,1,2,0:0:0:0:
320,192,151705,1,8,0:0:0:0:
64,192,151991,1,2,0:0:0:0:
448,192,152277,1,8,0:0:0:0:
192,192,152563,1,2,0:0:0:0:
64,192,152848,1,8,0:0:0:0:
448,192,153134,1,2,0:0:0:0:
192,192,153420,1,8,0:0:0:0:
448,192,153705,1,2,0:0:0:0:
192,192,153991,1,8,0:0:0:0:
320,192,154134,1,0,0:0:0:0:
64,192,154277,1,2,0:0:0:0:
192,192,154563,1,8,0:0:0:0:
320,192,154848,1,2,0:0:0:0:
448,192,155134,1,10,0:0:0:0:
320,192,155277,1,2,0:0:0:0:
64,192,155420,128,2,155705:0:0:0:0:
192,192,155420,1,4,0:0:0:0:
320,192,155705,1,10,0:0:0:0:
192,192,155991,1,2,0:0:0:0:
320,192,156277,1,10,0:0:0:0:
192,192,156420,1,2,0:0:0:0:
448,192,156563,128,4,156848:0:0:0:0:
64,192,156563,1,2,0:0:0:0:
320,192,156848,1,10,0:0:0:0:
192,192,157134,1,2,0:0:0:0:
320,192,157420,1,10,0:0:0:0:
64,192,157705,128,2,157991:0:0:0:0:
448,192,157705,1,4,0:0:0:0:
192,192,157991,1,2,0:0:0:0:
320,192,158134,1,2,0:0:0:0:
448,192,158277,128,4,158563:0:0:0:0:
64,192,158277,1,2,0:0:0:0:
320,192,158563,1,2,0:0:0:0:
192,192,158705,1,2,0:0:0:0:
64,192,158848,128,2,159134:0:0:0:0:
448,192,158848,1,4,0:0:0:0:
192,192,159134,128,2,159420:0:0:0:0:
320,192,159420,128,2,159705:0:0:0:0:
64,192,159705,1,2,0:0:0:0:
448,192,159848,1,2,0:0:0:0:
64,192,161134,128,0,163420:0:0:0:60:G2S.wav
192,192,161134,1,6,0:0:0:0:
