osu file format v14

[General]
AudioFilename: audio.ogg
AudioLeadIn: 0
PreviewTime: 122848
Countdown: 0
SampleSet: Drum
StackLeniency: 0.7
Mode: 3
LetterboxInBreaks: 0
SpecialStyle: 0
WidescreenStoryboard: 0

[Editor]
DistanceSpacing: 1.3
BeatDivisor: 4
GridSize: 4
TimelineZoom: 1.5

[Metadata]
Title:Another Me
TitleUnicode:Another Me
Artist:D_AAN
ArtistUnicode:D_AAN
Creator:Slick6969
Version:Another
Source:Phigros
Tags:Hatsune Miku Hardcore EDM Vocaloid Electronic Dance Music Japanese Kazemura Adidkh ZxNX KALPA 初音ミク keysound SV instrumental
BeatmapID:3393438
BeatmapSetID:1662281

[Difficulty]
HPDrainRate:9
CircleSize:4
OverallDifficulty:8.5
ApproachRate:5
SliderMultiplier:1
SliderTickRate:1

[Events]
//Background and Video events
0,0,"anotherme.jpg",0,0
//Break Periods
//Storyboard Layer 0 (Background)
//Storyboard Layer 1 (Fail)
//Storyboard Layer 2 (Pass)
//Storyboard Layer 3 (Foreground)
//Storyboard Layer 4 (Overlay)
//Storyboard Sound Samples

[TimingPoints]
4563,285.714285714286,4,3,1,100,1,0
4634,-100,4,3,1,5,0,0
6563,-55.5555555555556,4,3,1,5,0,0
6598,-500,4,3,1,5,0,0
6634,-55.5555555555556,4,3,1,5,0,0
6670,-500,4,3,1,5,0,0
6705,-55.5555555555556,4,3,1,5,0,0
6741,-500,4,3,1,5,0,0
6777,-55.5555555555556,4,3,1,5,0,0
6813,-500,4,3,1,5,0,0
6848,-100,4,3,1,5,0,0
8705,-62.5,4,3,1,5,0,0
8741,-250,4,3,1,5,0,0
8777,-62.5,4,3,1,5,0,0
8813,-250,4,3,1,5,0,0
8848,-62.5,4,3,1,5,0,0
8884,-250,4,3,1,5,0,0
8920,-62.5,4,3,1,5,0,0
8955,-250,4,3,1,5,0,0
8991,-62.5,4,3,1,5,0,0
9027,-250,4,3,1,5,0,0
9063,-62.5,4,3,1,5,0,0
9098,-250,4,3,1,5,0,0
9134,-100,4,3,1,5,0,0
10134,-55.5555555555556,4,3,1,5,0,0
10170,-500,4,3,1,5,0,0
10205,-55.5555555555556,4,3,1,5,0,0
10241,-500,4,3,1,5,0,0
10277,-100,4,3,1,5,0,0
11134,-62.5,4,3,1,5,0,0
11170,-250,4,3,1,5,0,0
11205,-62.5,4,3,1,5,0,0
11241,-250,4,3,1,5,0,0
11277,-100,4,3,1,5,0,0
12205,-66.6666666666667,4,3,1,5,0,0
12241,-200,4,3,1,5,0,0
12277,-66.6666666666667,4,3,1,5,0,0
12313,-200,4,3,1,5,0,0
12348,-66.6666666666667,4,3,1,5,0,0
12384,-200,4,3,1,5,0,0
12420,-66.6666666666667,4,3,1,5,0,0
12455,-200,4,3,1,5,0,0
12491,-66.6666666666667,4,3,1,5,0,0
12527,-200,4,3,1,5,0,0
12563,-100,4,3,1,100,0,0
13134,-100,4,3,1,5,0,0
13634,-100,4,3,1,100,0,0
22848,-100,4,3,1,50,0,0
23420,-100,4,3,1,55,0,0
23991,-100,4,3,1,60,0,0
24563,-100,4,3,1,65,0,0
25134,-100,4,3,1,70,0,0
25705,-100,4,3,1,75,0,0
26277,-100,4,3,1,80,0,0
26848,-100,4,3,1,85,0,0
27420,-100,4,3,1,90,0,0
29705,-100,4,3,1,95,0,0
30277,-100,4,3,1,100,0,0
40705,-100,4,3,1,70,0,0
40848,-100,4,3,1,80,0,0
40991,-100,4,3,1,90,0,0
41134,-100,4,3,1,100,0,0
53348,-125,4,3,1,100,0,0
53420,-40,4,3,1,100,0,0
53438,-166.666666666667,4,3,1,100,0,0
53491,-250,4,3,1,100,0,0
53563,-500,4,3,1,100,0,0
53634,-1000,4,3,1,100,0,0
53705,-80,4,3,1,100,0,0
53723,-1000,4,3,1,100,0,0
54330,-32.258064516129,4,3,1,100,0,0
54348,-1000,4,3,1,100,0,0
54402,-30.3030303030303,4,3,1,100,0,0
54420,-1000,4,3,1,100,0,0
54473,-28.5714285714286,4,3,1,100,0,0
54491,-1000,4,3,1,100,0,0
54545,-27.027027027027,4,3,1,100,0,0
54563,-1000,4,3,1,100,0,0
54598,-333.333333333333,4,3,1,100,0,0
54634,-200,4,3,1,100,0,0
54670,-133.333333333333,4,3,1,100,0,0
54705,-83.3333333333333,4,3,1,100,0,0
54741,-68.9655172413793,4,3,1,100,0,0
54777,-58.8235294117647,4,3,1,100,0,0
54813,-50,4,3,1,100,0,0
54848,-100,4,3,1,100,0,0
64277,-66.6666666666667,4,3,1,100,0,0
64348,-200,4,3,1,100,0,0
64545,-22.2222222222222,4,3,1,100,0,0
64563,-500,4,3,1,100,0,0
64616,-29.4117647058824,4,3,1,100,0,0
64634,-500,4,3,1,100,0,0
64688,-29.4117647058824,4,3,1,100,0,0
64705,-500,4,3,1,100,0,0
64759,-29.4117647058824,4,3,1,100,0,0
64777,-500,4,3,1,100,0,0
64830,-29.4117647058824,4,3,1,100,0,0
64848,-500,4,3,1,100,0,0
64902,-29.4117647058824,4,3,1,100,0,0
64920,-500,4,3,1,100,0,0
64973,-29.4117647058824,4,3,1,100,0,0
64991,-500,4,3,1,100,0,0
65045,-29.4117647058824,4,3,1,100,0,0
65063,-500,4,3,1,100,0,0
65116,-29.4117647058824,4,3,1,100,0,0
65134,-500,4,3,1,100,0,0
65188,-29.4117647058824,4,3,1,100,0,0
65205,-500,4,3,1,100,0,0
65259,-29.4117647058824,4,3,1,100,0,0
65277,-500,4,3,1,100,0,0
65330,-29.4117647058824,4,3,1,100,0,0
65348,-500,4,3,1,100,0,0
65402,-29.4117647058824,4,3,1,100,0,0
65420,-500,4,3,1,100,0,0
65473,-29.4117647058824,4,3,1,100,0,0
65491,-500,4,3,1,100,0,0
65545,-29.4117647058824,4,3,1,100,0,0
65563,-500,4,3,1,100,0,0
65616,-29.4117647058824,4,3,1,100,0,0
65634,-500,4,3,1,100,0,0
65688,-29.4117647058824,4,3,1,100,0,0
65705,-500,4,3,1,100,0,0
65759,-29.4117647058824,4,3,1,100,0,0
65777,-500,4,3,1,100,0,0
65830,-29.4117647058824,4,3,1,100,0,0
65848,-500,4,3,1,100,0,0
65902,-29.4117647058824,4,3,1,100,0,0
65920,-500,4,3,1,100,0,0
65973,-29.4117647058824,4,3,1,100,0,0
65991,-500,4,3,1,100,0,0
66045,-29.4117647058824,4,3,1,100,0,0
66063,-500,4,3,1,100,0,0
66116,-29.4117647058824,4,3,1,100,0,0
66134,-500,4,3,1,100,0,0
66188,-29.4117647058824,4,3,1,100,0,0
66205,-500,4,3,1,100,0,0
66259,-29.4117647058824,4,3,1,100,0,0
66277,-100,4,3,1,100,0,0
68563,-102.040816326531,4,3,1,100,0,0
68634,-102.040816326531,4,3,1,5,0,0
68705,-104.166666666667,4,3,1,5,0,0
68848,-106.382978723404,4,3,1,5,0,0
68991,-108.695652173913,4,3,1,5,0,0
69134,-111.111111111111,4,3,1,5,0,0
69277,-114.285714285714,4,3,1,5,0,0
69420,-117.647058823529,4,3,1,5,0,0
76563,-116.279069767442,4,3,1,5,0,0
76848,-114.942528735632,4,3,1,5,0,0
77134,-113.636363636364,4,3,1,5,0,0
77420,-112.359550561798,4,3,1,5,0,0
77705,-111.111111111111,4,3,1,5,0,0
84420,-109.89010989011,4,3,1,5,0,0
84563,-108.695652173913,4,3,1,5,0,0
84705,-107.52688172043,4,3,1,5,0,0
84848,-106.382978723404,4,3,1,5,0,0
84991,-105.263157894737,4,3,1,5,0,0
85134,-104.166666666667,4,3,1,5,0,0
85277,-103.092783505155,4,3,1,5,0,0
85420,-102.040816326531,4,3,1,5,0,0
85563,-101.010101010101,4,3,1,5,0,0
85705,-100,4,3,1,5,0,0
86848,-100,4,3,1,100,0,1
105134,-100,4,3,1,100,0,0
113991,-100,4,3,1,50,0,0
114277,-100,4,3,1,100,0,0
114563,-100,4,3,1,65,0,0
115420,-100,4,3,1,70,0,0
116563,-100,4,3,1,75,0,0
117705,-100,4,3,1,80,0,0
118848,-100,4,3,1,85,0,0
119991,-100,4,3,1,90,0,0
121134,-100,4,3,1,95,0,0
123420,-100,4,3,1,100,0,1
140563,-100,4,3,1,100,0,0
157723,-100,4,3,1,69,0,0

[HitObjects]
64,192,4562,5,6,0:0:0:0:
192,192,4562,1,0,0:0:0:60:tick.wav
448,192,4562,1,0,0:0:0:60:D7S.wav
320,192,4705,1,0,0:0:0:60:G5S.wav
192,192,4848,1,0,0:0:0:60:D6S.wav
320,192,4991,1,0,0:0:0:60:G6S.wav
448,192,5134,1,0,0:0:0:60:C7S.wav
64,192,5134,1,0,0:0:0:60:tick.wav
320,192,5277,1,0,0:0:0:60:G5S.wav
192,192,5420,1,0,0:0:0:60:D6S.wav
64,192,5562,1,0,0:0:0:60:C7S.wav
320,192,5705,1,0,0:0:0:60:tick.wav
448,192,5705,1,0,0:0:0:60:A#6S_Bb6S.wav
192,192,5848,1,0,0:0:0:60:D6S.wav
448,192,5991,1,0,0:0:0:60:G6S.wav
320,192,6134,1,0,0:0:0:60:A6S.wav
64,192,6277,1,0,0:0:0:60:tick.wav
320,192,6420,1,0,0:0:0:60:D6S.wav
192,192,6563,128,0,6634:0:0:0:60:G6S.wav
64,192,6705,128,0,6777:0:0:0:60:A6S.wav
192,192,6777,128,0,6848:0:0:0:0:
320,192,6848,1,0,0:0:0:60:tick.wav
448,192,6848,1,0,0:0:0:60:A6S.wav
192,192,6991,1,0,0:0:0:60:D#5S_Eb5S.wav
448,192,7134,1,0,0:0:0:60:D6S.wav
320,192,7277,1,0,0:0:0:60:G6S.wav
192,192,7420,1,0,0:0:0:60:A#6S_Bb6S.wav
64,192,7420,1,0,0:0:0:60:tick.wav
320,192,7563,1,0,0:0:0:60:D6S.wav
192,192,7705,1,0,0:0:0:60:G6S.wav
64,192,7848,1,0,0:0:0:60:A6S.wav
320,192,7991,1,0,0:0:0:60:tick.wav
448,192,7991,1,0,0:0:0:60:C7S.wav
64,192,8134,1,0,0:0:0:60:D6S.wav
192,192,8277,1,0,0:0:0:60:A#6S_Bb6S.wav
320,192,8420,1,0,0:0:0:60:A6S.wav
64,192,8563,1,0,0:0:0:60:tick.wav
448,192,8563,1,0,0:0:0:60:D6S.wav
320,192,8705,128,0,8777:0:0:0:60:A#6S_Bb6S.wav
448,192,8777,128,0,8848:0:0:0:0:
192,192,8848,128,0,8991:0:0:0:60:G6S.wav
64,192,8991,128,0,9134:0:0:0:60:F#6S_Gb6S.wav
192,192,9134,1,0,0:0:0:60:tick.wav
320,192,9134,1,0,0:0:0:60:G6S.wav
64,192,9277,1,0,0:0:0:60:G5S.wav
448,192,9420,1,0,0:0:0:60:D6S.wav
320,192,9563,1,0,0:0:0:60:G6S.wav
192,192,9705,1,0,0:0:0:60:tick.wav
448,192,9705,1,0,0:0:0:60:A6S.wav
64,192,9848,1,0,0:0:0:60:G5S.wav
192,192,9991,1,0,0:0:0:60:D6S.wav
320,192,10134,128,0,10277:0:0:0:60:A6S.wav
448,192,10277,1,0,0:0:0:60:A#6S_Bb6S.wav
64,192,10277,1,0,0:0:0:60:tick.wav
320,192,10420,1,0,0:0:0:60:D6S.wav
192,192,10563,1,0,0:0:0:60:G6S.wav
448,192,10705,1,0,0:0:0:60:A6S.wav
192,192,10848,1,0,0:0:0:60:C7S.wav
64,192,10848,1,0,0:0:0:60:tick.wav
320,192,10991,1,0,0:0:0:60:D6S.wav
192,192,11134,128,0,11205:0:0:0:60:G6S.wav
320,192,11205,128,0,11277:0:0:0:0:
64,192,11277,1,0,0:0:0:60:C7S.wav
320,192,11420,1,0,0:0:0:60:tick.wav
448,192,11420,1,0,0:0:0:60:D7S.wav
192,192,11563,1,0,0:0:0:60:D#6S_Eb6S.wav
448,192,11705,1,0,0:0:0:60:G6S.wav
320,192,11848,1,0,0:0:0:60:D7S.wav
192,192,11991,1,0,0:0:0:60:D#7S_Eb7S.wav
64,192,11991,1,0,0:0:0:60:tick.wav
320,192,12134,1,0,0:0:0:60:D#6S_Eb6S.wav
192,192,12205,128,0,12277:0:0:0:0:
64,192,12277,1,0,0:0:0:60:G6S.wav
320,192,12348,128,0,12420:0:0:0:0:
448,192,12420,128,0,12491:0:0:0:60:G7S.wav
320,192,12491,128,0,12563:0:0:0:0:
64,192,12563,128,8,13134:0:0:0:0:
192,192,12563,128,0,12991:0:0:0:60:tick.wav
448,192,12563,128,0,12848:0:0:0:60:F#7S_Gb7S.wav
448,192,13134,128,0,13229:0:0:0:60:G7S.wav
448,192,13277,1,0,0:0:0:0:
64,192,13420,128,0,13515:0:0:0:60:F#7S_Gb7S.wav
64,192,13563,1,0,0:0:0:0:
448,192,13705,128,0,14848:0:0:0:60:G7S.wav
192,192,13705,1,4,0:0:0:0:
64,192,13705,1,2,0:0:0:0:
320,192,13705,1,0,0:0:0:0:
192,192,13848,1,0,0:0:0:0:
64,192,13991,128,0,14277:0:0:0:0:
192,192,14039,128,0,14182:0:0:0:0:
192,192,14277,1,0,0:0:0:0:
320,192,14277,1,8,0:0:0:0:
64,192,14420,128,0,14491:0:0:0:0:
64,192,14563,128,0,14634:0:0:0:0:
64,192,14705,128,0,14777:0:0:0:0:
192,192,14848,128,0,15991:0:0:0:0:
320,192,14848,1,2,0:0:0:0:
448,192,14991,128,0,15039:0:0:0:0:
448,192,15134,128,0,15182:0:0:0:0:
448,192,15277,128,0,15324:0:0:0:0:
64,192,15420,1,8,0:0:0:0:
448,192,15420,1,0,0:0:0:0:
320,192,15563,1,0,0:0:0:0:
64,192,15705,1,0,0:0:0:0:
64,192,15777,1,0,0:0:0:0:
448,192,15848,1,0,0:0:0:0:
448,192,15920,1,0,0:0:0:0:
64,192,15991,128,2,17134:0:0:0:0:
320,192,15991,1,0,0:0:0:0:
320,192,16134,128,0,16182:0:0:0:0:
192,192,16277,128,0,16324:0:0:0:0:
448,192,16301,128,0,16372:0:0:0:0:
192,192,16420,128,0,16467:0:0:0:0:
448,192,16443,128,0,16515:0:0:0:0:
192,192,16563,1,0,0:0:0:0:
320,192,16563,1,8,0:0:0:0:
320,192,16705,128,0,16753:0:0:0:0:
448,192,16848,1,0,0:0:0:0:
448,192,16920,1,0,0:0:0:0:
192,192,16991,1,0,0:0:0:0:
192,192,17063,1,0,0:0:0:0:
320,192,17134,128,2,18277:0:0:0:0:
448,192,17134,1,0,0:0:0:0:
64,192,17420,1,0,0:0:0:0:
192,192,17467,1,0,0:0:0:0:
448,192,17515,1,0,0:0:0:0:
64,192,17563,1,0,0:0:0:0:
192,192,17610,1,0,0:0:0:0:
448,192,17658,1,0,0:0:0:0:
192,192,17705,1,8,0:0:0:0:
64,192,17705,1,0,0:0:0:0:
64,192,17848,128,0,17896:0:0:0:0:
64,192,17991,128,0,18039:0:0:0:0:
64,192,18134,128,0,18182:0:0:0:0:
448,192,18277,128,0,19420:0:0:0:0:
192,192,18277,1,4,0:0:0:0:
64,192,18277,1,2,0:0:0:0:
320,192,18563,128,0,18848:0:0:0:0:
192,192,18610,128,0,18753:0:0:0:0:
192,192,18848,1,8,0:0:0:0:
64,192,18848,1,0,0:0:0:0:
192,192,18991,128,0,19063:0:0:0:0:
192,192,19134,128,0,19205:0:0:0:0:
192,192,19277,128,0,19348:0:0:0:0:
320,192,19420,128,0,20563:0:0:0:0:
64,192,19420,1,2,0:0:0:0:
448,192,19563,128,0,19610:0:0:0:0:
64,192,19705,128,0,19753:0:0:0:0:
64,192,19848,128,0,19896:0:0:0:0:
64,192,19991,1,0,0:0:0:0:
448,192,19991,1,8,0:0:0:0:
192,192,20134,128,0,20182:0:0:0:0:
192,192,20277,128,0,20324:0:0:0:0:
192,192,20420,128,0,20467:0:0:0:0:
64,192,20563,128,2,21420:0:0:0:0:
192,192,20563,1,4,0:0:0:0:
448,192,20563,1,0,0:0:0:0:
448,192,20705,128,0,20753:0:0:0:0:
192,192,20848,128,0,20896:0:0:0:0:
320,192,20872,128,0,20943:0:0:0:0:
448,192,20991,128,0,21039:0:0:0:0:
320,192,21134,1,8,0:0:0:0:
192,192,21134,1,0,0:0:0:0:
192,192,21277,128,0,21324:0:0:0:0:
320,192,21420,1,0,0:0:0:0:
448,192,21420,1,2,0:0:0:0:
64,192,21491,1,0,0:0:0:0:
192,192,21491,1,2,0:0:0:0:
320,192,21563,1,0,0:0:0:0:
448,192,21563,1,2,0:0:0:0:
192,192,21634,1,2,0:0:0:0:
320,192,21705,1,0,0:0:0:0:
448,192,21705,1,2,0:0:0:0:
64,192,21705,1,4,0:0:0:0:
64,192,21848,1,0,0:0:0:0:
192,192,21991,1,2,0:0:0:0:
320,192,21991,1,0,0:0:0:0:
448,192,22063,1,2,0:0:0:0:
64,192,22063,1,0,0:0:0:0:
192,192,22134,1,2,0:0:0:0:
320,192,22134,1,0,0:0:0:0:
448,192,22205,1,2,0:0:0:0:
192,192,22277,1,2,0:0:0:0:
320,192,22277,1,0,0:0:0:0:
64,192,22277,1,8,0:0:0:0:
64,192,22848,128,2,23420:0:0:0:0:
192,192,22848,1,4,0:0:0:0:
448,192,22848,1,0,0:0:0:0:
448,192,23134,1,0,0:0:0:0:
320,192,23134,1,2,0:0:0:0:
192,192,23420,128,0,23991:0:0:0:0:
448,192,23420,1,2,0:0:0:0:
320,192,23705,1,2,0:0:0:0:
64,192,23705,1,0,0:0:0:0:
448,192,23991,128,0,24563:0:0:0:0:
64,192,23991,1,2,0:0:0:0:
192,192,24277,1,0,0:0:0:0:
64,192,24277,1,2,0:0:0:0:
320,192,24563,128,0,24991:0:0:0:0:
192,192,24563,1,2,0:0:0:0:
448,192,24848,128,0,25134:0:0:0:0:
64,192,24848,1,2,0:0:0:0:
192,192,24991,128,0,25134:0:0:0:0:
64,192,25134,128,0,25705:0:0:0:0:
320,192,25134,1,2,0:0:0:0:
192,192,25420,1,2,0:0:0:0:
448,192,25420,1,0,0:0:0:0:
320,192,25705,128,2,26277:0:0:0:0:
448,192,25705,1,0,0:0:0:0:
192,192,25991,1,2,0:0:0:0:
64,192,25991,1,0,0:0:0:0:
448,192,26277,128,0,26848:0:0:0:0:
64,192,26277,1,2,0:0:0:0:
192,192,26563,1,2,0:0:0:0:
320,192,26563,1,0,0:0:0:0:
192,192,26848,128,0,27420:0:0:0:0:
64,192,26848,1,2,0:0:0:0:
320,192,27134,1,0,0:0:0:0:
448,192,27134,1,2,0:0:0:0:
320,192,27277,1,0,0:0:0:0:
448,192,27277,1,2,0:0:0:0:
64,192,27420,1,2,0:0:0:0:
448,192,27420,1,0,0:0:0:0:
320,192,27420,1,4,0:0:0:0:
64,192,27563,1,0,0:0:0:0:
192,192,27563,1,2,0:0:0:0:
320,192,27705,1,2,0:0:0:0:
192,192,27705,1,0,0:0:0:0:
448,192,27848,1,2,0:0:0:0:
320,192,27848,1,0,0:0:0:0:
64,192,27991,1,2,0:0:0:0:
448,192,27991,1,0,0:0:0:0:
320,192,28134,1,0,0:0:0:0:
64,192,28134,1,2,0:0:0:0:
320,192,28277,1,0,0:0:0:0:
192,192,28277,1,2,0:0:0:0:
192,192,28420,1,2,0:0:0:0:
448,192,28420,1,0,0:0:0:0:
320,192,28563,1,2,0:0:0:0:
448,192,28563,1,0,0:0:0:0:
64,192,28705,1,2,0:0:0:0:
320,192,28705,1,0,0:0:0:0:
448,192,28848,1,0,0:0:0:0:
64,192,28848,1,2,0:0:0:0:
448,192,28991,1,2,0:0:0:0:
192,192,28991,1,0,0:0:0:0:
192,192,29134,1,0,0:0:0:0:
320,192,29134,1,2,0:0:0:0:
448,192,29277,1,0,0:0:0:0:
64,192,29277,1,2,0:0:0:0:
64,192,29420,1,0,0:0:0:0:
320,192,29420,1,2,0:0:0:0:
448,192,29563,1,0,0:0:0:0:
320,192,29563,1,2,0:0:0:0:
192,192,29705,1,0,0:0:0:0:
64,192,29705,1,2,0:0:0:0:
320,192,29777,1,0,0:0:0:0:
448,192,29777,1,2,0:0:0:0:
192,192,29848,1,0,0:0:0:0:
64,192,29848,1,2,0:0:0:0:
320,192,29920,1,0,0:0:0:0:
448,192,29920,1,2,0:0:0:0:
64,192,29991,1,2,0:0:0:0:
192,192,29991,1,0,0:0:0:0:
320,192,30063,1,0,0:0:0:0:
448,192,30063,1,2,0:0:0:0:
192,192,30134,1,0,0:0:0:0:
64,192,30134,1,2,0:0:0:0:
320,192,30205,1,0,0:0:0:0:
448,192,30205,1,2,0:0:0:0:
64,192,30277,1,2,0:0:0:0:
192,192,30313,1,2,0:0:0:0:
448,192,30348,1,2,0:0:0:0:
320,192,30384,1,2,0:0:0:0:
64,192,30420,1,2,0:0:0:0:
192,192,30455,1,2,0:0:0:0:
448,192,30491,1,2,0:0:0:0:
320,192,30527,1,2,0:0:0:0:
64,192,30563,1,2,0:0:0:0:
192,192,30598,1,2,0:0:0:0:
448,192,30634,1,2,0:0:0:0:
320,192,30670,1,2,0:0:0:0:
64,192,30705,1,2,0:0:0:0:
192,192,30741,1,2,0:0:0:0:
448,192,30777,1,2,0:0:0:0:
320,192,30813,1,2,0:0:0:0:
192,192,30848,1,4,0:0:0:0:
64,192,30848,128,2,31134:0:0:0:0:
320,192,31134,1,0,0:0:0:0:
320,192,31277,1,0,0:0:0:0:
448,192,31420,1,8,0:0:0:0:
64,192,31420,128,0,31491:0:0:0:0:
192,192,31420,128,0,31491:0:0:0:0:
192,192,31563,1,0,0:0:0:0:
320,192,31705,128,0,31777:0:0:0:0:
448,192,31705,128,0,31777:0:0:0:0:
320,192,31848,1,0,0:0:0:0:
64,192,31991,128,2,32063:0:0:0:0:
448,192,31991,128,0,32063:0:0:0:0:
192,192,31991,1,0,0:0:0:0:
64,192,32277,1,2,0:0:0:0:
448,192,32277,1,0,0:0:0:0:
192,192,32277,1,4,0:0:0:0:
320,192,32277,1,0,0:0:0:0:
448,192,32348,1,0,0:0:0:0:
320,192,32420,1,0,0:0:0:0:
192,192,32491,1,0,0:0:0:0:
64,192,32563,1,0,0:0:0:0:
448,192,32563,1,2,0:0:0:0:
448,192,32634,1,0,0:0:0:0:
320,192,32705,1,0,0:0:0:0:
192,192,32777,1,0,0:0:0:0:
64,192,32848,1,0,0:0:0:0:
448,192,32848,1,2,0:0:0:0:
448,192,32920,1,0,0:0:0:0:
320,192,32991,1,0,0:0:0:0:
192,192,33063,1,0,0:0:0:0:
64,192,33134,1,2,0:0:0:0:
320,192,33134,1,0,0:0:0:0:
64,192,33205,1,0,0:0:0:0:
448,192,33277,1,0,0:0:0:0:
192,192,33348,1,0,0:0:0:0:
64,192,33420,1,2,0:0:0:0:
320,192,33420,1,0,0:0:0:0:
64,192,33491,1,0,0:0:0:0:
448,192,33563,1,0,0:0:0:0:
192,192,33634,1,0,0:0:0:0:
320,192,33705,1,0,0:0:0:0:
64,192,33705,1,2,0:0:0:0:
64,192,33777,1,0,0:0:0:0:
448,192,33848,1,0,0:0:0:0:
192,192,33920,1,0,0:0:0:0:
64,192,33991,1,2,0:0:0:0:
320,192,33991,1,0,0:0:0:0:
64,192,34063,1,0,0:0:0:0:
448,192,34134,1,0,0:0:0:0:
192,192,34205,1,0,0:0:0:0:
64,192,34277,1,0,0:0:0:0:
320,192,34277,1,2,0:0:0:0:
320,192,34348,1,0,0:0:0:0:
192,192,34420,1,0,0:0:0:0:
448,192,34491,1,0,0:0:0:0:
320,192,34563,1,2,0:0:0:0:
64,192,34563,1,0,0:0:0:0:
320,192,34634,1,0,0:0:0:0:
192,192,34705,1,0,0:0:0:0:
448,192,34777,1,0,0:0:0:0:
64,192,34848,1,0,0:0:0:0:
320,192,34848,1,2,0:0:0:0:
320,192,34920,1,0,0:0:0:0:
192,192,34991,1,0,0:0:0:0:
448,192,35063,1,0,0:0:0:0:
320,192,35134,1,2,0:0:0:0:
64,192,35134,1,0,0:0:0:0:
320,192,35205,1,0,0:0:0:0:
192,192,35277,1,0,0:0:0:0:
448,192,35348,1,0,0:0:0:0:
64,192,35420,1,2,0:0:0:0:
192,192,35420,1,0,0:0:0:0:
448,192,35491,1,0,0:0:0:0:
320,192,35563,1,0,0:0:0:0:
448,192,35634,1,0,0:0:0:0:
192,192,35705,1,0,0:0:0:0:
64,192,35705,1,2,0:0:0:0:
448,192,35777,1,0,0:0:0:0:
320,192,35848,1,0,0:0:0:0:
448,192,35920,1,0,0:0:0:0:
64,192,35991,128,2,36063:0:0:0:0:
192,192,35991,128,0,36063:0:0:0:0:
448,192,36063,1,0,0:0:0:0:
320,192,36134,1,0,0:0:0:0:
192,192,36205,1,0,0:0:0:0:
320,192,36277,128,0,36348:0:0:0:0:
448,192,36277,128,2,36348:0:0:0:0:
64,192,36348,1,0,0:0:0:0:
192,192,36420,1,0,0:0:0:0:
320,192,36491,1,0,0:0:0:0:
64,192,36563,128,2,36634:0:0:0:0:
192,192,36563,128,0,36634:0:0:0:0:
320,192,36634,1,0,0:0:0:0:
192,192,36705,1,0,0:0:0:0:
448,192,36777,1,0,0:0:0:0:
64,192,36848,1,2,0:0:0:0:
192,192,36848,1,4,0:0:0:0:
320,192,36848,1,0,0:0:0:0:
192,192,36920,1,0,0:0:0:0:
320,192,36991,1,0,0:0:0:0:
448,192,37063,1,0,0:0:0:0:
192,192,37134,1,2,0:0:0:0:
64,192,37134,1,0,0:0:0:0:
192,192,37205,1,0,0:0:0:0:
320,192,37277,1,0,0:0:0:0:
448,192,37348,1,0,0:0:0:0:
192,192,37420,1,2,0:0:0:0:
64,192,37420,1,0,0:0:0:0:
192,192,37491,1,0,0:0:0:0:
320,192,37563,1,0,0:0:0:0:
448,192,37634,1,0,0:0:0:0:
64,192,37705,1,0,0:0:0:0:
320,192,37705,1,2,0:0:0:0:
320,192,37777,1,0,0:0:0:0:
192,192,37848,1,0,0:0:0:0:
448,192,37920,1,0,0:0:0:0:
320,192,37991,1,2,0:0:0:0:
64,192,37991,1,0,0:0:0:0:
320,192,38063,1,0,0:0:0:0:
192,192,38134,1,0,0:0:0:0:
448,192,38205,1,0,0:0:0:0:
320,192,38277,1,2,0:0:0:0:
64,192,38277,1,0,0:0:0:0:
320,192,38348,1,0,0:0:0:0:
192,192,38420,1,0,0:0:0:0:
448,192,38491,1,0,0:0:0:0:
320,192,38563,1,2,0:0:0:0:
64,192,38563,1,0,0:0:0:0:
320,192,38634,1,0,0:0:0:0:
192,192,38705,1,0,0:0:0:0:
448,192,38777,1,0,0:0:0:0:
64,192,38848,1,2,0:0:0:0:
192,192,38848,1,0,0:0:0:0:
64,192,38920,1,0,0:0:0:0:
448,192,38991,1,0,0:0:0:0:
320,192,38991,1,0,0:0:0:0:
192,192,39063,1,0,0:0:0:0:
64,192,39134,1,2,0:0:0:0:
448,192,39134,1,0,0:0:0:0:
64,192,39205,1,0,0:0:0:0:
448,192,39277,1,0,0:0:0:0:
320,192,39277,1,0,0:0:0:0:
192,192,39348,1,0,0:0:0:0:
448,192,39420,1,0,0:0:0:0:
64,192,39420,1,2,0:0:0:0:
64,192,39491,1,0,0:0:0:0:
448,192,39563,1,0,0:0:0:0:
320,192,39563,1,0,0:0:0:0:
192,192,39634,1,0,0:0:0:0:
448,192,39705,1,0,0:0:0:0:
64,192,39705,1,2,0:0:0:0:
64,192,39777,1,0,0:0:0:0:
320,192,39848,1,0,0:0:0:0:
448,192,39848,1,0,0:0:0:0:
192,192,39920,1,0,0:0:0:0:
320,192,39991,128,2,40134:0:0:0:0:
192,192,40027,128,0,40134:0:0:0:0:
64,192,40063,128,0,40134:0:0:0:0:
448,192,40134,128,0,40277:0:0:0:0:
192,192,40277,128,0,40348:0:0:0:0:
320,192,40313,128,0,40384:0:0:0:0:
64,192,40420,128,0,40467:0:0:0:0:
192,192,40420,128,0,40491:0:0:0:0:
192,192,40563,1,8,0:0:0:0:
320,192,40563,1,0,0:0:0:0:
64,192,40563,1,0,0:0:0:0:
448,192,40705,128,2,40777:0:0:0:0:
64,192,40848,1,0,0:0:0:0:
448,192,40848,128,2,40920:0:0:0:0:
448,192,40991,128,2,41063:0:0:0:0:
64,192,40991,1,0,0:0:0:0:
64,192,41134,1,2,0:0:0:0:
192,192,41134,1,0,0:0:0:0:
320,192,41205,1,0,0:0:0:0:
448,192,41277,1,0,0:0:0:0:
192,192,41348,1,0,0:0:0:0:
64,192,41420,1,2,0:0:0:0:
320,192,41420,1,0,0:0:0:0:
448,192,41420,1,8,0:0:0:0:
192,192,41491,1,0,0:0:0:0:
448,192,41563,1,0,0:0:0:0:
320,192,41634,1,0,0:0:0:0:
192,192,41705,1,0,0:0:0:0:
64,192,41705,1,2,0:0:0:0:
448,192,41777,1,0,0:0:0:0:
320,192,41848,1,0,0:0:0:0:
64,192,41920,1,0,0:0:0:0:
448,192,41991,1,8,0:0:0:0:
192,192,41991,1,2,0:0:0:0:
320,192,41991,1,0,0:0:0:0:
64,192,42063,1,0,0:0:0:0:
448,192,42134,1,0,0:0:0:0:
192,192,42205,1,0,0:0:0:0:
320,192,42277,1,0,0:0:0:0:
448,192,42277,1,2,0:0:0:0:
192,192,42348,1,0,0:0:0:0:
64,192,42420,1,0,0:0:0:0:
320,192,42491,1,0,0:0:0:0:
192,192,42563,1,8,0:0:0:0:
64,192,42563,1,2,0:0:0:0:
448,192,42563,1,0,0:0:0:0:
320,192,42634,1,0,0:0:0:0:
448,192,42705,1,0,0:0:0:0:
64,192,42777,1,0,0:0:0:0:
448,192,42848,1,2,0:0:0:0:
192,192,42848,1,0,0:0:0:0:
320,192,42920,1,0,0:0:0:0:
448,192,42991,1,0,0:0:0:0:
192,192,43063,1,0,0:0:0:0:
64,192,43134,1,0,0:0:0:0:
320,192,43134,1,2,0:0:0:0:
448,192,43134,1,8,0:0:0:0:
192,192,43205,1,0,0:0:0:0:
64,192,43277,1,0,0:0:0:0:
192,192,43348,1,0,0:0:0:0:
448,192,43420,1,0,0:0:0:0:
64,192,43420,1,2,0:0:0:0:
320,192,43491,1,0,0:0:0:0:
192,192,43563,1,0,0:0:0:0:
64,192,43634,1,0,0:0:0:0:
192,192,43705,1,2,0:0:0:0:
320,192,43705,1,8,0:0:0:0:
448,192,43705,1,0,0:0:0:0:
64,192,43777,1,0,0:0:0:0:
320,192,43848,1,0,0:0:0:0:
448,192,43920,1,0,0:0:0:0:
64,192,43991,1,0,0:0:0:0:
192,192,43991,1,2,0:0:0:0:
448,192,44063,1,0,0:0:0:0:
320,192,44134,1,0,0:0:0:0:
192,192,44205,1,0,0:0:0:0:
320,192,44277,1,2,0:0:0:0:
448,192,44277,1,0,0:0:0:0:
64,192,44277,1,8,0:0:0:0:
192,192,44348,1,0,0:0:0:0:
448,192,44420,1,0,0:0:0:0:
320,192,44491,1,0,0:0:0:0:
64,192,44563,1,2,0:0:0:0:
192,192,44563,1,0,0:0:0:0:
320,192,44634,1,0,0:0:0:0:
448,192,44705,1,0,0:0:0:0:
192,192,44777,1,0,0:0:0:0:
64,192,44848,1,0,0:0:0:0:
320,192,44848,1,2,0:0:0:0:
448,192,44848,1,8,0:0:0:0:
192,192,44896,1,0,0:0:0:0:
320,192,44943,1,0,0:0:0:0:
448,192,44991,1,0,0:0:0:0:
64,192,45039,1,0,0:0:0:0:
192,192,45086,1,0,0:0:0:0:
320,192,45134,1,0,0:0:0:0:
448,192,45134,1,2,0:0:0:0:
64,192,45205,1,0,0:0:0:0:
320,192,45277,1,0,0:0:0:0:
192,192,45348,1,0,0:0:0:0:
320,192,45420,1,8,0:0:0:0:
64,192,45420,1,0,0:0:0:0:
448,192,45420,1,2,0:0:0:0:
192,192,45491,1,0,0:0:0:0:
320,192,45563,1,0,0:0:0:0:
64,192,45634,1,0,0:0:0:0:
192,192,45705,1,0,0:0:0:0:
448,192,45705,1,2,0:0:0:0:
320,192,45777,1,0,0:0:0:0:
192,192,45848,1,0,0:0:0:0:
64,192,45920,1,0,0:0:0:0:
192,192,45991,1,8,0:0:0:0:
320,192,45991,1,2,0:0:0:0:
448,192,45991,1,0,0:0:0:0:
64,192,46063,1,0,0:0:0:0:
320,192,46134,1,0,0:0:0:0:
192,192,46205,1,0,0:0:0:0:
64,192,46277,1,2,0:0:0:0:
448,192,46277,1,0,0:0:0:0:
320,192,46348,1,0,0:0:0:0:
192,192,46420,1,0,0:0:0:0:
448,192,46491,1,0,0:0:0:0:
320,192,46563,1,8,0:0:0:0:
192,192,46563,1,0,0:0:0:0:
64,192,46563,1,2,0:0:0:0:
448,192,46634,1,0,0:0:0:0:
192,192,46705,1,0,0:0:0:0:
64,192,46777,1,0,0:0:0:0:
320,192,46848,1,2,0:0:0:0:
448,192,46848,1,0,0:0:0:0:
192,192,46920,1,0,0:0:0:0:
64,192,46991,1,0,0:0:0:0:
448,192,47063,1,0,0:0:0:0:
320,192,47134,1,8,0:0:0:0:
192,192,47134,1,2,0:0:0:0:
64,192,47134,1,0,0:0:0:0:
448,192,47205,1,0,0:0:0:0:
64,192,47277,1,0,0:0:0:0:
320,192,47348,1,0,0:0:0:0:
64,192,47420,1,2,0:0:0:0:
192,192,47420,1,0,0:0:0:0:
448,192,47491,1,0,0:0:0:0:
192,192,47563,1,0,0:0:0:0:
320,192,47634,1,0,0:0:0:0:
448,192,47705,1,0,0:0:0:0:
64,192,47705,1,2,0:0:0:0:
192,192,47705,1,8,0:0:0:0:
320,192,47777,1,0,0:0:0:0:
448,192,47848,1,0,0:0:0:0:
320,192,47920,1,0,0:0:0:0:
64,192,47991,1,0,0:0:0:0:
448,192,47991,1,2,0:0:0:0:
192,192,48063,1,0,0:0:0:0:
320,192,48134,1,0,0:0:0:0:
64,192,48205,1,0,0:0:0:0:
192,192,48277,1,2,0:0:0:0:
320,192,48277,1,0,0:0:0:0:
448,192,48277,1,8,0:0:0:0:
64,192,48348,1,0,0:0:0:0:
320,192,48420,1,0,0:0:0:0:
192,192,48491,1,0,0:0:0:0:
64,192,48563,1,0,0:0:0:0:
448,192,48563,1,2,0:0:0:0:
320,192,48634,1,0,0:0:0:0:
192,192,48705,1,0,0:0:0:0:
448,192,48777,1,0,0:0:0:0:
320,192,48848,1,2,0:0:0:0:
192,192,48848,1,0,0:0:0:0:
64,192,48848,1,8,0:0:0:0:
448,192,48920,1,0,0:0:0:0:
320,192,48991,1,0,0:0:0:0:
192,192,49063,1,0,0:0:0:0:
320,192,49134,1,0,0:0:0:0:
448,192,49134,1,2,0:0:0:0:
192,192,49205,1,0,0:0:0:0:
64,192,49205,1,2,0:0:0:0:
320,192,49277,1,0,0:0:0:0:
448,192,49277,1,2,0:0:0:0:
192,192,49348,1,0,0:0:0:0:
64,192,49348,1,2,0:0:0:0:
320,192,49420,1,8,0:0:0:0:
448,192,49420,1,2,0:0:0:0:
192,192,49491,1,0,0:0:0:0:
64,192,49491,1,2,0:0:0:0:
320,192,49563,1,0,0:0:0:0:
448,192,49563,1,2,0:0:0:0:
192,192,49634,1,0,0:0:0:0:
64,192,49634,1,2,0:0:0:0:
320,192,49705,1,2,0:0:0:0:
448,192,49741,1,2,0:0:0:0:
192,192,49777,1,2,0:0:0:0:
64,192,49813,1,2,0:0:0:0:
320,192,49848,1,2,0:0:0:0:
448,192,49884,1,2,0:0:0:0:
192,192,49920,1,2,0:0:0:0:
64,192,49955,1,2,0:0:0:0:
320,192,49991,1,2,0:0:0:0:
448,192,50027,1,2,0:0:0:0:
192,192,50063,1,2,0:0:0:0:
64,192,50098,1,2,0:0:0:0:
320,192,50134,1,2,0:0:0:0:
448,192,50170,1,2,0:0:0:0:
192,192,50205,1,2,0:0:0:0:
64,192,50241,1,2,0:0:0:0:
320,192,50277,128,2,50420:0:0:0:0:
448,192,50277,128,4,50563:0:0:0:0:
64,192,50563,128,0,50634:0:0:0:0:
320,192,50563,1,0,0:0:0:0:
192,192,50705,128,0,50848:0:0:0:0:
64,192,50848,1,8,0:0:0:0:
320,192,50848,1,0,0:0:0:0:
448,192,50848,1,0,0:0:0:0:
448,192,50991,128,0,51063:0:0:0:0:
448,192,51134,128,0,51205:0:0:0:0:
192,192,51134,1,0,0:0:0:0:
448,192,51277,128,0,51348:0:0:0:0:
64,192,51420,1,2,0:0:0:0:
192,192,51420,1,0,0:0:0:0:
64,192,51563,128,0,51610:0:0:0:0:
64,192,51705,128,0,51753:0:0:0:0:
320,192,51705,1,0,0:0:0:0:
448,192,51848,128,0,51920:0:0:0:0:
320,192,51884,128,0,51955:0:0:0:0:
192,192,51991,1,0,0:0:0:0:
64,192,51991,1,8,0:0:0:0:
448,192,51991,1,0,0:0:0:0:
64,192,52134,128,0,52182:0:0:0:0:
320,192,52277,1,2,0:0:0:0:
448,192,52277,128,0,52491:0:0:0:0:
192,192,52420,128,0,52491:0:0:0:0:
320,192,52443,128,0,52491:0:0:0:0:
64,192,52563,128,2,53348:0:0:0:0:
192,192,52563,128,0,53205:0:0:0:0:
448,192,52563,128,0,53063:0:0:0:0:
192,192,54848,1,0,0:0:0:0:
64,192,54848,1,2,0:0:0:0:
320,192,54848,1,0,0:0:0:0:
448,192,54848,1,4,0:0:0:0:
448,192,55063,128,0,55205:0:0:0:0:
320,192,55134,1,0,0:0:0:0:
192,192,55205,1,0,0:0:0:0:
64,192,55277,1,2,0:0:0:0:
320,192,55277,1,0,0:0:0:0:
448,192,55277,1,0,0:0:0:0:
64,192,55491,128,0,55634:0:0:0:0:
192,192,55563,1,0,0:0:0:0:
320,192,55634,1,0,0:0:0:0:
64,192,55705,1,2,0:0:0:0:
448,192,55705,1,0,0:0:0:0:
192,192,55705,1,0,0:0:0:0:
448,192,55920,128,0,56063:0:0:0:0:
320,192,55991,1,0,0:0:0:0:
192,192,56063,1,0,0:0:0:0:
64,192,56134,1,2,0:0:0:0:
320,192,56134,1,0,0:0:0:0:
448,192,56134,1,0,0:0:0:0:
448,192,56348,1,2,0:0:0:0:
192,192,56348,1,0,0:0:0:0:
320,192,56348,1,0,0:0:0:0:
64,192,56420,1,0,0:0:0:0:
192,192,56563,1,2,0:0:0:0:
320,192,56563,1,0,0:0:0:0:
448,192,56563,1,0,0:0:0:0:
64,192,56563,1,0,0:0:0:0:
320,192,56705,1,0,0:0:0:0:
448,192,56848,1,0,0:0:0:0:
192,192,56848,1,0,0:0:0:0:
64,192,56848,1,2,0:0:0:0:
64,192,56991,1,2,0:0:0:0:
448,192,56991,1,0,0:0:0:0:
192,192,56991,1,0,0:0:0:0:
64,192,57134,1,2,0:0:0:0:
320,192,57134,1,0,0:0:0:0:
448,192,57134,1,0,0:0:0:0:
192,192,57134,1,0,0:0:0:0:
320,192,57277,1,0,0:0:0:0:
64,192,57277,1,0,0:0:0:0:
320,192,57420,1,0,0:0:0:0:
192,192,57420,1,0,0:0:0:0:
64,192,57420,1,2,0:0:0:0:
448,192,57420,1,0,0:0:0:0:
448,192,57563,1,0,0:0:0:0:
320,192,57563,1,0,0:0:0:0:
64,192,57705,1,2,0:0:0:0:
320,192,57705,1,0,0:0:0:0:
448,192,57705,1,0,0:0:0:0:
192,192,57705,1,0,0:0:0:0:
192,192,57848,1,0,0:0:0:0:
64,192,57848,1,0,0:0:0:0:
192,192,57991,1,2,0:0:0:0:
320,192,57991,1,0,0:0:0:0:
448,192,57991,1,0,0:0:0:0:
320,192,58134,1,0,0:0:0:0:
448,192,58134,1,2,0:0:0:0:
192,192,58205,1,0,0:0:0:0:
448,192,58277,1,0,0:0:0:0:
64,192,58277,1,2,0:0:0:0:
320,192,58277,1,0,0:0:0:0:
64,192,58420,1,2,0:0:0:0:
448,192,58420,1,0,0:0:0:0:
320,192,58420,1,0,0:0:0:0:
320,192,58563,1,0,0:0:0:0:
192,192,58705,1,0,0:0:0:0:
448,192,58705,1,2,0:0:0:0:
64,192,58705,1,0,0:0:0:0:
320,192,58777,1,2,0:0:0:0:
192,192,58848,1,2,0:0:0:0:
64,192,58848,1,0,0:0:0:0:
448,192,58848,1,0,0:0:0:0:
64,192,58991,1,2,0:0:0:0:
320,192,58991,1,0,0:0:0:0:
448,192,58991,1,0,0:0:0:0:
192,192,59063,1,2,0:0:0:0:
448,192,59134,1,0,0:0:0:0:
64,192,59134,1,0,0:0:0:0:
320,192,59134,1,2,0:0:0:0:
64,192,59277,1,2,0:0:0:0:
448,192,59277,1,0,0:0:0:0:
320,192,59277,1,0,0:0:0:0:
192,192,59420,1,0,0:0:0:0:
64,192,59420,1,2,0:0:0:0:
320,192,59420,1,0,0:0:0:0:
448,192,59420,1,0,0:0:0:0:
192,192,59563,1,0,0:0:0:0:
320,192,59563,1,0,0:0:0:0:
64,192,59705,1,2,0:0:0:0:
320,192,59705,1,0,0:0:0:0:
192,192,59705,1,0,0:0:0:0:
448,192,59705,1,0,0:0:0:0:
64,192,59848,1,0,0:0:0:0:
192,192,59848,1,0,0:0:0:0:
320,192,59991,1,0,0:0:0:0:
64,192,59991,1,2,0:0:0:0:
192,192,59991,1,0,0:0:0:0:
448,192,59991,1,0,0:0:0:0:
448,192,60134,1,0,0:0:0:0:
64,192,60134,1,0,0:0:0:0:
448,192,60277,1,0,0:0:0:0:
320,192,60277,1,0,0:0:0:0:
192,192,60277,1,0,0:0:0:0:
64,192,60277,1,2,0:0:0:0:
448,192,60420,1,0,0:0:0:0:
320,192,60420,1,0,0:0:0:0:
64,192,60563,1,2,0:0:0:0:
192,192,60563,1,0,0:0:0:0:
320,192,60563,1,0,0:0:0:0:
448,192,60563,1,0,0:0:0:0:
192,192,60705,1,0,0:0:0:0:
64,192,60705,1,0,0:0:0:0:
448,192,60848,1,0,0:0:0:0:
320,192,60848,1,0,0:0:0:0:
192,192,60848,1,0,0:0:0:0:
64,192,60848,1,2,0:0:0:0:
192,192,60991,1,0,0:0:0:0:
448,192,60991,1,0,0:0:0:0:
64,192,61134,1,2,0:0:0:0:
192,192,61134,1,0,0:0:0:0:
448,192,61134,1,0,0:0:0:0:
320,192,61134,1,0,0:0:0:0:
320,192,61277,1,0,0:0:0:0:
64,192,61277,1,0,0:0:0:0:
64,192,61420,1,2,0:0:0:0:
320,192,61420,1,0,0:0:0:0:
448,192,61420,1,0,0:0:0:0:
192,192,61420,1,0,0:0:0:0:
192,192,61563,1,0,0:0:0:0:
64,192,61563,1,0,0:0:0:0:
320,192,61705,1,0,0:0:0:0:
448,192,61705,1,0,0:0:0:0:
64,192,61705,1,2,0:0:0:0:
192,192,61705,1,0,0:0:0:0:
320,192,61848,1,0,0:0:0:0:
448,192,61991,1,0,0:0:0:0:
192,192,61991,1,0,0:0:0:0:
64,192,61991,1,2,0:0:0:0:
320,192,62063,1,0,0:0:0:0:
64,192,62134,1,0,0:0:0:0:
448,192,62277,1,0,0:0:0:0:
320,192,62277,1,0,0:0:0:0:
192,192,62277,1,2,0:0:0:0:
64,192,62277,1,0,0:0:0:0:
192,192,62420,1,0,0:0:0:0:
320,192,62491,1,0,0:0:0:0:
64,192,62563,1,2,0:0:0:0:
448,192,62563,1,0,0:0:0:0:
192,192,62563,1,0,0:0:0:0:
192,192,62705,1,0,0:0:0:0:
64,192,62705,1,2,0:0:0:0:
448,192,62705,1,0,0:0:0:0:
320,192,62848,1,0,0:0:0:0:
64,192,62848,1,2,0:0:0:0:
448,192,62848,1,0,0:0:0:0:
192,192,62848,1,0,0:0:0:0:
320,192,62991,1,0,0:0:0:0:
64,192,63134,1,2,0:0:0:0:
192,192,63134,1,0,0:0:0:0:
448,192,63134,1,0,0:0:0:0:
320,192,63134,1,0,0:0:0:0:
448,192,63277,1,2,0:0:0:0:
320,192,63313,1,2,0:0:0:0:
192,192,63348,1,2,0:0:0:0:
64,192,63384,1,2,0:0:0:0:
320,192,63420,1,0,0:0:0:0:
448,192,63420,1,2,0:0:0:0:
64,192,63563,1,2,0:0:0:0:
192,192,63598,1,2,0:0:0:0:
320,192,63634,1,2,0:0:0:0:
448,192,63670,1,2,0:0:0:0:
192,192,63705,1,0,0:0:0:0:
64,192,63705,1,2,0:0:0:0:
448,192,63848,128,0,63991:0:0:0:0:
192,192,63991,1,0,0:0:0:0:
320,192,64063,1,0,0:0:0:0:
448,192,64134,1,0,0:0:0:0:
320,192,64205,1,0,0:0:0:0:
192,192,64277,1,4,0:0:0:0:
64,192,64277,128,2,64420:0:0:0:0:
448,192,64277,128,0,64420:0:0:0:0:
192,192,64563,1,0,0:0:0:0:
448,192,64563,1,8,0:0:0:0:
64,192,64563,1,0,0:0:0:0:
320,192,64634,1,0,0:0:0:0:
448,192,64705,1,0,0:0:0:0:
192,192,64777,1,0,0:0:0:0:
320,192,64848,1,0,0:0:0:0:
192,192,64920,1,0,0:0:0:0:
64,192,64991,1,2,0:0:0:0:
448,192,64991,1,0,0:0:0:0:
192,192,65063,1,0,0:0:0:0:
320,192,65134,1,0,0:0:0:0:
64,192,65205,1,0,0:0:0:0:
192,192,65277,1,0,0:0:0:0:
64,192,65348,1,0,0:0:0:0:
448,192,65420,1,0,0:0:0:0:
192,192,65420,1,2,0:0:0:0:
320,192,65491,1,0,0:0:0:0:
448,192,65563,1,0,0:0:0:0:
192,192,65634,1,0,0:0:0:0:
320,192,65705,1,8,0:0:0:0:
64,192,65705,1,0,0:0:0:0:
448,192,65705,1,0,0:0:0:0:
192,192,65777,1,0,0:0:0:0:
320,192,65848,1,0,0:0:0:0:
448,192,65848,1,2,0:0:0:0:
64,192,65920,1,0,0:0:0:0:
192,192,65991,1,0,0:0:0:0:
64,192,66063,1,0,0:0:0:0:
448,192,66134,1,0,0:0:0:0:
320,192,66205,1,0,0:0:0:0:
64,192,66277,1,2,0:0:0:0:
192,192,66277,1,0,0:0:0:0:
448,192,66277,1,4,0:0:0:0:
320,192,66420,1,0,0:0:0:0:
192,192,66420,1,0,0:0:0:0:
64,192,66563,1,2,0:0:0:0:
448,192,66563,1,0,0:0:0:0:
320,192,66563,1,0,0:0:0:0:
192,192,66563,1,0,0:0:0:0:
448,192,66705,1,0,0:0:0:0:
64,192,66705,1,0,0:0:0:0:
64,192,66848,1,2,0:0:0:0:
448,192,66848,1,0,0:0:0:0:
320,192,66848,1,0,0:0:0:0:
192,192,66848,1,0,0:0:0:0:
192,192,66991,1,0,0:0:0:0:
448,192,66991,1,0,0:0:0:0:
64,192,67134,1,2,0:0:0:0:
192,192,67134,1,0,0:0:0:0:
320,192,67134,1,0,0:0:0:0:
64,192,67277,1,2,0:0:0:0:
448,192,67277,1,0,0:0:0:0:
320,192,67348,1,0,0:0:0:0:
64,192,67420,1,2,0:0:0:0:
192,192,67420,1,0,0:0:0:0:
448,192,67420,1,0,0:0:0:0:
320,192,67491,1,0,0:0:0:0:
64,192,67563,1,2,0:0:0:0:
448,192,67563,1,0,0:0:0:0:
192,192,67563,1,0,0:0:0:0:
320,192,67634,1,0,0:0:0:0:
192,192,67848,1,2,0:0:0:0:
320,192,67848,1,0,0:0:0:0:
448,192,67848,1,0,0:0:0:0:
64,192,67920,1,2,0:0:0:0:
320,192,67991,1,0,0:0:0:0:
448,192,67991,1,2,0:0:0:0:
192,192,67991,1,0,0:0:0:0:
320,192,68134,1,2,0:0:0:0:
192,192,68134,1,0,0:0:0:0:
64,192,68134,1,0,0:0:0:0:
448,192,68205,1,2,0:0:0:0:
64,192,68277,1,0,0:0:0:0:
192,192,68277,1,2,0:0:0:0:
320,192,68277,1,0,0:0:0:0:
64,192,68420,1,0,0:0:0:0:
320,192,68420,1,2,0:0:0:0:
448,192,68420,1,0,0:0:0:0:
192,192,68491,1,2,0:0:0:0:
64,192,68563,1,6,0:0:0:0:
448,192,68563,1,0,0:0:0:60:D6S.wav
320,192,68563,1,0,0:0:0:60:D5S.wav
192,192,68705,1,0,0:0:0:0:
448,192,68848,1,0,0:0:0:60:A#5S_Bb5S.wav
64,192,68848,1,0,0:0:0:0:
192,192,68991,1,0,0:0:0:0:
320,192,69134,1,0,0:0:0:60:A5S.wav
448,192,69134,1,0,0:0:0:0:
64,192,69277,1,0,0:0:0:0:
192,192,69420,1,0,0:0:0:60:G5S.wav
320,192,69420,1,0,0:0:0:0:
448,192,69563,1,0,0:0:0:60:G5S.wav
64,192,69705,1,0,0:0:0:0:
192,192,69705,1,0,0:0:0:60:C6S.wav
448,192,69848,1,0,0:0:0:0:
64,192,69991,1,0,0:0:0:0:
320,192,69991,1,0,0:0:0:60:D6S.wav
192,192,70134,1,0,0:0:0:0:
448,192,70277,1,0,0:0:0:60:D#6S_Eb6S.wav
64,192,70277,1,0,0:0:0:0:
320,192,70420,1,0,0:0:0:0:
448,192,70563,1,0,0:0:0:60:G6S.wav
192,192,70563,1,0,0:0:0:0:
320,192,70705,1,0,0:0:0:0:
192,192,70848,1,0,0:0:0:60:F#6S_Gb6S.wav
64,192,70848,1,0,0:0:0:0:
448,192,70991,1,0,0:0:0:0:
320,192,71134,1,0,0:0:0:0:
192,192,71277,1,0,0:0:0:0:
448,192,71277,1,0,0:0:0:60:G6S.wav
64,192,71420,1,0,0:0:0:0:
320,192,71563,1,0,0:0:0:0:
192,192,71705,1,0,0:0:0:0:
64,192,71705,1,0,0:0:0:60:C6S.wav
448,192,71848,1,0,0:0:0:0:
320,192,71991,1,0,0:0:0:60:D6S.wav
192,192,71991,1,0,0:0:0:40:A#5S_Bb5S.wav
64,192,72134,1,0,0:0:0:0:
320,192,72277,1,0,0:0:0:40:A#4S_Bb4S.wav
448,192,72420,1,0,0:0:0:40:D5S.wav
192,192,72563,1,0,0:0:0:60:G6S.wav
64,192,72563,1,0,0:0:0:40:G5S.wav
320,192,72705,1,0,0:0:0:60:D6S.wav
192,192,72705,1,0,0:0:0:40:D5S.wav
320,192,72848,1,0,0:0:0:60:A#5S_Bb5S.wav
64,192,72848,1,0,0:0:0:40:A#4S_Bb4S.wav
448,192,72991,1,0,0:0:0:60:A5S.wav
192,192,72991,1,0,0:0:0:40:A4S.wav
320,192,73134,1,0,0:0:0:0:
448,192,73134,1,0,0:0:0:60:G5S.wav
64,192,73134,1,0,0:0:0:40:G4S.wav
192,192,73277,1,0,0:0:0:0:
448,192,73420,1,0,0:0:0:0:
64,192,73420,1,0,0:0:0:60:D6S.wav
320,192,73563,1,0,0:0:0:0:
64,192,73705,1,0,0:0:0:0:
192,192,73705,1,0,0:0:0:60:C6S.wav
448,192,73848,1,0,0:0:0:60:D6S.wav
320,192,73848,1,0,0:0:0:0:
64,192,73991,1,0,0:0:0:0:
448,192,74134,1,0,0:0:0:0:
320,192,74277,1,0,0:0:0:60:D#6S_Eb6S.wav
192,192,74277,1,0,0:0:0:60:C6S.wav
64,192,74420,1,0,0:0:0:0:
448,192,74563,1,0,0:0:0:60:F#6S_Gb6S.wav
320,192,74563,1,0,0:0:0:60:D6S.wav
192,192,74705,1,0,0:0:0:0:
320,192,74848,1,0,0:0:0:60:G6S.wav
64,192,74848,1,0,0:0:0:60:D#6S_Eb6S.wav
448,192,74991,1,0,0:0:0:0:
192,192,75134,1,0,0:0:0:60:A6S.wav
64,192,75134,1,0,0:0:0:60:F#6S_Gb6S.wav
448,192,75277,1,0,0:0:0:0:
320,192,75420,1,0,0:0:0:60:A#6S_Bb6S.wav
192,192,75420,1,0,0:0:0:40:D5S.wav
64,192,75563,1,0,0:0:0:40:D#5S_Eb5S.wav
192,192,75705,1,0,0:0:0:40:G5S.wav
320,192,75848,1,0,0:0:0:60:A6S.wav
64,192,75848,1,0,0:0:0:40:D5S.wav
448,192,75991,1,0,0:0:0:40:D#5S_Eb5S.wav
192,192,76134,1,0,0:0:0:0:
320,192,76277,1,0,0:0:0:60:D6S.wav
448,192,76277,1,0,0:0:0:0:
64,192,76420,1,0,0:0:0:40:G5S.wav
192,192,76563,1,0,0:0:0:60:F#6S_Gb6S.wav
320,192,76563,1,0,0:0:0:0:
448,192,76705,1,0,0:0:0:0:
192,192,76848,1,0,0:0:0:0:
64,192,76991,1,0,0:0:0:0:
320,192,77134,1,0,0:0:0:0:
448,192,77134,1,0,0:0:0:60:G6S.wav
192,192,77277,1,0,0:0:0:0:
64,192,77420,1,0,0:0:0:0:
448,192,77420,1,0,0:0:0:60:D#6S_Eb6S.wav
320,192,77563,1,0,0:0:0:0:
192,192,77705,1,0,0:0:0:60:D6S.wav
448,192,77705,128,0,77777:0:0:0:0:
64,192,77705,1,0,0:0:0:60:G3S.wav
320,192,77848,1,0,0:0:0:0:
64,192,77991,1,0,0:0:0:60:A#5S_Bb5S.wav
192,192,77991,128,0,78063:0:0:0:0:
448,192,78134,1,0,0:0:0:0:
320,192,78277,1,0,0:0:0:60:A5S.wav
64,192,78277,128,0,78348:0:0:0:0:
192,192,78420,1,0,0:0:0:0:
64,192,78563,1,0,0:0:0:60:G5S.wav
448,192,78563,128,0,78634:0:0:0:0:
320,192,78705,1,0,0:0:0:60:G5S.wav
448,192,78848,1,0,0:0:0:60:C6S.wav
192,192,78848,128,0,78920:0:0:0:0:
320,192,78991,1,0,0:0:0:0:
192,192,79134,1,0,0:0:0:60:D6S.wav
64,192,79134,128,0,79205:0:0:0:0:
320,192,79277,1,0,0:0:0:0:
448,192,79420,1,0,0:0:0:60:D#6S_Eb6S.wav
192,192,79420,128,0,79491:0:0:0:0:
64,192,79563,1,0,0:0:0:0:
192,192,79705,1,0,0:0:0:60:G6S.wav
320,192,79705,128,0,79777:0:0:0:0:
448,192,79848,1,0,0:0:0:0:
320,192,79991,1,0,0:0:0:60:F#6S_Gb6S.wav
64,192,79991,128,0,80063:0:0:0:0:
448,192,80134,1,0,0:0:0:0:
64,192,80277,1,0,0:0:0:0:
192,192,80420,1,0,0:0:0:0:
320,192,80420,128,0,80491:0:0:0:60:G6S.wav
448,192,80563,1,0,0:0:0:0:
192,192,80705,1,0,0:0:0:0:
64,192,80848,1,0,0:0:0:60:A6S.wav
448,192,80848,128,0,80920:0:0:0:0:
320,192,80991,1,0,0:0:0:0:
448,192,81134,1,0,0:0:0:60:A#6S_Bb6S.wav
64,192,81134,128,0,81205:0:0:0:40:D#4S_Eb4S.wav
192,192,81277,1,0,0:0:0:40:F#4S_Gb4S.wav
320,192,81420,1,0,0:0:0:40:A#4S_Bb4S.wav
448,192,81563,1,0,0:0:0:40:D5S.wav
64,192,81705,1,0,0:0:0:60:G6S.wav
320,192,81705,128,0,81777:0:0:0:0:
192,192,81848,1,0,0:0:0:60:A6S.wav
64,192,81848,128,0,81920:0:0:0:0:
320,192,81991,1,0,0:0:0:60:A#6S_Bb6S.wav
192,192,81991,128,0,82063:0:0:0:0:
448,192,82134,1,0,0:0:0:60:D7S.wav
320,192,82134,128,0,82205:0:0:0:0:
192,192,82277,1,0,0:0:0:60:G7S.wav
448,192,82277,128,0,82348:0:0:0:0:
64,192,82277,1,0,0:0:0:40:G3S.wav
320,192,82420,1,0,0:0:0:0:
64,192,82563,1,0,0:0:0:60:D7S.wav
192,192,82563,128,0,82634:0:0:0:0:
448,192,82705,1,0,0:0:0:0:
192,192,82848,1,0,0:0:0:60:C7S.wav
320,192,82848,128,0,82920:0:0:0:0:
64,192,82991,1,0,0:0:0:60:D7S.wav
448,192,82991,128,0,83063:0:0:0:0:
320,192,83134,1,0,0:0:0:0:
64,192,83277,1,0,0:0:0:0:
192,192,83420,128,0,83491:0:0:0:60:D#7S_Eb7S.wav
448,192,83420,1,0,0:0:0:40:D#4S_Eb4S.wav
320,192,83563,1,0,0:0:0:0:
448,192,83705,1,0,0:0:0:60:F#7S_Gb7S.wav
64,192,83705,128,0,83777:0:0:0:0:
192,192,83848,1,0,0:0:0:0:
64,192,83991,1,0,0:0:0:60:G7S.wav
320,192,83991,128,0,84063:0:0:0:0:
448,192,84134,1,0,0:0:0:0:
320,192,84277,1,0,0:0:0:60:A7S.wav
64,192,84277,128,0,84348:0:0:0:0:
192,192,84420,1,0,0:0:0:0:
448,192,84563,128,0,84634:0:0:0:60:A#7S_Bb7S.wav
320,192,84563,1,0,0:0:0:40:D4S.wav
64,192,84705,1,0,0:0:0:40:D#5S_Eb5S.wav
320,192,84848,1,0,0:0:0:40:G5S.wav
192,192,84991,128,0,85063:0:0:0:40:D5S.wav
448,192,84991,1,0,0:0:0:60:A7S.wav
64,192,85134,1,0,0:0:0:40:D#5S_Eb5S.wav
448,192,85277,1,0,0:0:0:0:
192,192,85420,1,0,0:0:0:0:
64,192,85420,128,0,85491:0:0:0:60:G7S.wav
320,192,85563,1,0,0:0:0:0:
448,192,85705,128,0,86634:0:0:0:60:A7S.wav
192,192,85705,128,0,85777:0:0:0:40:A3S.wav
64,192,85848,1,0,0:0:0:60:A3S.wav
192,192,85991,1,0,0:0:0:60:D4S.wav
320,192,86134,1,0,0:0:0:60:A4S.wav
192,192,86277,128,0,86348:0:0:0:0:
64,192,86277,128,0,86348:0:0:0:60:G6S.wav
192,192,86563,128,0,86634:0:0:0:60:F#6S_Gb6S.wav
320,192,86563,128,0,86634:0:0:0:0:
192,192,86848,1,0,0:0:0:0:
64,192,86848,128,2,86920:0:0:0:0:
448,192,86848,128,0,86920:0:0:0:60:G6S.wav
192,192,86991,1,0,0:0:0:0:
320,192,86991,1,0,0:0:0:0:
64,192,87063,1,0,0:0:0:0:
192,192,87134,1,2,0:0:0:0:
320,192,87134,1,0,0:0:0:0:
448,192,87134,1,0,0:0:0:0:
64,192,87277,1,0,0:0:0:0:
448,192,87277,1,0,0:0:0:0:
320,192,87348,1,0,0:0:0:0:
64,192,87420,1,2,0:0:0:0:
192,192,87420,1,0,0:0:0:0:
448,192,87420,1,0,0:0:0:0:
192,192,87563,1,0,0:0:0:0:
320,192,87563,1,0,0:0:0:0:
448,192,87634,1,0,0:0:0:0:
64,192,87705,1,2,0:0:0:0:
192,192,87705,1,0,0:0:0:0:
320,192,87705,1,0,0:0:0:0:
64,192,87848,1,0,0:0:0:0:
448,192,87848,1,0,0:0:0:0:
192,192,87920,1,0,0:0:0:0:
448,192,87991,1,0,0:0:0:0:
320,192,87991,1,0,0:0:0:0:
64,192,87991,1,2,0:0:0:0:
448,192,88134,1,0,0:0:0:0:
320,192,88134,1,0,0:0:0:0:
192,192,88205,1,0,0:0:0:0:
64,192,88277,1,2,0:0:0:0:
320,192,88277,1,0,0:0:0:0:
448,192,88277,1,0,0:0:0:0:
192,192,88420,1,0,0:0:0:0:
64,192,88420,1,0,0:0:0:0:
64,192,88563,1,2,0:0:0:0:
320,192,88563,1,0,0:0:0:0:
448,192,88563,1,0,0:0:0:0:
320,192,88705,1,0,0:0:0:0:
192,192,88705,1,0,0:0:0:0:
448,192,88848,1,0,0:0:0:0:
192,192,88848,1,0,0:0:0:0:
64,192,88848,1,2,0:0:0:0:
320,192,88991,1,0,0:0:0:0:
448,192,88991,1,0,0:0:0:0:
64,192,89063,1,0,0:0:0:0:
192,192,89134,1,2,0:0:0:0:
320,192,89134,1,0,0:0:0:0:
448,192,89134,1,0,0:0:0:0:
64,192,89277,1,0,0:0:0:0:
320,192,89277,1,0,0:0:0:0:
192,192,89348,1,0,0:0:0:0:
64,192,89420,1,2,0:0:0:0:
320,192,89420,1,0,0:0:0:0:
448,192,89420,1,0,0:0:0:0:
192,192,89563,1,0,0:0:0:0:
64,192,89563,1,0,0:0:0:0:
320,192,89634,1,0,0:0:0:0:
192,192,89705,1,0,0:0:0:0:
64,192,89705,1,2,0:0:0:0:
448,192,89705,1,0,0:0:0:0:
320,192,89848,1,0,0:0:0:0:
448,192,89848,1,0,0:0:0:0:
448,192,89991,1,0,0:0:0:0:
64,192,89991,1,2,0:0:0:0:
192,192,89991,1,0,0:0:0:0:
64,192,90134,1,0,0:0:0:0:
320,192,90134,1,0,0:0:0:0:
192,192,90205,1,0,0:0:0:0:
64,192,90277,1,2,0:0:0:0:
320,192,90277,1,0,0:0:0:0:
448,192,90277,1,0,0:0:0:0:
448,192,90420,1,0,0:0:0:0:
192,192,90420,1,0,0:0:0:0:
320,192,90563,1,0,0:0:0:0:
192,192,90563,1,0,0:0:0:0:
64,192,90563,1,2,0:0:0:0:
64,192,90705,1,0,0:0:0:0:
448,192,90705,1,0,0:0:0:0:
192,192,90777,1,0,0:0:0:0:
64,192,90848,128,0,90920:0:0:0:0:
448,192,90848,128,0,90920:0:0:0:0:
320,192,90848,1,2,0:0:0:0:
192,192,90991,1,0,0:0:0:0:
320,192,90991,1,0,0:0:0:0:
64,192,91134,128,0,91205:0:0:0:0:
192,192,91134,128,0,91205:0:0:0:0:
448,192,91134,1,2,0:0:0:0:
448,192,91277,1,0,0:0:0:0:
64,192,91277,1,0,0:0:0:0:
320,192,91277,1,2,0:0:0:0:
64,192,91420,128,0,91491:0:0:0:0:
448,192,91420,128,0,91491:0:0:0:0:
320,192,91420,1,2,0:0:0:0:
192,192,91491,1,0,0:0:0:0:
320,192,91563,1,0,0:0:0:0:
448,192,91563,1,0,0:0:0:0:
64,192,91634,1,0,0:0:0:0:
192,192,91705,1,0,0:0:0:0:
320,192,91705,1,2,0:0:0:0:
448,192,91705,1,0,0:0:0:0:
64,192,91777,1,0,0:0:0:0:
192,192,91848,1,0,0:0:0:0:
448,192,91848,1,0,0:0:0:0:
320,192,91920,1,0,0:0:0:0:
448,192,91991,1,0,0:0:0:0:
64,192,91991,1,2,0:0:0:0:
192,192,91991,1,0,0:0:0:0:
320,192,92063,1,0,0:0:0:0:
192,192,92134,1,0,0:0:0:0:
64,192,92134,1,0,0:0:0:0:
448,192,92205,1,0,0:0:0:0:
320,192,92277,1,0,0:0:0:0:
192,192,92277,1,0,0:0:0:0:
64,192,92277,1,2,0:0:0:0:
448,192,92348,1,0,0:0:0:0:
320,192,92420,1,0,0:0:0:0:
192,192,92420,1,0,0:0:0:0:
64,192,92491,1,0,0:0:0:0:
192,192,92563,1,2,0:0:0:0:
320,192,92563,1,0,0:0:0:0:
448,192,92563,1,0,0:0:0:0:
64,192,92705,1,0,0:0:0:0:
320,192,92705,1,0,0:0:0:0:
192,192,92777,1,0,0:0:0:0:
64,192,92848,1,2,0:0:0:0:
320,192,92848,1,0,0:0:0:0:
448,192,92848,1,0,0:0:0:0:
192,192,92991,1,0,0:0:0:0:
448,192,92991,1,0,0:0:0:0:
320,192,93134,1,0,0:0:0:0:
192,192,93134,1,0,0:0:0:0:
64,192,93134,1,2,0:0:0:0:
320,192,93277,1,0,0:0:0:0:
448,192,93277,1,0,0:0:0:0:
448,192,93420,1,0,0:0:0:0:
192,192,93420,1,0,0:0:0:0:
64,192,93420,1,2,0:0:0:0:
320,192,93563,1,0,0:0:0:0:
448,192,93563,1,0,0:0:0:0:
192,192,93634,1,0,0:0:0:0:
64,192,93705,1,2,0:0:0:0:
320,192,93705,1,0,0:0:0:0:
448,192,93705,1,0,0:0:0:0:
192,192,93848,1,0,0:0:0:0:
320,192,93848,1,0,0:0:0:0:
448,192,93920,1,0,0:0:0:0:
320,192,93991,1,0,0:0:0:0:
192,192,93991,1,0,0:0:0:0:
64,192,93991,1,2,0:0:0:0:
64,192,94134,1,0,0:0:0:0:
192,192,94134,1,0,0:0:0:0:
320,192,94205,1,0,0:0:0:0:
448,192,94277,1,0,0:0:0:0:
192,192,94277,1,0,0:0:0:0:
64,192,94277,1,2,0:0:0:0:
192,192,94420,1,0,0:0:0:0:
448,192,94420,1,0,0:0:0:0:
320,192,94563,1,0,0:0:0:0:
448,192,94563,1,0,0:0:0:0:
64,192,94563,1,2,0:0:0:0:
64,192,94705,1,0,0:0:0:0:
320,192,94705,1,0,0:0:0:0:
192,192,94777,1,0,0:0:0:0:
64,192,94848,1,2,0:0:0:0:
320,192,94848,1,0,0:0:0:0:
448,192,94848,1,0,0:0:0:0:
64,192,94991,1,2,0:0:0:0:
320,192,94991,1,0,0:0:0:0:
448,192,94991,1,0,0:0:0:0:
192,192,95134,1,0,0:0:0:0:
320,192,95277,1,0,0:0:0:0:
448,192,95277,1,2,0:0:0:0:
192,192,95348,1,2,0:0:0:0:
64,192,95348,1,0,0:0:0:0:
320,192,95420,128,0,95491:0:0:0:0:
448,192,95420,128,2,95491:0:0:0:0:
64,192,95563,1,2,0:0:0:0:
448,192,95563,1,0,0:0:0:0:
320,192,95634,1,0,0:0:0:0:
192,192,95634,1,2,0:0:0:0:
64,192,95705,128,2,95777:0:0:0:0:
448,192,95705,128,0,95777:0:0:0:0:
64,192,95848,1,0,0:0:0:0:
448,192,95848,1,0,0:0:0:0:
320,192,95848,1,2,0:0:0:0:
64,192,95991,1,2,0:0:0:0:
320,192,95991,128,0,96063:0:0:0:0:
448,192,95991,128,0,96063:0:0:0:0:
192,192,96063,1,0,0:0:0:0:
64,192,96134,1,0,0:0:0:0:
320,192,96134,1,0,0:0:0:0:
192,192,96205,1,0,0:0:0:0:
320,192,96277,1,0,0:0:0:0:
448,192,96277,1,0,0:0:0:0:
64,192,96277,1,2,0:0:0:0:
192,192,96348,1,0,0:0:0:0:
320,192,96420,1,0,0:0:0:0:
448,192,96420,1,0,0:0:0:0:
64,192,96491,1,0,0:0:0:0:
192,192,96563,1,2,0:0:0:0:
320,192,96563,1,0,0:0:0:0:
448,192,96563,1,0,0:0:0:0:
64,192,96634,1,0,0:0:0:0:
192,192,96705,1,0,0:0:0:0:
448,192,96705,1,0,0:0:0:0:
320,192,96777,1,0,0:0:0:0:
64,192,96848,1,2,0:0:0:0:
448,192,96848,1,0,0:0:0:0:
192,192,96848,1,0,0:0:0:0:
320,192,96991,1,0,0:0:0:0:
192,192,96991,1,0,0:0:0:0:
64,192,97063,1,0,0:0:0:0:
192,192,97134,1,2,0:0:0:0:
320,192,97134,1,0,0:0:0:0:
448,192,97134,1,0,0:0:0:0:
448,192,97277,1,0,0:0:0:0:
64,192,97277,1,0,0:0:0:0:
192,192,97348,1,0,0:0:0:0:
64,192,97420,1,2,0:0:0:0:
448,192,97420,1,0,0:0:0:0:
320,192,97420,1,0,0:0:0:0:
192,192,97563,1,0,0:0:0:0:
320,192,97563,1,0,0:0:0:0:
64,192,97705,1,2,0:0:0:0:
320,192,97705,1,0,0:0:0:0:
448,192,97705,1,0,0:0:0:0:
192,192,97848,1,0,0:0:0:0:
64,192,97848,1,0,0:0:0:0:
192,192,97991,1,2,0:0:0:0:
320,192,97991,1,0,0:0:0:0:
448,192,97991,1,0,0:0:0:0:
64,192,98134,1,0,0:0:0:0:
448,192,98134,1,0,0:0:0:0:
192,192,98205,1,0,0:0:0:0:
64,192,98277,1,2,0:0:0:0:
320,192,98277,1,0,0:0:0:0:
448,192,98277,1,0,0:0:0:0:
320,192,98420,1,0,0:0:0:0:
448,192,98420,1,0,0:0:0:0:
192,192,98491,1,0,0:0:0:0:
64,192,98563,1,2,0:0:0:0:
320,192,98563,1,0,0:0:0:0:
448,192,98563,1,0,0:0:0:0:
192,192,98705,1,0,0:0:0:0:
64,192,98705,1,0,0:0:0:0:
320,192,98777,1,0,0:0:0:0:
448,192,98848,1,0,0:0:0:0:
192,192,98848,1,0,0:0:0:0:
64,192,98848,1,2,0:0:0:0:
192,192,98991,1,0,0:0:0:0:
448,192,98991,1,0,0:0:0:0:
320,192,99134,1,0,0:0:0:0:
192,192,99134,1,0,0:0:0:0:
64,192,99134,1,2,0:0:0:0:
64,192,99277,1,0,0:0:0:0:
448,192,99277,1,0,0:0:0:0:
320,192,99348,1,0,0:0:0:0:
192,192,99420,1,0,0:0:0:0:
64,192,99420,1,2,0:0:0:0:
448,192,99420,1,0,0:0:0:0:
320,192,99563,1,0,0:0:0:0:
448,192,99563,1,0,0:0:0:0:
320,192,99705,1,0,0:0:0:0:
192,192,99705,1,0,0:0:0:0:
64,192,99705,1,2,0:0:0:0:
448,192,99848,1,0,0:0:0:0:
320,192,99848,1,0,0:0:0:0:
64,192,99920,1,0,0:0:0:0:
192,192,99991,1,2,0:0:0:0:
320,192,99991,128,0,100063:0:0:0:0:
448,192,99991,128,0,100063:0:0:0:0:
192,192,100134,1,0,0:0:0:0:
64,192,100134,1,0,0:0:0:0:
448,192,100277,128,0,100348:0:0:0:0:
64,192,100277,128,0,100348:0:0:0:0:
320,192,100277,1,2,0:0:0:0:
192,192,100420,1,2,0:0:0:0:
64,192,100420,1,0,0:0:0:0:
320,192,100420,1,0,0:0:0:0:
320,192,100563,128,0,100634:0:0:0:0:
448,192,100563,128,0,100634:0:0:0:0:
64,192,100563,1,2,0:0:0:0:
192,192,100634,1,0,0:0:0:0:
320,192,100705,1,0,0:0:0:0:
448,192,100705,1,0,0:0:0:0:
64,192,100777,1,0,0:0:0:0:
192,192,100848,1,2,0:0:0:0:
320,192,100848,1,0,0:0:0:0:
448,192,100848,1,0,0:0:0:0:
64,192,100920,1,0,0:0:0:0:
192,192,100991,1,0,0:0:0:0:
320,192,100991,1,0,0:0:0:0:
448,192,101063,1,0,0:0:0:0:
320,192,101134,1,0,0:0:0:0:
192,192,101134,1,0,0:0:0:0:
64,192,101134,1,2,0:0:0:0:
448,192,101205,1,0,0:0:0:0:
320,192,101277,1,0,0:0:0:0:
64,192,101277,1,0,0:0:0:0:
192,192,101348,1,0,0:0:0:0:
64,192,101420,1,2,0:0:0:0:
448,192,101420,1,0,0:0:0:0:
320,192,101420,1,0,0:0:0:0:
192,192,101563,1,0,0:0:0:0:
448,192,101563,1,0,0:0:0:0:
64,192,101634,1,0,0:0:0:0:
192,192,101705,1,2,0:0:0:0:
320,192,101705,1,0,0:0:0:0:
448,192,101705,1,0,0:0:0:0:
64,192,101848,1,0,0:0:0:0:
192,192,101848,1,0,0:0:0:0:
320,192,101920,1,0,0:0:0:0:
448,192,101991,1,0,0:0:0:0:
192,192,101991,1,0,0:0:0:0:
64,192,101991,1,2,0:0:0:0:
448,192,102134,1,0,0:0:0:0:
320,192,102134,1,0,0:0:0:0:
64,192,102277,1,2,0:0:0:0:
192,192,102277,1,0,0:0:0:0:
320,192,102277,1,0,0:0:0:0:
192,192,102420,1,0,0:0:0:0:
448,192,102420,1,0,0:0:0:0:
448,192,102563,1,0,0:0:0:0:
320,192,102563,1,0,0:0:0:0:
64,192,102563,1,2,0:0:0:0:
64,192,102705,1,0,0:0:0:0:
192,192,102705,1,0,0:0:0:0:
320,192,102777,1,0,0:0:0:0:
448,192,102848,1,0,0:0:0:0:
192,192,102848,1,0,0:0:0:0:
64,192,102848,1,2,0:0:0:0:
64,192,102991,1,2,0:0:0:0:
192,192,102991,1,0,0:0:0:0:
448,192,102991,1,0,0:0:0:0:
320,192,103063,1,0,0:0:0:0:
448,192,103134,1,0,0:0:0:0:
192,192,103134,1,0,0:0:0:0:
64,192,103134,1,2,0:0:0:0:
64,192,103277,1,2,0:0:0:0:
320,192,103277,1,0,0:0:0:0:
448,192,103277,1,0,0:0:0:0:
192,192,103348,1,0,0:0:0:0:
64,192,103420,1,2,0:0:0:0:
320,192,103420,1,0,0:0:0:0:
448,192,103420,1,0,0:0:0:0:
64,192,103563,1,2,0:0:0:0:
192,192,103563,1,0,0:0:0:0:
320,192,103563,1,0,0:0:0:0:
192,192,103705,1,2,0:0:0:0:
320,192,103705,1,0,0:0:0:0:
448,192,103705,1,0,0:0:0:0:
448,192,103848,1,2,0:0:0:0:
64,192,103848,1,0,0:0:0:0:
320,192,103848,1,0,0:0:0:0:
192,192,103920,1,0,0:0:0:0:
64,192,103991,1,0,0:0:0:0:
320,192,103991,1,0,0:0:0:0:
448,192,103991,1,2,0:0:0:0:
192,192,104134,1,2,0:0:0:0:
64,192,104134,1,0,0:0:0:0:
448,192,104170,1,2,0:0:0:0:
320,192,104205,1,2,0:0:0:0:
192,192,104241,1,2,0:0:0:0:
64,192,104277,1,0,0:0:0:0:
448,192,104277,1,2,0:0:0:0:
448,192,104420,1,0,0:0:0:0:
320,192,104420,1,2,0:0:0:0:
64,192,104455,1,2,0:0:0:0:
192,192,104491,1,2,0:0:0:0:
320,192,104527,1,2,0:0:0:0:
448,192,104563,1,0,0:0:0:0:
64,192,104563,1,2,0:0:0:0:
448,192,104705,1,0,0:0:0:0:
64,192,104705,1,2,0:0:0:0:
320,192,104741,1,2,0:0:0:0:
192,192,104777,1,2,0:0:0:0:
64,192,104813,1,2,0:0:0:0:
320,192,104848,1,2,0:0:0:0:
448,192,104848,1,0,0:0:0:0:
448,192,104991,1,2,0:0:0:0:
64,192,104991,1,0,0:0:0:0:
192,192,105027,1,2,0:0:0:0:
320,192,105063,1,2,0:0:0:0:
448,192,105098,1,2,0:0:0:0:
192,192,105134,1,4,0:0:0:0:
64,192,105134,128,2,105277:0:0:0:0:
320,192,105277,1,0,0:0:0:0:
448,192,105420,128,0,105491:0:0:0:0:
320,192,105563,128,0,105705:0:0:0:0:
192,192,105705,1,8,0:0:0:0:
64,192,105705,1,0,0:0:0:0:
448,192,105705,128,0,105848:0:0:0:0:
192,192,105848,128,0,105920:0:0:0:0:
192,192,105991,128,0,106063:0:0:0:0:
192,192,106134,128,0,106205:0:0:0:0:
320,192,106134,128,0,106277:0:0:0:0:
448,192,106277,128,0,106420:0:0:0:0:
64,192,106277,1,2,0:0:0:0:
320,192,106420,128,0,106491:0:0:0:0:
320,192,106563,128,0,106634:0:0:0:0:
64,192,106705,128,0,106848:0:0:0:0:
320,192,106705,128,0,106777:0:0:0:0:
448,192,106848,128,0,106991:0:0:0:0:
192,192,106848,1,8,0:0:0:0:
64,192,106991,1,0,0:0:0:0:
448,192,107134,1,0,0:0:0:0:
448,192,107205,1,0,0:0:0:0:
64,192,107277,1,0,0:0:0:0:
320,192,107277,128,0,107420:0:0:0:0:
64,192,107348,1,0,0:0:0:0:
192,192,107420,128,0,107563:0:0:0:0:
448,192,107420,1,2,0:0:0:0:
64,192,107563,1,0,0:0:0:0:
320,192,107705,128,0,107753:0:0:0:0:
64,192,107729,128,0,107801:0:0:0:0:
320,192,107848,128,0,107896:0:0:0:0:
448,192,107848,128,0,107991:0:0:0:0:
64,192,107872,128,0,107943:0:0:0:0:
192,192,107991,128,0,108134:0:0:0:0:
320,192,107991,1,0,0:0:0:0:
64,192,107991,1,8,0:0:0:0:
448,192,108134,1,0,0:0:0:0:
64,192,108277,1,0,0:0:0:0:
64,192,108348,1,0,0:0:0:0:
320,192,108420,1,0,0:0:0:0:
192,192,108420,128,0,108563:0:0:0:0:
320,192,108491,1,0,0:0:0:0:
448,192,108563,128,0,108705:0:0:0:0:
64,192,108563,1,2,0:0:0:0:
192,192,108705,1,0,0:0:0:0:
448,192,108848,128,0,108991:0:0:0:0:
320,192,108896,1,0,0:0:0:0:
192,192,108943,1,0,0:0:0:0:
64,192,108991,128,0,109134:0:0:0:0:
192,192,109039,1,0,0:0:0:0:
320,192,109086,1,0,0:0:0:0:
448,192,109134,1,8,0:0:0:0:
320,192,109277,128,0,109420:0:0:0:0:
64,192,109420,128,0,109563:0:0:0:0:
448,192,109420,128,0,109467:0:0:0:0:
448,192,109563,128,0,109610:0:0:0:0:
192,192,109705,128,2,109848:0:0:0:0:
320,192,109705,128,0,109991:0:0:0:0:
64,192,109991,128,0,110063:0:0:0:0:
192,192,110134,128,0,110277:0:0:0:0:
448,192,110277,1,8,0:0:0:0:
64,192,110277,1,0,0:0:0:0:
320,192,110277,128,0,110420:0:0:0:0:
192,192,110420,128,0,110491:0:0:0:0:
448,192,110455,128,0,110527:0:0:0:0:
192,192,110563,128,0,110634:0:0:0:0:
448,192,110598,128,0,110670:0:0:0:0:
192,192,110705,128,0,110777:0:0:0:0:
64,192,110705,128,0,110848:0:0:0:0:
448,192,110741,128,0,110813:0:0:0:0:
192,192,110848,1,2,0:0:0:0:
320,192,110848,128,0,110991:0:0:0:0:
448,192,110991,128,0,111039:0:0:0:0:
192,192,111015,128,0,111063:0:0:0:0:
64,192,111134,128,0,111182:0:0:0:0:
320,192,111158,128,0,111205:0:0:0:0:
448,192,111277,128,0,111420:0:0:0:0:
192,192,111301,128,0,111348:0:0:0:0:
192,192,111420,1,8,0:0:0:0:
64,192,111420,128,0,111563:0:0:0:0:
320,192,111420,1,0,0:0:0:0:
320,192,111563,128,0,111610:0:0:0:0:
448,192,111586,128,0,111634:0:0:0:0:
192,192,111705,128,0,111753:0:0:0:0:
320,192,111729,128,0,111777:0:0:0:0:
64,192,111848,128,0,111896:0:0:0:0:
448,192,111848,128,0,111991:0:0:0:0:
192,192,111872,128,0,111920:0:0:0:0:
64,192,111991,1,2,0:0:0:0:
320,192,111991,128,0,112134:0:0:0:0:
192,192,112134,1,0,0:0:0:0:
448,192,112277,128,0,112324:0:0:0:0:
64,192,112301,128,0,112372:0:0:0:0:
320,192,112420,1,0,0:0:0:0:
448,192,112563,1,8,0:0:0:0:
192,192,112563,1,0,0:0:0:0:
64,192,112563,128,0,112705:0:0:0:0:
320,192,112705,1,0,0:0:0:0:
448,192,112848,128,0,112991:0:0:0:0:
64,192,112848,1,0,0:0:0:0:
64,192,112920,1,0,0:0:0:0:
320,192,112991,1,0,0:0:0:0:
320,192,113063,1,0,0:0:0:0:
448,192,113134,1,2,0:0:0:0:
192,192,113134,128,0,113277:0:0:0:0:
64,192,113277,1,0,0:0:0:0:
448,192,113420,1,0,0:0:0:0:
320,192,113467,1,0,0:0:0:0:
192,192,113515,1,0,0:0:0:0:
448,192,113563,1,0,0:0:0:0:
320,192,113610,1,0,0:0:0:0:
192,192,113658,1,0,0:0:0:0:
320,192,113705,1,0,0:0:0:0:
448,192,113705,128,8,113777:0:0:0:0:
64,192,113705,1,0,0:0:0:0:
192,192,113848,1,0,0:0:0:0:
64,192,113991,128,2,114063:0:0:0:0:
448,192,113991,1,4,0:0:0:0:
320,192,114134,1,0,0:0:0:0:
192,192,114277,1,4,0:0:0:0:
64,192,114277,1,2,0:0:0:0:
448,192,114277,128,0,114348:0:0:0:0:
192,192,114420,1,0,0:0:0:0:
64,192,114563,1,2,0:0:0:0:
320,192,114563,1,0,0:0:0:0:
320,192,114705,1,0,0:0:0:0:
64,192,114848,1,2,0:0:0:0:
448,192,114848,1,0,0:0:0:0:
448,192,114991,1,0,0:0:0:0:
320,192,115134,1,0,0:0:0:0:
192,192,115134,1,2,0:0:0:0:
192,192,115277,1,0,0:0:0:0:
64,192,115420,1,2,0:0:0:0:
448,192,115420,1,0,0:0:0:0:
448,192,115563,128,0,115610:0:0:0:0:
192,192,115705,1,0,0:0:0:0:
64,192,115705,1,2,0:0:0:0:
64,192,115848,128,0,115896:0:0:0:0:
192,192,115991,1,2,0:0:0:0:
320,192,115991,1,0,0:0:0:0:
320,192,116134,128,0,116182:0:0:0:0:
448,192,116277,1,2,0:0:0:0:
192,192,116277,1,0,0:0:0:0:
192,192,116420,128,0,116467:0:0:0:0:
64,192,116563,1,2,0:0:0:0:
448,192,116563,1,0,0:0:0:0:
448,192,116705,128,0,116777:0:0:0:0:
320,192,116848,1,0,0:0:0:0:
192,192,116848,1,2,0:0:0:0:
320,192,116991,128,0,117063:0:0:0:0:
64,192,117134,1,2,0:0:0:0:
448,192,117134,1,0,0:0:0:0:
64,192,117277,128,0,117348:0:0:0:0:
192,192,117420,1,0,0:0:0:0:
320,192,117420,1,2,0:0:0:0:
192,192,117563,128,0,117634:0:0:0:0:
320,192,117705,1,2,0:0:0:0:
448,192,117705,1,0,0:0:0:0:
64,192,117705,1,0,0:0:0:0:
448,192,117848,128,0,117943:0:0:0:0:
320,192,117991,1,0,0:0:0:0:
64,192,117991,1,0,0:0:0:0:
192,192,117991,1,2,0:0:0:0:
64,192,118134,128,0,118229:0:0:0:0:
192,192,118277,1,2,0:0:0:0:
320,192,118277,1,0,0:0:0:0:
448,192,118277,1,0,0:0:0:0:
320,192,118420,128,0,118515:0:0:0:0:
192,192,118563,1,0,0:0:0:0:
64,192,118563,1,2,0:0:0:0:
448,192,118563,1,0,0:0:0:0:
192,192,118705,128,0,118801:0:0:0:0:
64,192,118848,1,2,0:0:0:0:
320,192,118848,1,4,0:0:0:0:
448,192,118848,128,0,119420:0:0:0:0:
320,192,118991,128,0,119134:0:0:0:0:
192,192,119134,1,0,0:0:0:0:
64,192,119134,1,2,0:0:0:0:
192,192,119277,128,0,119420:0:0:0:0:
64,192,119420,128,0,119991:0:0:0:0:
320,192,119420,1,2,0:0:0:0:
320,192,119563,128,0,119705:0:0:0:0:
192,192,119705,1,2,0:0:0:0:
448,192,119705,1,0,0:0:0:0:
448,192,119848,128,0,119991:0:0:0:0:
320,192,119991,128,4,120563:0:0:0:0:
192,192,119991,1,2,0:0:0:0:
192,192,120134,128,0,120277:0:0:0:0:
64,192,120277,1,2,0:0:0:0:
448,192,120277,1,0,0:0:0:0:
64,192,120420,128,0,120563:0:0:0:0:
192,192,120563,128,0,121134:0:0:0:0:
448,192,120563,1,2,0:0:0:0:
448,192,120705,128,0,120848:0:0:0:0:
320,192,120848,1,0,0:0:0:0:
64,192,120848,1,2,0:0:0:0:
320,192,120991,128,0,121134:0:0:0:0:
64,192,121134,1,2,0:0:0:0:
448,192,121134,1,4,0:0:0:0:
192,192,121277,128,0,121420:0:0:0:0:
192,192,121563,128,0,121705:0:0:0:0:
192,192,121848,128,0,121991:0:0:0:0:
192,192,122134,128,0,122277:0:0:0:0:
64,192,122277,1,2,0:0:0:0:
320,192,122277,1,0,0:0:0:0:
448,192,122420,128,0,122563:0:0:0:0:
448,192,122705,128,0,122848:0:0:0:0:
192,192,122848,128,0,122920:0:0:0:0:
64,192,122848,128,0,122920:0:0:0:0:
64,192,122991,1,0,0:0:0:0:
320,192,123134,128,0,123205:0:0:0:0:
448,192,123134,128,0,123205:0:0:0:0:
448,192,123277,1,0,0:0:0:0:
320,192,123420,1,4,0:0:0:0:
64,192,123420,128,2,123491:0:0:0:0:
448,192,123420,128,0,123491:0:0:0:0:
192,192,123491,1,0,0:0:0:0:
320,192,123563,1,0,0:0:0:0:
448,192,123634,1,0,0:0:0:0:
320,192,123705,1,0,0:0:0:0:
192,192,123705,1,8,0:0:0:0:
64,192,123705,1,2,0:0:0:0:
448,192,123777,1,0,0:0:0:0:
192,192,123848,1,0,0:0:0:0:
64,192,123920,1,0,0:0:0:0:
320,192,123991,1,2,0:0:0:0:
448,192,123991,1,0,0:0:0:0:
192,192,124063,1,0,0:0:0:0:
64,192,124134,1,0,0:0:0:0:
448,192,124205,1,0,0:0:0:0:
320,192,124277,1,0,0:0:0:0:
192,192,124277,1,8,0:0:0:0:
64,192,124277,1,2,0:0:0:0:
448,192,124348,1,0,0:0:0:0:
192,192,124420,1,0,0:0:0:0:
320,192,124491,1,0,0:0:0:0:
64,192,124563,1,2,0:0:0:0:
448,192,124563,1,0,0:0:0:0:
192,192,124634,1,0,0:0:0:0:
448,192,124705,1,0,0:0:0:0:
320,192,124777,1,0,0:0:0:0:
192,192,124848,1,8,0:0:0:0:
64,192,124848,1,2,0:0:0:0:
448,192,124848,1,0,0:0:0:0:
320,192,124920,1,0,0:0:0:0:
192,192,124991,1,0,0:0:0:0:
64,192,125063,1,0,0:0:0:0:
320,192,125134,1,2,0:0:0:0:
448,192,125134,1,0,0:0:0:0:
192,192,125205,1,0,0:0:0:0:
64,192,125277,1,0,0:0:0:0:
448,192,125348,1,0,0:0:0:0:
192,192,125420,1,8,0:0:0:0:
64,192,125420,1,2,0:0:0:0:
320,192,125420,1,0,0:0:0:0:
448,192,125491,1,0,0:0:0:0:
192,192,125563,1,0,0:0:0:0:
448,192,125634,1,0,0:0:0:0:
320,192,125705,1,0,0:0:0:0:
64,192,125705,1,2,0:0:0:0:
192,192,125777,1,0,0:0:0:0:
448,192,125848,1,0,0:0:0:0:
320,192,125920,1,0,0:0:0:0:
64,192,125991,1,2,0:0:0:0:
192,192,125991,1,8,0:0:0:0:
448,192,125991,1,0,0:0:0:0:
320,192,126063,1,0,0:0:0:0:
64,192,126134,1,0,0:0:0:0:
192,192,126134,1,0,0:0:0:0:
320,192,126205,1,0,0:0:0:0:
448,192,126277,1,0,0:0:0:0:
64,192,126277,1,2,0:0:0:0:
192,192,126348,1,0,0:0:0:0:
320,192,126420,1,0,0:0:0:0:
64,192,126491,1,0,0:0:0:0:
320,192,126563,1,8,0:0:0:0:
192,192,126563,1,0,0:0:0:0:
448,192,126563,1,2,0:0:0:0:
64,192,126634,1,0,0:0:0:0:
192,192,126705,1,0,0:0:0:0:
64,192,126777,1,0,0:0:0:0:
320,192,126848,1,0,0:0:0:0:
448,192,126848,1,2,0:0:0:0:
192,192,126920,1,0,0:0:0:0:
64,192,126991,1,0,0:0:0:0:
320,192,127063,1,0,0:0:0:0:
448,192,127134,1,2,0:0:0:0:
64,192,127134,1,0,0:0:0:0:
192,192,127134,1,8,0:0:0:0:
320,192,127182,1,0,0:0:0:0:
192,192,127229,1,0,0:0:0:0:
64,192,127277,1,0,0:0:0:0:
448,192,127324,1,0,0:0:0:0:
320,192,127372,1,0,0:0:0:0:
192,192,127420,1,0,0:0:0:0:
64,192,127420,1,2,0:0:0:0:
448,192,127491,1,0,0:0:0:0:
320,192,127563,1,0,0:0:0:0:
192,192,127634,1,0,0:0:0:0:
64,192,127705,1,2,0:0:0:0:
320,192,127705,1,8,0:0:0:0:
448,192,127705,1,0,0:0:0:0:
192,192,127777,1,0,0:0:0:0:
448,192,127848,1,0,0:0:0:0:
320,192,127920,1,0,0:0:0:0:
64,192,127991,1,2,0:0:0:0:
448,192,127991,1,0,0:0:0:0:
192,192,127991,1,4,0:0:0:0:
320,192,128063,1,0,0:0:0:0:
64,192,128134,1,0,0:0:0:0:
192,192,128205,1,0,0:0:0:0:
320,192,128277,1,2,0:0:0:0:
448,192,128277,1,8,0:0:0:0:
64,192,128277,1,0,0:0:0:0:
192,192,128348,1,0,0:0:0:0:
320,192,128420,1,0,0:0:0:0:
448,192,128491,1,0,0:0:0:0:
64,192,128563,1,2,0:0:0:0:
192,192,128563,1,0,0:0:0:0:
320,192,128634,1,0,0:0:0:0:
448,192,128705,1,0,0:0:0:0:
192,192,128777,1,0,0:0:0:0:
64,192,128848,1,2,0:0:0:0:
320,192,128848,1,8,0:0:0:0:
448,192,128848,1,0,0:0:0:0:
192,192,128920,1,0,0:0:0:0:
320,192,128991,1,0,0:0:0:0:
448,192,129063,1,0,0:0:0:0:
192,192,129134,1,0,0:0:0:0:
64,192,129134,1,2,0:0:0:0:
320,192,129205,1,0,0:0:0:0:
64,192,129277,1,0,0:0:0:0:
448,192,129348,1,0,0:0:0:0:
320,192,129420,1,8,0:0:0:0:
192,192,129420,1,2,0:0:0:0:
64,192,129420,1,0,0:0:0:0:
448,192,129491,1,0,0:0:0:0:
320,192,129563,1,0,0:0:0:0:
192,192,129634,1,0,0:0:0:0:
320,192,129705,1,2,0:0:0:0:
448,192,129705,1,0,0:0:0:0:
64,192,129777,1,0,0:0:0:0:
192,192,129848,1,0,0:0:0:0:
320,192,129920,1,0,0:0:0:0:
448,192,129991,1,0,0:0:0:0:
192,192,129991,1,8,0:0:0:0:
64,192,129991,1,2,0:0:0:0:
320,192,130063,1,0,0:0:0:0:
64,192,130134,1,0,0:0:0:0:
448,192,130205,1,0,0:0:0:0:
320,192,130277,1,0,0:0:0:0:
192,192,130277,1,2,0:0:0:0:
64,192,130348,1,0,0:0:0:0:
192,192,130420,1,0,0:0:0:0:
320,192,130491,1,0,0:0:0:0:
64,192,130563,1,2,0:0:0:0:
448,192,130563,1,0,0:0:0:0:
192,192,130563,1,8,0:0:0:0:
320,192,130634,1,0,0:0:0:0:
192,192,130705,1,0,0:0:0:0:
64,192,130777,1,0,0:0:0:0:
320,192,130848,1,2,0:0:0:0:
448,192,130848,1,0,0:0:0:0:
192,192,130920,1,0,0:0:0:0:
64,192,130991,1,0,0:0:0:0:
320,192,131063,1,0,0:0:0:0:
192,192,131134,1,0,0:0:0:0:
448,192,131134,1,8,0:0:0:0:
64,192,131134,1,2,0:0:0:0:
320,192,131205,1,0,0:0:0:0:
448,192,131277,1,0,0:0:0:0:
320,192,131348,1,0,0:0:0:0:
64,192,131420,1,2,0:0:0:0:
192,192,131420,1,0,0:0:0:0:
448,192,131491,1,0,0:0:0:0:
320,192,131563,1,0,0:0:0:0:
192,192,131634,1,0,0:0:0:0:
64,192,131705,1,2,0:0:0:0:
320,192,131705,1,8,0:0:0:0:
448,192,131705,1,0,0:0:0:0:
192,192,131753,1,0,0:0:0:0:
320,192,131801,1,0,0:0:0:0:
448,192,131848,1,0,0:0:0:0:
64,192,131896,1,0,0:0:0:0:
192,192,131943,1,0,0:0:0:0:
320,192,131991,1,2,0:0:0:0:
448,192,131991,1,0,0:0:0:0:
64,192,132063,1,0,0:0:0:0:
192,192,132134,1,0,0:0:0:0:
448,192,132205,1,0,0:0:0:0:
320,192,132277,1,8,0:0:0:0:
192,192,132277,1,0,0:0:0:0:
64,192,132277,1,2,0:0:0:0:
448,192,132348,1,0,0:0:0:0:
64,192,132420,1,0,0:0:0:0:
192,192,132491,1,0,0:0:0:0:
64,192,132563,1,2,0:0:0:0:
320,192,132563,1,4,0:0:0:0:
448,192,132563,1,0,0:0:0:0:
192,192,132634,1,0,0:0:0:0:
320,192,132705,1,0,0:0:0:0:
448,192,132777,1,0,0:0:0:0:
192,192,132848,1,2,0:0:0:0:
64,192,132848,1,8,0:0:0:0:
320,192,132848,1,0,0:0:0:0:
448,192,132920,1,0,0:0:0:0:
192,192,132991,1,0,0:0:0:0:
320,192,133063,1,0,0:0:0:0:
192,192,133134,1,0,0:0:0:0:
64,192,133134,1,2,0:0:0:0:
448,192,133134,1,0,0:0:0:0:
320,192,133205,1,0,0:0:0:0:
64,192,133277,1,0,0:0:0:0:
192,192,133348,1,0,0:0:0:0:
64,192,133420,1,2,0:0:0:0:
320,192,133420,1,8,0:0:0:0:
448,192,133420,1,0,0:0:0:0:
192,192,133491,1,0,0:0:0:0:
448,192,133563,1,0,0:0:0:0:
320,192,133634,1,0,0:0:0:0:
64,192,133705,1,2,0:0:0:0:
448,192,133705,1,0,0:0:0:0:
192,192,133705,1,0,0:0:0:0:
320,192,133777,1,0,0:0:0:0:
64,192,133848,1,0,0:0:0:0:
192,192,133920,1,0,0:0:0:0:
448,192,133991,1,8,0:0:0:0:
320,192,133991,1,0,0:0:0:0:
64,192,133991,1,2,0:0:0:0:
192,192,134063,1,0,0:0:0:0:
320,192,134134,1,0,0:0:0:0:
448,192,134134,1,0,0:0:0:0:
64,192,134205,1,0,0:0:0:0:
320,192,134277,1,0,0:0:0:0:
448,192,134277,1,2,0:0:0:0:
192,192,134277,1,0,0:0:0:0:
64,192,134348,1,0,0:0:0:0:
192,192,134420,1,0,0:0:0:0:
448,192,134491,1,0,0:0:0:0:
64,192,134563,1,2,0:0:0:0:
192,192,134563,1,0,0:0:0:0:
320,192,134563,1,8,0:0:0:0:
448,192,134634,1,0,0:0:0:0:
320,192,134705,1,0,0:0:0:0:
64,192,134705,1,0,0:0:0:0:
448,192,134777,1,0,0:0:0:0:
320,192,134848,1,0,0:0:0:0:
64,192,134848,1,2,0:0:0:0:
192,192,134848,1,0,0:0:0:0:
448,192,134920,1,0,0:0:0:0:
64,192,134991,1,0,0:0:0:0:
192,192,135063,1,0,0:0:0:0:
448,192,135134,1,2,0:0:0:0:
320,192,135134,1,8,0:0:0:0:
64,192,135205,1,0,0:0:0:0:
192,192,135205,1,0,0:0:0:0:
320,192,135277,1,0,0:0:0:0:
448,192,135277,1,0,0:0:0:0:
64,192,135348,1,0,0:0:0:0:
448,192,135420,1,0,0:0:0:0:
192,192,135420,1,2,0:0:0:0:
320,192,135420,1,0,0:0:0:0:
64,192,135491,1,0,0:0:0:0:
192,192,135563,1,0,0:0:0:0:
448,192,135634,1,0,0:0:0:0:
320,192,135705,1,2,0:0:0:0:
192,192,135705,1,8,0:0:0:0:
64,192,135705,1,0,0:0:0:0:
448,192,135777,1,0,0:0:0:0:
320,192,135848,1,0,0:0:0:0:
64,192,135848,1,0,0:0:0:0:
192,192,135920,1,0,0:0:0:0:
320,192,135991,1,2,0:0:0:0:
64,192,135991,1,0,0:0:0:0:
448,192,135991,1,0,0:0:0:0:
192,192,136063,1,0,0:0:0:0:
448,192,136134,1,0,0:0:0:0:
64,192,136205,1,0,0:0:0:0:
192,192,136277,1,2,0:0:0:0:
320,192,136277,1,0,0:0:0:0:
448,192,136277,1,8,0:0:0:0:
64,192,136348,1,0,0:0:0:0:
192,192,136420,1,0,0:0:0:0:
320,192,136420,1,0,0:0:0:0:
448,192,136491,1,0,0:0:0:0:
320,192,136563,1,2,0:0:0:0:
192,192,136563,1,0,0:0:0:0:
64,192,136563,1,0,0:0:0:0:
448,192,136634,1,0,0:0:0:0:
64,192,136705,1,0,0:0:0:0:
192,192,136705,1,0,0:0:0:0:
320,192,136777,1,0,0:0:0:0:
192,192,136848,1,2,0:0:0:0:
64,192,136848,1,8,0:0:0:0:
448,192,136848,1,0,0:0:0:0:
320,192,136920,1,0,0:0:0:0:
64,192,136991,1,0,0:0:0:0:
448,192,136991,1,0,0:0:0:0:
192,192,137134,1,4,0:0:0:0:
320,192,137134,1,0,0:0:0:0:
448,192,137134,1,0,0:0:0:0:
64,192,137134,1,2,0:0:0:0:
64,192,137205,1,0,0:0:0:0:
320,192,137277,1,0,0:0:0:0:
192,192,137348,1,0,0:0:0:0:
320,192,137420,1,2,0:0:0:0:
448,192,137420,1,8,0:0:0:0:
192,192,137491,1,0,0:0:0:0:
448,192,137563,1,0,0:0:0:0:
320,192,137563,1,0,0:0:0:0:
64,192,137563,1,0,0:0:0:0:
64,192,137705,1,2,0:0:0:0:
192,192,137705,1,4,0:0:0:0:
320,192,137705,1,0,0:0:0:0:
448,192,137705,1,0,0:0:0:0:
192,192,137777,1,0,0:0:0:0:
448,192,137848,1,0,0:0:0:0:
64,192,137920,1,0,0:0:0:0:
192,192,137991,1,8,0:0:0:0:
320,192,137991,1,2,0:0:0:0:
448,192,138063,1,0,0:0:0:0:
192,192,138134,1,0,0:0:0:0:
64,192,138134,1,0,0:0:0:0:
320,192,138134,1,0,0:0:0:0:
64,192,138277,1,2,0:0:0:0:
192,192,138277,1,4,0:0:0:0:
320,192,138277,1,0,0:0:0:0:
448,192,138277,1,0,0:0:0:0:
320,192,138348,1,0,0:0:0:0:
192,192,138420,1,0,0:0:0:0:
448,192,138491,1,0,0:0:0:0:
320,192,138563,1,8,0:0:0:0:
64,192,138563,1,2,0:0:0:0:
192,192,138634,1,0,0:0:0:0:
64,192,138705,1,0,0:0:0:0:
320,192,138705,1,0,0:0:0:0:
448,192,138705,1,0,0:0:0:0:
448,192,138848,1,0,0:0:0:0:
320,192,138848,1,0,0:0:0:0:
192,192,138848,1,4,0:0:0:0:
64,192,138848,1,2,0:0:0:0:
448,192,138920,1,0,0:0:0:0:
192,192,138991,1,0,0:0:0:0:
320,192,139063,1,0,0:0:0:0:
192,192,139134,1,2,0:0:0:0:
64,192,139134,1,8,0:0:0:0:
448,192,139205,1,0,0:0:0:0:
320,192,139277,1,0,0:0:0:0:
64,192,139277,1,0,0:0:0:0:
64,192,139420,1,2,0:0:0:0:
192,192,139420,1,4,0:0:0:0:
320,192,139420,1,0,0:0:0:0:
448,192,139420,1,0,0:0:0:0:
192,192,139491,1,0,0:0:0:0:
320,192,139563,1,0,0:0:0:0:
448,192,139563,1,0,0:0:0:0:
64,192,139634,1,0,0:0:0:0:
192,192,139705,1,8,0:0:0:0:
320,192,139705,1,2,0:0:0:0:
448,192,139777,1,0,0:0:0:0:
320,192,139848,1,0,0:0:0:0:
64,192,139848,1,0,0:0:0:0:
448,192,139991,1,0,0:0:0:0:
320,192,139991,1,0,0:0:0:0:
192,192,139991,1,4,0:0:0:0:
64,192,139991,1,2,0:0:0:0:
64,192,140063,1,0,0:0:0:0:
192,192,140134,1,0,0:0:0:0:
448,192,140134,1,0,0:0:0:0:
320,192,140205,1,0,0:0:0:0:
448,192,140277,1,8,0:0:0:0:
64,192,140277,1,2,0:0:0:0:
192,192,140277,1,0,0:0:0:0:
320,192,140348,1,0,0:0:0:0:
64,192,140420,1,0,0:0:0:0:
192,192,140420,1,0,0:0:0:0:
448,192,140491,1,0,0:0:0:0:
448,192,140563,1,0,0:0:0:0:
320,192,140563,1,4,0:0:0:0:
192,192,140563,1,2,0:0:0:0:
64,192,140563,128,0,141134:0:0:0:0:
320,192,141134,128,0,141205:0:0:0:0:
448,192,141134,128,0,141205:0:0:0:0:
64,192,141420,128,0,141491:0:0:0:0:
192,192,141420,128,0,141491:0:0:0:0:
64,192,141705,128,0,141777:0:0:0:0:
448,192,141705,128,0,141777:0:0:0:0:
320,192,141705,128,2,141777:0:0:0:0:
192,192,141705,1,4,0:0:0:0:
192,192,141848,1,0,0:0:0:0:
320,192,141991,1,8,0:0:0:0:
64,192,141991,1,0,0:0:0:0:
448,192,141991,1,0,0:0:0:0:
448,192,142063,1,0,0:0:0:0:
192,192,142134,1,0,0:0:0:0:
320,192,142205,1,0,0:0:0:0:
448,192,142277,1,0,0:0:0:0:
192,192,142277,1,2,0:0:0:0:
64,192,142277,1,0,0:0:0:0:
64,192,142348,1,0,0:0:0:0:
320,192,142420,1,0,0:0:0:0:
192,192,142491,1,0,0:0:0:0:
64,192,142563,1,0,0:0:0:0:
320,192,142563,1,8,0:0:0:0:
448,192,142563,1,0,0:0:0:0:
448,192,142634,1,0,0:0:0:0:
192,192,142705,1,0,0:0:0:0:
64,192,142777,1,0,0:0:0:0:
192,192,142848,1,2,0:0:0:0:
320,192,142848,1,0,0:0:0:0:
448,192,142848,1,0,0:0:0:0:
320,192,142920,1,0,0:0:0:0:
64,192,142991,1,0,0:0:0:0:
192,192,143063,1,0,0:0:0:0:
64,192,143134,1,0,0:0:0:0:
320,192,143134,1,0,0:0:0:0:
448,192,143134,1,8,0:0:0:0:
64,192,143205,1,0,0:0:0:0:
192,192,143277,1,0,0:0:0:0:
448,192,143348,1,0,0:0:0:0:
320,192,143420,1,0,0:0:0:0:
192,192,143420,1,0,0:0:0:0:
64,192,143420,1,2,0:0:0:0:
192,192,143491,1,0,0:0:0:0:
448,192,143563,1,0,0:0:0:0:
320,192,143634,1,0,0:0:0:0:
448,192,143705,1,0,0:0:0:0:
64,192,143705,1,0,0:0:0:0:
192,192,143705,1,8,0:0:0:0:
448,192,143777,1,0,0:0:0:0:
320,192,143848,1,0,0:0:0:0:
192,192,143920,1,0,0:0:0:0:
64,192,143991,1,2,0:0:0:0:
320,192,143991,1,0,0:0:0:0:
448,192,143991,1,0,0:0:0:0:
448,192,144134,1,0,0:0:0:0:
192,192,144134,1,0,0:0:0:0:
448,192,144277,1,0,0:0:0:0:
320,192,144277,1,8,0:0:0:0:
64,192,144277,1,0,0:0:0:0:
448,192,144420,1,0,0:0:0:0:
192,192,144420,1,0,0:0:0:0:
448,192,144563,1,0,0:0:0:0:
320,192,144563,1,0,0:0:0:0:
64,192,144563,1,2,0:0:0:0:
448,192,144705,1,0,0:0:0:0:
192,192,144705,1,0,0:0:0:0:
448,192,144848,1,0,0:0:0:0:
320,192,144848,1,8,0:0:0:0:
64,192,144848,1,0,0:0:0:0:
192,192,144920,1,0,0:0:0:0:
448,192,144991,1,0,0:0:0:0:
192,192,145063,1,0,0:0:0:0:
64,192,145134,1,2,0:0:0:0:
320,192,145134,1,0,0:0:0:0:
448,192,145134,1,0,0:0:0:0:
320,192,145277,1,0,0:0:0:0:
192,192,145277,1,0,0:0:0:0:
192,192,145420,1,8,0:0:0:0:
64,192,145420,1,0,0:0:0:0:
448,192,145420,1,0,0:0:0:0:
192,192,145563,1,0,0:0:0:0:
448,192,145563,1,0,0:0:0:0:
64,192,145705,1,2,0:0:0:0:
320,192,145705,1,0,0:0:0:0:
448,192,145705,1,0,0:0:0:0:
192,192,145848,1,0,0:0:0:0:
320,192,145848,1,0,0:0:0:0:
448,192,145991,1,8,0:0:0:0:
64,192,145991,1,0,0:0:0:0:
192,192,145991,1,0,0:0:0:0:
64,192,146134,1,0,0:0:0:0:
320,192,146134,1,0,0:0:0:0:
64,192,146277,1,2,0:0:0:0:
192,192,146277,1,4,0:0:0:0:
320,192,146277,1,0,0:0:0:0:
448,192,146277,1,0,0:0:0:0:
192,192,146420,1,0,0:0:0:0:
64,192,146563,1,0,0:0:0:0:
448,192,146563,1,8,0:0:0:0:
320,192,146563,1,0,0:0:0:0:
192,192,146705,1,0,0:0:0:0:
448,192,146705,1,0,0:0:0:0:
64,192,146848,1,2,0:0:0:0:
320,192,146848,1,0,0:0:0:0:
448,192,146848,1,0,0:0:0:0:
192,192,146920,1,0,0:0:0:0:
320,192,146991,1,0,0:0:0:0:
448,192,147063,1,0,0:0:0:0:
192,192,147134,1,8,0:0:0:0:
64,192,147134,1,0,0:0:0:0:
320,192,147134,1,0,0:0:0:0:
448,192,147205,1,0,0:0:0:0:
192,192,147277,1,0,0:0:0:0:
320,192,147348,1,0,0:0:0:0:
192,192,147420,1,0,0:0:0:0:
64,192,147420,1,2,0:0:0:0:
448,192,147420,1,0,0:0:0:0:
320,192,147491,1,0,0:0:0:0:
64,192,147563,1,0,0:0:0:0:
448,192,147634,1,0,0:0:0:0:
64,192,147705,1,0,0:0:0:0:
192,192,147705,1,8,0:0:0:0:
320,192,147705,1,0,0:0:0:0:
448,192,147777,1,0,0:0:0:0:
320,192,147848,1,0,0:0:0:0:
64,192,147920,1,0,0:0:0:0:
192,192,147991,1,2,0:0:0:0:
320,192,147991,1,0,0:0:0:0:
448,192,147991,1,0,0:0:0:0:
64,192,148063,1,0,0:0:0:0:
448,192,148134,1,0,0:0:0:0:
192,192,148205,1,0,0:0:0:0:
320,192,148277,1,0,0:0:0:0:
64,192,148277,1,8,0:0:0:0:
448,192,148277,1,0,0:0:0:0:
192,192,148348,1,0,0:0:0:0:
320,192,148420,1,0,0:0:0:0:
448,192,148491,1,0,0:0:0:0:
64,192,148563,1,2,0:0:0:0:
192,192,148563,1,0,0:0:0:0:
320,192,148563,1,0,0:0:0:0:
448,192,148634,1,0,0:0:0:0:
192,192,148705,1,0,0:0:0:0:
64,192,148777,1,0,0:0:0:0:
192,192,148848,1,0,0:0:0:0:
320,192,148848,1,0,0:0:0:0:
448,192,148848,1,8,0:0:0:0:
64,192,148920,1,0,0:0:0:0:
320,192,148991,1,0,0:0:0:0:
192,192,149063,1,0,0:0:0:0:
448,192,149134,1,0,0:0:0:0:
64,192,149134,1,2,0:0:0:0:
320,192,149134,1,0,0:0:0:0:
192,192,149205,1,0,0:0:0:0:
448,192,149277,1,0,0:0:0:0:
64,192,149348,1,0,0:0:0:0:
320,192,149420,1,0,0:0:0:0:
448,192,149420,1,0,0:0:0:0:
192,192,149420,1,8,0:0:0:0:
64,192,149491,1,0,0:0:0:0:
320,192,149563,1,0,0:0:0:0:
192,192,149634,1,0,0:0:0:0:
320,192,149705,1,0,0:0:0:0:
448,192,149705,1,0,0:0:0:0:
64,192,149705,1,2,0:0:0:0:
320,192,149848,1,0,0:0:0:0:
192,192,149848,1,0,0:0:0:0:
448,192,149991,1,8,0:0:0:0:
64,192,149991,1,0,0:0:0:0:
192,192,149991,1,0,0:0:0:0:
320,192,150134,1,0,0:0:0:0:
448,192,150134,1,0,0:0:0:0:
448,192,150277,1,0,0:0:0:0:
192,192,150277,1,0,0:0:0:0:
64,192,150277,1,2,0:0:0:0:
320,192,150324,1,0,0:0:0:0:
192,192,150372,1,0,0:0:0:0:
64,192,150420,1,0,0:0:0:0:
448,192,150467,1,0,0:0:0:0:
320,192,150515,1,0,0:0:0:0:
192,192,150563,1,8,0:0:0:0:
64,192,150563,1,0,0:0:0:0:
320,192,150705,1,0,0:0:0:0:
448,192,150705,1,0,0:0:0:0:
320,192,150848,1,0,0:0:0:0:
448,192,150848,1,0,0:0:0:0:
192,192,150848,1,4,0:0:0:0:
64,192,150848,1,2,0:0:0:0:
192,192,150991,1,0,0:0:0:0:
64,192,151134,1,0,0:0:0:0:
320,192,151134,1,0,0:0:0:0:
448,192,151134,1,8,0:0:0:0:
448,192,151205,1,0,0:0:0:0:
192,192,151277,1,0,0:0:0:0:
320,192,151348,1,0,0:0:0:0:
448,192,151420,1,0,0:0:0:0:
192,192,151420,1,0,0:0:0:0:
64,192,151420,1,2,0:0:0:0:
64,192,151491,1,0,0:0:0:0:
192,192,151563,1,0,0:0:0:0:
320,192,151634,1,0,0:0:0:0:
448,192,151705,1,0,0:0:0:0:
192,192,151705,1,8,0:0:0:0:
64,192,151705,1,0,0:0:0:0:
192,192,151777,1,0,0:0:0:0:
320,192,151848,1,0,0:0:0:0:
448,192,151920,1,0,0:0:0:0:
320,192,151991,1,0,0:0:0:0:
192,192,151991,1,0,0:0:0:0:
64,192,151991,1,2,0:0:0:0:
320,192,152063,1,0,0:0:0:0:
448,192,152134,1,0,0:0:0:0:
192,192,152205,1,0,0:0:0:0:
64,192,152277,1,0,0:0:0:0:
320,192,152277,1,8,0:0:0:0:
448,192,152277,1,0,0:0:0:0:
448,192,152348,1,0,0:0:0:0:
192,192,152420,1,0,0:0:0:0:
320,192,152491,1,0,0:0:0:0:
448,192,152563,1,0,0:0:0:0:
192,192,152563,1,0,0:0:0:0:
64,192,152563,1,2,0:0:0:0:
192,192,152634,1,0,0:0:0:0:
448,192,152705,1,0,0:0:0:0:
64,192,152777,1,0,0:0:0:0:
192,192,152848,1,0,0:0:0:0:
320,192,152848,1,0,0:0:0:0:
448,192,152848,1,8,0:0:0:0:
320,192,152920,1,0,0:0:0:0:
192,192,152991,1,0,0:0:0:0:
448,192,153063,1,0,0:0:0:0:
320,192,153134,1,0,0:0:0:0:
192,192,153134,1,0,0:0:0:0:
64,192,153134,1,2,0:0:0:0:
64,192,153277,1,0,0:0:0:0:
448,192,153277,1,0,0:0:0:0:
64,192,153420,1,0,0:0:0:0:
192,192,153420,1,0,0:0:0:0:
320,192,153420,1,8,0:0:0:0:
64,192,153563,1,0,0:0:0:0:
448,192,153563,1,0,0:0:0:0:
64,192,153705,1,2,0:0:0:0:
192,192,153705,1,0,0:0:0:0:
320,192,153705,1,0,0:0:0:0:
64,192,153848,1,0,0:0:0:0:
448,192,153848,1,0,0:0:0:0:
64,192,153991,1,0,0:0:0:0:
192,192,153991,1,0,0:0:0:0:
320,192,153991,1,8,0:0:0:0:
448,192,154063,1,0,0:0:0:0:
64,192,154134,1,0,0:0:0:0:
448,192,154205,1,0,0:0:0:0:
320,192,154277,1,0,0:0:0:0:
192,192,154277,1,0,0:0:0:0:
64,192,154277,1,2,0:0:0:0:
192,192,154420,1,0,0:0:0:0:
448,192,154420,1,0,0:0:0:0:
64,192,154563,1,0,0:0:0:0:
320,192,154563,1,0,0:0:0:0:
448,192,154563,1,8,0:0:0:0:
320,192,154705,1,0,0:0:0:0:
64,192,154705,1,0,0:0:0:0:
64,192,154848,1,0,0:0:0:0:
448,192,154848,1,0,0:0:0:0:
192,192,154848,1,2,0:0:0:0:
192,192,154991,1,0,0:0:0:0:
320,192,154991,1,0,0:0:0:0:
320,192,155134,1,0,0:0:0:0:
448,192,155134,1,8,0:0:0:0:
64,192,155134,1,2,0:0:0:0:
448,192,155277,1,0,0:0:0:0:
320,192,155277,1,0,0:0:0:0:
64,192,155277,1,2,0:0:0:0:
320,192,155420,1,0,0:0:0:0:
64,192,155420,1,2,0:0:0:0:
192,192,155420,1,4,0:0:0:0:
448,192,155420,1,0,0:0:0:0:
320,192,155563,1,0,0:0:0:0:
192,192,155563,1,0,0:0:0:0:
64,192,155563,1,2,0:0:0:0:
64,192,155705,1,2,0:0:0:0:
192,192,155705,1,8,0:0:0:0:
320,192,155705,1,0,0:0:0:0:
64,192,155848,1,2,0:0:0:0:
192,192,155848,1,0,0:0:0:0:
320,192,155848,1,0,0:0:0:0:
320,192,155991,1,0,0:0:0:0:
192,192,155991,1,0,0:0:0:0:
64,192,155991,1,2,0:0:0:0:
320,192,156134,1,0,0:0:0:0:
192,192,156134,1,0,0:0:0:0:
64,192,156134,1,2,0:0:0:0:
320,192,156277,1,0,0:0:0:0:
192,192,156277,1,8,0:0:0:0:
64,192,156277,1,2,0:0:0:0:
448,192,156420,1,0,0:0:0:0:
64,192,156420,1,2,0:0:0:0:
320,192,156420,1,0,0:0:0:0:
192,192,156491,1,2,0:0:0:0:
64,192,156563,1,4,0:0:0:0:
320,192,156563,1,2,0:0:0:0:
448,192,156563,1,0,0:0:0:0:
192,192,156705,1,0,0:0:0:0:
320,192,156705,1,0,0:0:0:0:
448,192,156705,1,2,0:0:0:0:
448,192,156848,1,2,0:0:0:0:
320,192,156848,1,0,0:0:0:0:
192,192,156848,1,8,0:0:0:0:
320,192,156991,1,0,0:0:0:0:
192,192,156991,1,0,0:0:0:0:
448,192,156991,1,2,0:0:0:0:
448,192,157134,1,2,0:0:0:0:
320,192,157134,1,0,0:0:0:0:
192,192,157134,1,0,0:0:0:0:
192,192,157277,1,0,0:0:0:0:
320,192,157277,1,0,0:0:0:0:
448,192,157277,1,2,0:0:0:0:
192,192,157420,1,8,0:0:0:0:
320,192,157420,1,0,0:0:0:0:
448,192,157420,1,2,0:0:0:0:
192,192,157563,1,0,0:0:0:0:
320,192,157563,1,0,0:0:0:0:
448,192,157563,1,2,0:0:0:0:
64,192,157705,1,6,0:0:0:0:
192,192,157741,1,2,0:0:0:0:
448,192,157777,1,2,0:0:0:0:
320,192,157813,1,2,0:0:0:0:
192,192,157848,1,2,0:0:0:0:
64,192,157884,1,2,0:0:0:0:
320,192,157920,1,2,0:0:0:0:
448,192,157955,1,2,0:0:0:0:
192,192,157991,1,0,0:0:0:0:
64,192,157991,1,2,0:0:0:0:
320,192,158063,1,0,0:0:0:0:
448,192,158063,1,2,0:0:0:0:
192,192,158134,1,2,0:0:0:0:
64,192,158134,1,0,0:0:0:0:
320,192,158205,1,2,0:0:0:0:
448,192,158205,1,0,0:0:0:0:
64,192,158277,1,6,0:0:0:0:
192,192,158313,1,2,0:0:0:0:
448,192,158348,1,2,0:0:0:0:
320,192,158384,1,2,0:0:0:0:
192,192,158420,1,2,0:0:0:0:
64,192,158455,1,2,0:0:0:0:
320,192,158491,1,2,0:0:0:0:
448,192,158527,1,2,0:0:0:0:
192,192,158563,1,0,0:0:0:0:
64,192,158563,1,2,0:0:0:0:
320,192,158634,1,2,0:0:0:0:
448,192,158634,1,0,0:0:0:0:
192,192,158705,1,2,0:0:0:0:
64,192,158705,1,0,0:0:0:0:
320,192,158777,1,0,0:0:0:0:
448,192,158777,1,2,0:0:0:0:
64,192,158848,1,6,0:0:0:0:
192,192,158884,1,2,0:0:0:0:
448,192,158920,1,2,0:0:0:0:
320,192,158955,1,2,0:0:0:0:
64,192,158991,1,2,0:0:0:0:
192,192,159027,1,2,0:0:0:0:
448,192,159063,1,2,0:0:0:0:
64,192,159098,1,2,0:0:0:0:
320,192,159134,1,2,0:0:0:0:
192,192,159205,1,2,0:0:0:0:
448,192,159277,1,2,0:0:0:0:
320,192,159313,1,2,0:0:0:0:
64,192,159348,1,2,0:0:0:0:
448,192,159384,1,2,0:0:0:0:
192,192,159420,1,2,0:0:0:0:
320,192,159491,1,2,0:0:0:0:
64,192,159563,1,2,0:0:0:0:
192,192,159598,1,2,0:0:0:0:
448,192,159634,1,2,0:0:0:0:
64,192,159670,1,2,0:0:0:0:
320,192,159705,1,2,0:0:0:0:
448,192,159741,1,2,0:0:0:0:
192,192,159777,1,2,0:0:0:0:
64,192,159813,1,2,0:0:0:0:
448,192,159848,1,2,0:0:0:0:
320,192,159872,1,2,0:0:0:0:
192,192,159896,1,2,0:0:0:0:
64,192,159920,1,2,0:0:0:0:
448,192,159943,1,2,0:0:0:0:
320,192,159967,1,2,0:0:0:0:
448,192,161134,128,4,163420:0:0:0:0:
64,192,161134,128,0,163420:0:0:0:60:G2S.wav
320,192,161134,1,0,0:0:0:0:
192,192,161134,1,2,0:0:0:0:
