osu file format v14

[General]
AudioFilename: audio.mp3
AudioLeadIn: 0
PreviewTime: 41254
Countdown: 0
SampleSet: Soft
StackLeniency: 0.4
Mode: 0
LetterboxInBreaks: 0
WidescreenStoryboard: 1

[Editor]
DistanceSpacing: 0.5
BeatDivisor: 4
GridSize: 32
TimelineZoom: 1.6

[Metadata]
Title:Yalta
TitleUnicode:Ялта
Artist:DZIDZIO
ArtistUnicode:DZIDZIO
Creator:wajinshu
Version:vanucik's Normal
Source:
Tags:Shmiklak YOSHIKAWA HOSHI vanucik5656 Дзідзьо Jalta Ukrainian Українська ХА ХА ХА
BeatmapID:1051233
BeatmapSetID:485903

[Difficulty]
HPDrainRate:3
CircleSize:3
OverallDifficulty:3
ApproachRate:4
SliderMultiplier:1.5
SliderTickRate:1

[Events]
//Background and Video events
0,0,"bg.png",0,0
//Break Periods
//Storyboard Layer 0 (Background)
//Storyboard Layer 1 (Fail)
//Storyboard Layer 2 (Pass)
//Storyboard Layer 3 (Foreground)
Sprite,Foreground,Centre,"SB\Credits\kot.png",220,360 F,0,3754,4691,0,1 MX,1,3754,4691,220,420 F,0,4691,5629,1 F,0,5629,56254,1
//Storyboard Sound Samples

[TimingPoints]
4,468.75,4,2,1,80,1,0
11254,-100,4,2,1,80,0,0
41254,-100,4,2,1,80,0,1
56254,-100,4,2,1,80,0,0
56722,-100,4,2,1,10,0,0

[Colours]
Combo1 : 188,65,18
Combo2 : 0,64,128
Combo3 : 211,194,37
Combo4 : 128,0,64

[HitObjects]
471,71,11254,6,0,L|313:81,1,150,4|8,0:0|0:0,0:0:0:0:
253,138,11958,1,0,0:0:0:0:
182,193,12191,2,0,L|30:201,1,150,2|8,0:0|0:0,0:0:0:0:
135,348,13129,6,0,P|186:361|280:305,1,150,0|8,0:0|0:0,0:0:0:0:
342,266,13832,1,0,0:0:0:0:
422,306,14066,2,0,P|459:309|495:298,1,75,2|0,0:0|0:0,0:0:0:0:
413,144,14769,1,0,0:0:0:0:
332,103,15004,6,0,B|257:90|257:90|180:129,1,150,2|8,0:0|0:0,0:0:0:0:
112,168,15707,1,0,0:0:0:0:
55,237,15941,2,0,P|44:274|51:315,1,75,2|0,0:0|0:0,0:0:0:0:
130,349,16410,2,0,P|188:340|221:335,1,75,8|0,0:0|0:0,0:0:0:0:
283,293,16879,6,0,P|353:270|431:299,2,150,2|8|2,0:0|0:0|0:0,0:0:0:0:
107,331,18285,2,0,L|120:238,1,75,8|0,0:0|0:0,0:0:0:0:
82,173,18754,6,0,P|66:137|66:95,2,75,2|0|8,0:0|0:0|0:0,0:0:0:0:
152,117,19457,1,0,0:0:0:0:
239,136,19691,2,0,L|414:118,1,150,2|8,0:0|0:0,0:0:0:0:
323,289,20629,6,0,P|254:300|173:251,1,150,2|8,0:0|0:0,0:0:0:0:
146,183,21332,1,0,0:0:0:0:
175,98,21566,2,0,L|265:95,1,75,2|0,0:0|0:0,0:0:0:0:
430,97,22269,1,0,0:0:0:0:
483,169,22504,6,0,L|469:329,1,150,2|8,0:0|0:0,0:0:0:0:
385,349,23207,1,0,0:0:0:0:
301,316,23441,2,0,P|250:313|206:318,1,75,2|0,0:0|0:0,0:0:0:0:
52,267,24144,1,0,0:0:0:0:
98,189,24379,6,0,P|150:160|241:172,1,150,2|8,0:0|0:0,0:0:0:0:
303,231,25082,1,0,0:0:0:0:
373,175,25316,2,0,B|447:159|447:159|521:199,1,150,2|8,0:0|0:0,0:0:0:0:
392,329,26254,6,0,P|313:364|249:338,1,150,2|8,0:0|0:0,0:0:0:0:
187,286,26957,1,0,0:0:0:0:
104,321,27191,2,0,P|56:330|22:324,1,75,2|0,0:0|0:0,0:0:0:0:
15,147,27894,1,0,0:0:0:0:
94,104,28129,6,0,P|138:96|234:142,1,150,2|8,0:0|0:0,0:0:0:0:
280,213,28832,1,0,0:0:0:0:
365,184,29066,2,0,L|443:174,1,75,2|0,0:0|0:0,0:0:0:0:
333,320,29769,1,0,0:0:0:0:
249,353,30004,6,0,P|194:353|111:284,1,150,2|8,0:0|0:0,0:0:0:0:
69,224,30707,1,0,0:0:0:0:
77,134,30941,2,0,P|76:91|66:58,1,75,2|0,0:0|0:0,0:0:0:0:
245,33,31644,1,0,0:0:0:0:
305,100,31879,6,0,L|310:258,1,150,2|8,0:0|0:0,0:0:0:0:
259,324,32582,1,0,0:0:0:0:
169,330,32816,1,2,0:0:0:0:
54,190,33285,2,0,P|43:162|47:109,1,75,8|0,0:0|0:0,0:0:0:0:
106,51,33754,6,0,L|259:38,1,150,2|8,0:0|0:0,0:0:0:0:
315,105,34457,1,0,0:0:0:0:
381,165,34691,2,0,P|421:165|468:180,1,75,2|0,0:0|0:0,0:0:0:0:
349,320,35394,1,0,0:0:0:0:
262,345,35629,6,0,P|227:281|244:196,1,150,2|8,0:0|0:0,0:0:0:0:
311,156,36332,1,0,0:0:0:0:
374,91,36566,2,0,P|391:61|394:20,1,75,2|0,0:0|0:0,0:0:0:0:
214,36,37269,1,0,0:0:0:0:
141,91,37504,6,0,L|126:249,1,150,2|8,0:0|0:0,0:0:0:0:
284,326,38441,2,0,L|299:168,1,150,2|8,0:0|0:0,0:0:0:0:
369,122,39144,1,0,0:0:0:0:
444,171,39379,5,2,0:0:0:0:
376,337,39847,1,8,0:0:0:0:
196,347,40316,1,0,3:0:0:0:
87,203,40785,2,0,P|135:190|161:193,1,75,8|8,0:0|0:0,0:0:0:0:
236,239,41254,6,0,L|399:228,1,150,4|8,0:0|0:0,0:0:0:0:
455,62,42191,2,0,P|416:58|369:75,2,75,2|0|8,0:0|0:0|0:0,0:0:0:0:
297,149,43129,6,0,L|137:125,1,150,2|8,0:0|0:0,0:0:0:0:
68,168,43832,1,0,0:0:0:0:
119,241,44066,2,0,L|203:262,1,75,2|0,0:0|0:0,0:0:0:0:
278,233,44535,1,8,0:0:0:0:
456,211,45004,6,0,L|460:302,2,75,2|0|8,0:0|0:0|0:0,0:0:0:0:
379,163,45707,1,0,0:0:0:0:
301,117,45941,2,0,L|306:33,2,75,2|0|8,0:0|3:0|0:0,0:0:0:0:
225,281,46879,6,0,P|161:311|83:270,1,150,2|8,0:0|0:0,0:0:0:0:
34,212,47582,1,0,0:0:0:0:
56,124,47816,2,0,L|74:16,2,75,2|0|8,0:0|0:0|0:0,0:0:0:0:
231,164,48754,6,0,P|311:162|392:157,1,150,2|8,0:0|0:0,0:0:0:0:
248,36,49691,2,0,P|208:39|170:60,1,75,2|0,0:0|0:0,0:0:0:0:
126,128,50160,1,8,0:0:0:0:
176,300,50629,6,0,P|218:315|316:275,1,150,2|8,0:0|0:0,0:0:0:0:
373,212,51332,1,0,0:0:0:0:
459,186,51566,2,0,P|463:233|390:305,1,150,2|8,0:0|0:0,0:0:0:0:
235,221,52504,6,0,L|229:66,1,150,2|8,0:0|0:0,0:0:0:0:
149,28,53207,1,0,0:0:0:0:
70,73,53441,2,0,L|64:228,1,150,2|8,0:0|0:0,0:0:0:0:
214,323,54379,6,0,P|248:324|294:307,1,75,2|0,0:0|0:0,0:0:0:0:
331,233,54847,2,0,P|373:210|398:182,1,75,8|0,0:0|0:0,0:0:0:0:
388,101,55316,2,0,P|353:60|250:42,1,150,2|8,0:0|0:0,0:0:0:0:
174,61,56019,1,0,0:0:0:0:
138,143,56254,6,0,L|141:296,1,150,2|0,0:0|0:0,0:0:0:0:
