osu file format v14

[General]
AudioFilename: audio.mp3
AudioLeadIn: 0
PreviewTime: 41254
Countdown: 0
SampleSet: Soft
StackLeniency: 0.4
Mode: 0
LetterboxInBreaks: 0
WidescreenStoryboard: 1

[Editor]
DistanceSpacing: 1.3
BeatDivisor: 4
GridSize: 32
TimelineZoom: 2.1

[Metadata]
Title:Yalta
TitleUnicode:Ялта
Artist:DZIDZIO
ArtistUnicode:DZIDZIO
Creator:wajinshu
Version:Hard
Source:
Tags:Shmiklak YOSHIKAWA HOSHI vanucik5656 Дзідзьо Jalta Ukrainian Українська ХА ХА ХА
BeatmapID:1036133
BeatmapSetID:485903

[Difficulty]
HPDrainRate:5
CircleSize:4
OverallDifficulty:6
ApproachRate:7.6
SliderMultiplier:1.8
SliderTickRate:1

[Events]
//Background and Video events
0,0,"bg.png",0,0
//Break Periods
//Storyboard Layer 0 (Background)
//Storyboard Layer 1 (Fail)
//Storyboard Layer 2 (Pass)
//Storyboard Layer 3 (Foreground)
Sprite,Foreground,Centre,"SB\Credits\waji.png",220,360 F,0,3754,4691,0,1 MX,1,3754,4691,220,420 F,0,4691,5629,1 F,0,5629,56254,1
//Storyboard Sound Samples

[TimingPoints]
4,468.75,4,2,1,80,1,0
11254,-111.111111111111,4,2,1,80,0,0
41254,-100,4,2,1,80,0,1
56254,-100,4,2,1,80,0,0
56722,-100,4,2,1,10,0,0

[Colours]
Combo1 : 188,65,18
Combo2 : 0,64,128
Combo3 : 211,194,37
Combo4 : 128,0,64

[HitObjects]
465,86,11254,6,0,P|377:78|319:145,1,161.999995056153,4|8,0:0|0:0,0:0:0:0:
416,171,11957,1,0,0:0:0:0:
416,171,12191,2,0,P|420:219|438:258,1,80.9999975280763,2|0,0:0|0:0,0:0:0:0:
363,329,12660,2,0,P|354:284|336:250,1,80.9999975280763,8|0,0:0|0:0,0:0:0:0:
239,182,13129,6,0,P|170:215|92:185,1,161.999995056153,0|8,0:0|0:0,0:0:0:0:
164,111,13832,1,0,0:0:0:0:
267,89,14066,2,0,P|307:109|329:152,1,80.9999975280763,2|0,0:0|0:0,0:0:0:0:
365,236,14535,1,8,0:0:0:0:
456,183,14769,1,0,0:0:0:0:
444,304,15004,6,0,L|359:321,1,80.9999975280763,2|0,0:0|0:0,0:0:0:0:
285,226,15472,2,0,L|374:238,1,80.9999975280763,8|0,0:0|0:0,0:0:0:0:
275,318,15941,2,0,L|194:307,1,80.9999975280763,2|0,0:0|0:0,0:0:0:0:
96,234,16410,1,8,0:0:0:0:
120,336,16644,1,0,0:0:0:0:
193,208,16879,5,2,0:0:0:0:
299,245,17113,1,0,0:0:0:0:
299,245,17230,1,0,0:0:0:0:
299,245,17347,2,0,P|301:173|298:149,1,80.9999975280763,8|0,0:0|0:0,0:0:0:0:
379,90,17816,2,0,P|375:130|377:170,1,80.9999975280763,2|0,0:0|0:0,0:0:0:0:
398,274,18285,1,8,0:0:0:0:
492,227,18519,1,0,0:0:0:0:
496,105,18754,6,0,P|501:63|490:24,1,80.9999975280763,2|0,0:0|0:0,0:0:0:0:
387,15,19222,1,8,0:0:0:0:
284,39,19457,1,0,0:0:0:0:
209,114,19691,2,0,P|202:234|209:281,1,161.999995056153,2|8,0:0|0:0,0:0:0:0:
296,331,20394,1,0,0:0:0:0:
176,358,20629,6,0,P|111:333|88:331,1,80.9999975280763,2|0,0:0|0:0,0:0:0:0:
208,275,21097,2,0,P|244:257|283:248,1,80.9999975280763,8|0,0:0|0:0,0:0:0:0:
384,215,21566,2,0,P|385:146|317:81,1,161.999995056153,2|8,0:0|0:0,0:0:0:0:
288,179,22269,1,0,0:0:0:0:
333,291,22504,6,0,P|377:304|439:293,1,80.9999975280763,2|0,0:0|0:0,0:0:0:0:
504,251,22972,1,8,0:0:0:0:
470,154,23207,1,0,0:0:0:0:
384,92,23441,2,0,P|342:84|281:108,1,80.9999975280763,2|0,0:0|0:0,0:0:0:0:
344,192,23910,1,8,0:0:0:0:
278,274,24144,1,0,0:0:0:0:
208,174,24379,5,2,0:0:0:0:
112,130,24613,1,0,0:0:0:0:
112,130,24729,1,0,0:0:0:0:
112,130,24847,2,0,P|54:121|19:122,1,80.9999975280763,8|0,0:0|0:0,0:0:0:0:
141,43,25316,2,0,P|180:35|221:34,1,80.9999975280763,2|0,0:0|0:0,0:0:0:0:
283,118,25785,1,8,0:0:0:0:
283,118,25902,1,2,0:3:0:0:
283,118,26019,1,0,0:0:0:0:
234,231,26254,6,0,B|329:206|308:257|415:226,1,161.999995056153,2|8,0:0|0:0,0:0:0:0:
476,166,26957,1,0,0:0:0:0:
392,98,27191,2,0,P|339:85|294:86,1,80.9999975280763,2|0,0:0|0:0,0:0:0:0:
235,156,27660,2,0,P|194:153|155:142,1,80.9999975280763,8|0,0:0|0:0,0:0:0:0:
103,30,28129,6,0,P|143:32|182:43,1,80.9999975280763,2|0,0:0|0:0,0:0:0:0:
155,142,28597,2,0,P|148:207|150:249,1,80.9999975280763,8|0,0:0|0:0,0:0:0:0:
195,316,29066,2,0,P|318:313|362:315,1,161.999995056153,2|8,0:0|0:0,0:0:0:0:
455,351,29769,1,0,0:0:0:0:
388,248,30004,6,0,P|369:188|367:149,1,80.9999975280763,2|0,0:0|0:0,0:0:0:0:
245,170,30472,2,0,P|238:209|224:247,1,80.9999975280763,8|0,0:0|0:0,0:0:0:0:
307,336,30941,2,0,L|307:248,1,80.9999975280763,2|0,0:0|0:0,0:0:0:0:
367,170,31410,1,8,0:0:0:0:
451,232,31644,1,0,0:0:0:0:
425,112,31879,5,2,0:0:0:0:
328,104,32113,1,0,0:0:0:0:
328,104,32230,1,0,0:0:0:0:
328,104,32347,2,0,P|255:98|222:94,1,80.9999975280763,8|0,0:0|0:0,0:0:0:0:
152,147,32816,2,0,P|143:220|138:236,1,80.9999975280763,2|0,0:0|0:0,0:0:0:0:
81,314,33285,1,8,0:0:0:0:
179,350,33519,1,0,0:0:0:0:
285,290,33754,6,0,P|321:294|383:320,1,80.9999975280763,2|0,0:0|0:0,0:0:0:0:
447,246,34222,2,0,P|406:240|368:227,1,80.9999975280763,8|0,0:0|0:0,0:0:0:0:
427,139,34691,2,0,P|311:157|266:162,1,161.999995056153,2|8,0:0|0:0,0:0:0:0:
164,136,35394,1,0,0:0:0:0:
47,101,35629,6,0,P|43:157|51:183,1,80.9999975280763,2|0,0:0|0:0,0:0:0:0:
204,48,36097,2,0,P|148:42|121:49,1,80.9999975280763,8|0,0:0|0:0,0:0:0:0:
239,174,36566,2,0,P|278:181|318:174,1,80.9999975280763,2|0,0:0|0:0,0:0:0:0:
396,103,37035,1,8,0:0:0:0:
480,167,37269,1,0,0:0:0:0:
392,252,37504,6,0,L|405:335,1,80.9999975280763,2|0,0:0|0:0,0:0:0:0:
291,286,37972,2,0,L|278:205,1,80.9999975280763,8|0,0:0|0:0,0:0:0:0:
186,154,38441,1,2,0:0:0:0:
242,65,38675,1,0,0:0:0:0:
186,154,38910,2,0,P|191:193|183:233,1,80.9999975280763,8|0,0:0|0:0,0:0:0:0:
76,174,39379,6,0,P|67:134|73:94,1,80.9999975280763,2|0,0:0|0:0,0:0:0:0:
146,18,39847,1,8,0:0:0:0:
231,79,40082,1,0,0:0:0:0:
300,158,40316,2,0,L|293:205,3,40.4999987640381,0|0|2|0,3:0|0:3|3:0|3:0,0:0:0:0:
328,238,40785,1,8,0:0:0:0:
397,337,41019,1,8,0:0:0:0:
483,258,41254,6,0,P|483:200|472:146,1,90,4|0,0:0|0:0,0:0:0:0:
379,120,41722,2,0,L|269:116,1,90,8|0,0:0|0:0,0:0:0:0:
181,118,42191,1,2,0:0:0:0:
235,24,42425,1,0,0:0:0:0:
289,116,42660,1,8,0:0:0:0:
233,208,42894,1,0,0:0:0:0:
327,261,43129,6,0,P|350:216|358:159,1,90,2|0,0:0|0:0,0:0:0:0:
361,70,43597,2,0,L|463:48,2,90,8|0|2,0:0|0:0|0:0,0:0:0:0:
284,145,44300,1,0,0:0:0:0:
200,214,44535,2,0,L|110:224,1,90,8|0,0:0|0:0,0:0:0:0:
34,134,45004,6,0,P|121:134|187:60,1,180,2|8,0:0|0:0,0:0:0:0:
274,14,45706,1,0,0:0:0:0:
352,88,45941,1,2,0:0:0:0:
275,163,46175,1,0,3:0:0:0:
275,163,46293,1,0,0:0:0:0:
275,163,46410,1,8,0:0:0:0:
355,234,46644,1,0,0:0:0:0:
240,256,46879,6,0,P|171:264|131:256,1,90,2|0,0:0|0:0,0:0:0:0:
71,187,47347,2,0,P|47:228|43:280,1,90,8|0,0:0|0:0,0:0:0:0:
101,360,47816,1,2,0:0:0:0:
151,261,48050,1,0,0:0:0:0:
212,172,48285,2,0,P|236:132|280:116,1,90,8|0,0:0|0:0,0:0:0:0:
302,229,48754,6,0,P|247:279|141:251,1,180,2|8,0:0|0:0,0:0:0:0:
81,176,49457,1,0,0:0:0:0:
144,88,49691,1,2,0:0:0:0:
212,172,49925,1,0,0:0:0:0:
150,260,50160,1,8,0:0:0:0:
81,176,50394,1,0,0:0:0:0:
144,88,50629,6,0,P|186:78|253:92,1,90,2|0,0:0|0:0,0:0:0:0:
279,180,51097,2,0,P|235:190|190:184,2,90,8|0|2,0:0|0:0|0:0,0:0:0:0:
375,129,51800,1,0,0:0:0:0:
391,236,52035,2,0,L|392:338,1,90,8|0,0:0|0:0,0:0:0:0:
480,260,52504,6,0,B|448:164|512:164|480:68,1,180,2|8,0:0|0:0,0:0:0:0:
381,118,53207,1,0,0:0:0:0:
300,46,53441,1,2,0:0:0:0:
232,130,53676,1,0,3:0:0:0:
232,130,53793,1,0,0:0:0:0:
232,130,53910,1,8,0:0:0:0:
208,235,54144,1,0,0:0:0:0:
127,162,54379,6,0,P|122:111|159:58,1,90,2|0,0:0|0:0,0:0:0:0:
232,130,54847,2,0,P|292:130|339:126,1,90,8|0,0:0|0:0,0:0:0:0:
427,102,55316,1,2,0:0:0:0:
398,206,55550,1,0,0:0:0:0:
324,285,55785,2,0,P|279:287|234:287,1,90,8|0,0:0|0:0,0:0:0:0:
137,237,56254,6,0,B|158:140|105:173|137:45,1,180,2|0,0:0|0:0,0:0:0:0:
