osu file format v14

[General]
AudioFilename: audio.mp3
AudioLeadIn: 0
PreviewTime: 41254
Countdown: 0
SampleSet: Soft
StackLeniency: 0.4
Mode: 0
LetterboxInBreaks: 0
WidescreenStoryboard: 1

[Editor]
Bookmarks: 11254,33754
DistanceSpacing: 1.1
BeatDivisor: 4
GridSize: 4
TimelineZoom: 1.6

[Metadata]
Title:Yalta
TitleUnicode:Ялта
Artist:DZIDZIO
ArtistUnicode:DZIDZIO
Creator:wajinshu
Version:Collab Easy
Source:
Tags:Shmiklak YOSHIKAWA HOSHI vanucik5656 Дзідзьо Jalta Ukrainian Українська ХА ХА ХА
BeatmapID:1071273
BeatmapSetID:485903

[Difficulty]
HPDrainRate:2
CircleSize:2
OverallDifficulty:2
ApproachRate:2.5
SliderMultiplier:1.2
SliderTickRate:1

[Events]
//Background and Video events
0,0,"bg.png",0,0
//Break Periods
//Storyboard Layer 0 (Background)
//Storyboard Layer 1 (Fail)
//Storyboard Layer 2 (Pass)
//Storyboard Layer 3 (Foreground)
Sprite,Foreground,Centre,"SB\Credits\waji.png",220,360 S,0,3754,,0.7192258 F,0,3754,4691,0,1 MX,1,3754,4691,220,420 F,0,4691,5629,1 F,0,5629,33636,1 F,0,33636,33754,1,0 F,0,33754,,0
Sprite,Foreground,Centre,"SB\Credits\shmi.png",320,240 F,0,33754,,1 S,0,33754,,0.8018066 M,0,33754,56254,443.871,363.0451
//Storyboard Sound Samples

[TimingPoints]
4,468.75,4,2,1,80,1,0
11254,-100,4,2,1,80,0,0
41254,-100,4,2,1,80,0,1
56254,-100,4,2,1,80,0,0
56722,-100,4,2,1,10,0,0

[Colours]
Combo1 : 188,65,18
Combo2 : 0,64,128
Combo3 : 211,194,37
Combo4 : 128,0,64

[HitObjects]
248,268,11254,6,0,P|204:280|132:264,2,120,4|8|2,0:0|0:0|0:0,0:0:0:0:
324,160,12660,1,8,0:0:0:0:
192,164,13129,1,0,0:0:0:0:
88,80,13597,2,0,P|131:46|200:32,2,120,8|2|8,0:0|0:0|0:0,0:0:0:0:
78,212,15004,6,0,B|88:263|88:263|73:337,1,120,2|8,0:0|0:0,0:0:0:0:
184,256,15941,2,0,B|174:205|174:205|187:138,1,120,2|8,0:0|0:0,0:0:0:0:
269,34,16879,2,0,P|302:70|319:152,2,120,2|8|2,0:0|0:0|0:0,0:0:0:0:
186,138,18285,1,8,0:0:0:0:
251,252,18754,6,0,P|303:273|375:260,1,120,2|8,0:0|0:0,0:0:0:0:
483,206,19691,2,0,L|481:335,1,120,2|8,0:0|0:0,0:0:0:0:
365,264,20629,1,2,0:0:0:0:
383,133,21097,2,0,P|437:86|486:82,2,120,8|2|8,0:0|0:0|0:0,0:0:0:0:
287,224,22504,6,0,L|163:226,2,120,2|8|2,0:0|0:0|0:0,0:0:0:0:
383,133,23910,1,8,0:0:0:0:
255,98,24379,2,0,P|186:84|118:106,1,120,2|8,0:0|0:0,0:0:0:0:
43,186,25316,1,2,0:0:0:0:
141,274,25785,1,8,0:0:0:0:
266,315,26254,6,0,P|346:324|409:313,2,120,2|8|2,0:0|0:0|0:0,0:0:0:0:
233,186,27660,1,8,0:0:0:0:
135,96,28129,1,2,0:0:0:0:
48,196,28597,2,0,P|43:273|32:328,2,120,8|2|8,0:0|0:0|0:0,0:0:0:0:
131,93,30004,6,0,P|194:82|263:97,1,120,2|8,0:0|0:0,0:0:0:0:
306,210,30941,2,0,P|247:219|188:208,1,120,2|8,0:0|0:0,0:0:0:0:
58,181,31879,2,0,P|48:239|59:298,1,120,2|8,0:0|0:0,0:0:0:0:
179,355,32816,1,2,0:0:0:0:
294,290,33285,1,8,0:0:0:0:
220,180,33754,6,0,P|148:184|84:168,1,120,2|8,0:0|0:0,0:0:0:0:
32,288,34691,2,0,P|90:277|150:282,1,120,2|8,0:0|0:0,0:0:0:0:
264,352,35629,1,2,0:0:0:0:
352,256,36097,2,0,B|385:205|385:205|392:144,2,120,8|2|8,0:0|0:0|0:0,0:0:0:0:
229,306,37504,6,0,L|85:298,1,120,2|8,0:0|0:0,0:0:0:0:
44,184,38441,2,0,L|163:177,1,120,2|8,0:0|0:0,0:0:0:0:
228,60,39379,2,0,P|240:168|356:140,1,240,2|0,0:0|3:0,0:0:0:0:
404,36,40785,1,8,0:0:0:0:
468,152,41254,6,0,P|476:216|448:272,1,120,4|8,0:0|0:0,0:0:0:0:
340,328,42191,1,2,0:0:0:0:
256,228,42660,1,8,0:0:0:0:
168,324,43129,2,0,B|88:320|88:320|40:296,1,120,2|8,0:0|0:0,0:0:0:0:
4,180,44066,2,0,B|84:184|84:184|132:208,1,120,2|8,0:0|0:0,0:0:0:0:
168,324,45004,5,2,0:0:0:0:
296,356,45472,2,0,B|359:366|359:366|432:356,2,120,8|2|8,0:0|0:0|0:0,0:0:0:0:
168,324,46879,2,0,P|288:256|140:224,1,360,2|8,0:0|0:0,0:0:0:0:
64,108,48754,6,0,P|120:64|190:59,1,120,2|8,0:0|0:0,0:0:0:0:
288,106,49691,1,2,0:0:0:0:
408,52,50160,1,8,0:0:0:0:
408,184,50629,2,0,L|460:312,1,120,2|8,0:0|0:0,0:0:0:0:
320,288,51566,2,0,L|274:176,1,120,2|8,0:0|0:0,0:0:0:0:
220,56,52504,5,2,0:0:0:0:
128,148,52972,2,0,B|89:202|89:202|76:272,2,120,8|2|8,0:0|0:0|0:0,0:0:0:0:
220,56,54379,2,0,P|200:136|380:92,1,360,2|8,0:0|0:0,0:0:0:0:
478,21,56254,6,0,L|480:164,1,120,2|0,0:0|0:0,0:0:0:0:
