osu file format v14

[General]
AudioFilename: audio.mp3
AudioLeadIn: 0
PreviewTime: 110979
Countdown: 0
SampleSet: Drum
StackLeniency: 0.4
Mode: 0
LetterboxInBreaks: 0
WidescreenStoryboard: 1

[Editor]
Bookmarks: 14979,26979,35979,59979,83979,110979,139479
DistanceSpacing: 0.6
BeatDivisor: 5
GridSize: 8
TimelineZoom: 2.9

[Metadata]
Title:Shirayama Hime no Kami
TitleUnicode:白山比咩神
Artist:DWMw
ArtistUnicode:DWMω
Creator:Luscent
Version:Yokes' Another
Source:
Tags:BMS of fighters 2013 Bof2013 abe3 abe yuta Hakusan 古伝新韻二十打ち Koden Shin'in Nijuu Uchi Shinin Ancient Remains Arranged 20 Beats Electronic Video Game Instrumental 404 AimNotFound Down YokesPai DeviousPanda
BeatmapID:2888635
BeatmapSetID:1367344

[Difficulty]
HPDrainRate:5
CircleSize:4.2
OverallDifficulty:8.2
ApproachRate:9
SliderMultiplier:1.8
SliderTickRate:1

[Events]
//Background and Video events
0,0,"srym.jpg",0,0
//Break Periods
//Storyboard Layer 0 (Background)
//Storyboard Layer 1 (Fail)
//Storyboard Layer 2 (Pass)
//Storyboard Layer 3 (Foreground)
//Storyboard Layer 4 (Overlay)
//Storyboard Sound Samples

[TimingPoints]
1479,375,4,2,1,30,1,0
1479,-166.666666666667,4,2,1,30,0,0
13854,-125,4,2,1,30,0,0
14229,-100,4,2,1,30,0,0
14979,-100,4,2,1,50,0,0
26979,-100,4,3,1,65,0,0
31479,-100,4,3,1,70,0,0
32979,-83.3333333333333,4,3,1,85,0,0
35979,-100,4,3,1,65,0,0
37104,-83.3333333333333,4,3,1,65,0,0
37479,-100,4,3,1,65,0,0
38604,-83.3333333333333,4,3,1,65,0,0
38979,-100,4,3,1,65,0,0
40104,-83.3333333333333,4,3,1,65,0,0
40479,-100,4,3,1,65,0,0
40854,-83.3333333333333,4,3,1,65,0,0
41979,-100,4,3,1,65,0,0
43104,-83.3333333333333,4,3,1,65,0,0
43479,-100,4,3,1,65,0,0
44604,-83.3333333333333,4,3,1,65,0,0
47979,-100,4,3,1,65,0,0
49104,-83.3333333333333,4,3,1,65,0,0
49479,-100,4,3,1,65,0,0
50604,-83.3333333333333,4,3,1,65,0,0
50979,-100,4,3,1,65,0,0
52104,-83.3333333333333,4,3,1,65,0,0
52479,-100,4,3,1,65,0,0
52854,-83.3333333333333,4,3,1,65,0,0
53604,-83.3333333333333,4,3,1,65,0,0
53979,-100,4,3,1,65,0,0
55104,-83.3333333333333,4,3,1,65,0,0
55479,-100,4,3,1,65,0,0
56604,-83.3333333333333,4,3,1,65,0,0
56979,-100,4,3,1,65,0,0
58479,-100,4,3,1,65,0,0
59979,-100,4,3,1,65,0,0
62604,-83.3333333333333,4,3,1,65,0,0
62979,-100,4,3,1,65,0,0
68604,-83.3333333333333,4,3,1,65,0,0
68979,-100,4,3,1,65,0,0
79479,-100,4,3,1,65,0,0
80829,-100,4,3,1,70,0,0
80979,-83.3333333333333,4,3,1,70,0,0
83979,-100,4,3,1,75,0,0
90729,-83.3333333333333,4,3,1,75,0,0
91479,-100,4,3,1,75,0,0
92229,-83.3333333333333,4,3,1,75,0,0
92979,-100,4,3,1,75,0,0
93729,-83.3333333333333,4,3,1,75,0,0
94479,-83.3333333333333,4,3,1,85,0,0
95979,-100,4,3,1,75,0,0
102729,-83.3333333333333,4,3,1,75,0,0
103479,-100,4,3,1,75,0,0
104979,-100,4,3,1,70,0,0
109479,-83.3333333333333,4,3,1,70,0,0
109854,-83.3333333333333,4,3,1,80,0,0
110229,-83.3333333333333,4,3,1,90,0,0
110604,-83.3333333333333,4,3,1,100,0,0
110979,-100,4,3,1,85,0,0
121479,-100,4,3,1,70,0,0
121854,-100,4,3,1,80,0,0
122229,-100,4,3,1,90,0,0
122604,-100,4,3,1,100,0,0
122979,-100,4,3,1,85,0,0
127479,-100,4,3,1,85,0,0
128979,-100,4,3,1,85,0,0
131979,-100,4,3,1,90,0,0
136479,-83.3333333333333,4,3,1,70,0,0
136854,-83.3333333333333,4,3,1,80,0,0
137229,-83.3333333333333,4,3,1,90,0,0
137604,-83.3333333333333,4,3,1,100,0,0
137979,-83.3333333333333,4,3,1,80,0,0
138354,-83.3333333333333,4,3,1,90,0,0
138729,-83.3333333333333,4,3,1,100,0,0
139554,-100,4,3,1,90,0,0
140229,-100,4,3,1,80,0,0
140979,-100,4,3,1,70,0,0
141729,-100,4,3,1,60,0,0
142479,-100,4,3,1,50,0,0
143229,-100,4,3,1,40,0,0
143979,-100,4,3,1,30,0,0
144729,-100,4,3,1,20,0,0
145479,-100,4,2,2,55,0,0

[Colours]
Combo1 : 249,254,186
Combo2 : 248,211,171
Combo3 : 171,252,203
Combo4 : 242,56,36
Combo5 : 249,98,60
Combo6 : 255,255,255
Combo7 : 208,198,176
Combo8 : 175,221,254

[HitObjects]
3,104,2979,86,0,P|54:111|124:113,1,107.999996704102,0|0,3:0|0:0,0:0:0:0:
118,117,3729,1,2,0:0:0:0:
0,95,4104,1,0,0:0:0:0:
193,9,4479,102,0,P|142:16|72:18,1,107.999996704102,0|2,3:0|0:0,0:0:0:0:
78,22,5229,1,0,0:0:0:0:
196,0,5604,1,0,0:0:0:0:
232,198,5979,6,0,P|238:146|254:78,2,107.999996704102,0|0|2,3:0|0:0|0:0,0:0:0:0:
239,203,7104,1,0,0:0:0:0:
359,106,7479,102,0,P|352:54|336:-13,1,107.999996704102,0|0,3:0|0:0,0:0:0:0:
430,14,8079,1,2,0:0:0:0:
430,14,8229,2,0,P|442:59|454:92,1,64.799998022461,2|2,0:0|3:2,0:0:0:0:
512,136,8604,2,0,P|492:178|480:211,1,64.799998022461,2|2,0:0|0:0,0:0:0:0:
497,278,8979,6,0,L|504:341,2,53.9999983520508,2|0|0,3:2|0:0|0:0,0:0:0:0:
417,329,9579,1,0,0:0:0:0:
417,329,9729,2,0,P|352:329|302:331,1,107.999996704102,2|0,0:0|0:0,0:0:0:0:
231,364,10329,1,0,0:0:0:0:
231,364,10479,102,0,P|166:364|116:362,1,107.999996704102,0|2,3:0|0:0,0:0:0:0:
38,376,11079,1,0,0:0:0:0:
38,376,11229,1,0,0:0:0:0:
111,276,11454,1,0,0:0:0:0:
111,276,11604,1,2,0:0:0:0:
105,280,11979,6,0,P|16:253|11:182,1,172.799994726563,0|0,3:0|0:0,0:0:0:0:
79,133,12729,1,2,0:0:0:0:
87,138,13104,1,0,0:0:0:0:
82,147,13479,102,0,P|135:130|144:109,1,64.799998022461,0|0,3:0|0:0,0:0:0:0:
82,66,13854,2,0,P|97:110|147:130,1,86.4,0|0,3:0|0:0,0:0:0:0:
161,24,14229,2,0,P|135:57|144:130,1,108,0|0,3:0|3:0,0:0:0:0:
207,85,14604,1,0,1:0:0:0:
512,0,14979,54,0,P|461:9|382:16,1,108,4|0,3:2|0:0,0:0:0:0:
468,93,15354,1,0,1:0:0:0:
324,46,15729,102,0,P|317:87|367:150,1,108,0|0,3:0|0:0,0:0:0:0:
258,164,16104,1,0,1:0:0:0:
512,169,16479,5,4,3:0:0:0:
511,177,16704,1,4,3:0:0:0:
436,209,17079,1,0,3:0:0:0:
436,209,17229,1,0,3:0:0:0:
506,259,17454,2,0,L|503:302,2,36,0|0|0,1:0|1:0|1:0,0:0:0:0:
418,373,17979,102,0,P|394:332|374:275,1,108,4|0,3:2|0:0,0:0:0:0:
294,242,18354,1,0,1:0:0:0:
144,304,18729,6,0,P|197:288|242:325,1,108,0|0,3:0|0:0,0:0:0:0:
294,242,19104,1,0,1:0:0:0:
97,383,19479,101,4,3:0:0:0:
94,376,19704,1,4,3:0:0:0:
12,360,20079,1,0,3:0:0:0:
12,360,20229,1,0,3:0:0:0:
63,270,20454,1,0,1:0:0:0:
62,280,20529,1,0,1:0:0:0:
61,290,20604,1,0,1:0:0:0:
17,167,20829,1,2,1:2:0:0:
12,172,20979,6,0,P|79:190|118:194,1,108,4|0,3:2|0:0,0:0:0:0:
173,264,21354,1,0,1:0:0:0:
290,56,21729,102,0,P|237:73|182:38,1,108,0|0,3:0|0:0,0:0:0:0:
125,107,22104,1,0,1:0:0:0:
109,21,22479,5,4,3:0:0:0:
102,23,22704,1,4,3:0:0:0:
42,86,23079,1,0,3:0:0:0:
42,86,23229,1,0,3:0:0:0:
189,43,23454,1,0,1:0:0:0:
196,41,23529,1,0,1:0:0:0:
203,39,23604,1,0,1:0:0:0:
261,122,23829,1,2,1:2:0:0:
265,129,23979,102,0,P|286:65|309:26,1,108,4|0,3:2|0:0,0:0:0:0:
483,55,24354,2,0,P|458:30|383:52,1,108,0|0,1:0|0:0,0:0:0:0:
499,138,24729,5,0,3:0:0:0:
369,206,24954,1,0,0:0:0:0:
369,206,25104,2,0,P|393:230|468:208,1,108,0|0,1:0|0:0,0:0:0:0:
279,215,25479,101,4,3:0:0:0:
280,223,25704,1,4,3:0:0:0:
499,307,26079,1,0,3:0:0:0:
499,307,26229,1,0,3:0:0:0:
371,315,26454,1,0,1:0:0:0:
368,322,26529,1,0,1:0:0:0:
365,329,26604,1,0,1:0:0:0:
205,268,26829,1,0,1:0:0:0:
266,331,26979,22,0,L|268:376,4,36,4|0|0|0|0,0:2|0:0|0:0|0:0|0:0,0:0:0:0:
256,337,27354,2,0,L|258:382,1,36,0|0,1:0|1:0,0:0:0:0:
174,346,27579,1,0,1:0:0:0:
103,305,27729,70,0,L|105:260,4,36,4|0|0|0|0,0:2|0:0|0:0|0:0|0:0,0:0:0:0:
93,299,28104,2,0,L|95:254,1,36,0|0,1:0|1:0,0:0:0:0:
11,290,28329,1,0,1:0:0:0:
49,189,28479,38,0,L|4:191,4,36,4|0|0|0|0,0:2|0:0|0:0|0:0|0:0,0:0:0:0:
43,179,28854,1,0,1:0:0:0:
37,169,28929,1,0,1:0:0:0:
48,90,29079,1,0,1:0:0:0:
110,25,29229,70,0,L|155:23,4,36,4|0|0|0|0,0:2|0:0|0:0|0:0|0:0,0:0:0:0:
116,35,29604,1,0,1:0:0:0:
122,45,29679,1,0,1:0:0:0:
195,93,29829,1,0,1:0:0:0:
282,25,29979,37,4,0:2:0:0:
282,39,30054,1,0,0:0:0:0:
282,53,30129,2,0,L|281:98,2,36
292,57,30354,2,0,L|291:102,1,36,0|0,1:0|1:0,0:0:0:0:
360,145,30579,1,0,1:0:0:0:
366,132,30654,1,0,0:0:0:0:
373,120,30729,69,4,0:2:0:0:
373,106,30804,1,0,0:0:0:0:
373,93,30879,2,0,L|374:48,2,36
381,85,31104,2,0,L|382:39,1,36,0|0,1:0|1:0,0:0:0:0:
461,20,31329,1,0,1:0:0:0:
477,19,31404,1,0,0:0:0:0:
485,33,31479,38,0,P|484:54|461:72,4,36,4|0|0|0|0,1:2|1:0|0:0|1:0|0:0,0:0:0:0:
493,45,31854,2,0,P|491:62|479:75,1,36,4|0,1:2|1:0,0:0:0:0:
449,152,32004,2,0,P|465:165|494:158,2,36,0|0|0,0:0|1:0|0:0,0:0:0:0:
400,221,32229,70,0,P|382:222|369:234,1,36,4|0,1:2|1:0,0:0:0:0:
405,232,32379,2,0,P|387:233|374:245,1,36,0|0,0:0|1:0,0:0:0:0:
480,266,32529,1,0,0:0:0:0:
485,276,32604,1,4,1:2:0:0:
477,303,32679,1,0,1:0:0:0:
455,321,32754,1,0,1:0:0:0:
427,319,32829,1,0,1:0:0:0:
399,325,32904,1,0,1:0:0:0:
378,344,32979,53,4,0:0:0:0:
293,367,33129,2,0,L|296:314,1,43.1999986816407,0|4,0:0|0:3,0:0:0:0:
289,308,33279,2,0,L|292:255,1,43.1999986816407,4|4,0:3|0:2,0:0:0:0:
216,200,33504,5,0,0:0:0:0:
218,219,33579,1,4,0:3:0:0:
205,233,33654,1,4,0:3:0:0:
207,252,33729,101,4,0:2:0:0:
146,355,33879,2,0,L|143:302,2,43.1999986816407,0|4|4,0:0|0:3|0:3,0:0:0:0:
61,319,34104,5,4,1:2:0:0:
46,297,34179,1,0,1:0:0:0:
51,273,34254,1,0,1:0:0:0:
67,252,34329,1,0,1:0:0:0:
72,228,34404,1,0,1:0:0:0:
60,205,34479,101,4,0:0:0:0:
8,121,34629,2,0,L|67:124,1,43.1999986816407,0|4,0:0|0:3,0:0:0:0:
66,114,34779,2,0,L|125:117,1,43.1999986816407,4|4,0:3|0:2,0:0:0:0:
107,20,35004,5,0,0:0:0:0:
120,34,35079,1,4,0:3:0:0:
139,28,35154,1,4,0:3:0:0:
152,42,35229,102,0,P|224:58|267:71,1,86.3999973632813,4|4,1:2|1:3,0:0:0:0:
270,141,35529,1,4,1:3:0:0:
317,34,35679,1,4,1:2:0:0:
274,156,35829,1,4,1:3:0:0:
362,108,35979,102,0,P|326:45|407:7,1,180,6|0,0:2|1:0,0:0:0:0:
431,166,36579,1,0,0:0:0:0:
431,166,36729,2,0,P|467:94|473:41,1,108,2|0,0:3|0:0,0:0:0:0:
481,135,37104,2,0,P|437:189|476:267,1,129.599996044922,2|0,1:2|0:0,0:0:0:0:
389,340,37479,70,0,P|443:346|496:359,1,108,6|0,0:3|0:0,0:0:0:0:
361,261,37854,1,0,1:0:0:0:
270,380,38079,1,0,0:0:0:0:
270,380,38229,2,0,P|275:337|276:269,1,108,2|0,0:0|0:0,0:0:0:0:
253,325,38604,2,0,P|259:264|204:238,1,129.599996044922,2|0,1:2|0:0,0:0:0:0:
171,321,38979,38,0,P|147:380|58:339,1,180,6|0,0:3|1:0,0:0:0:0:
118,141,39579,1,0,0:0:0:0:
118,141,39729,2,0,P|122:214|122:259,1,108,2|0,0:0|0:0,0:0:0:0:
136,200,40104,2,0,P|177:152|249:165,1,129.599996044922,2|0,1:2|0:0,0:0:0:0:
210,29,40479,70,0,P|206:102|206:147,1,108,6|0,0:3|0:0,0:0:0:0:
192,88,40854,2,0,P|151:40|79:53,1,129.599996044922,2|0,1:2|0:0,0:0:0:0:
14,0,41229,37,2,0:0:0:0:
498,0,41604,69,0,1:0:0:0:
420,169,41829,1,0,0:0:0:0:
420,169,41979,38,0,P|462:116|365:68,1,180,4|0,0:2|1:0,0:0:0:0:
291,164,42579,1,0,0:0:0:0:
291,164,42729,2,0,P|305:94|305:41,1,108,2|0,0:0|0:0,0:0:0:0:
288,105,43104,2,0,P|311:158|395:161,1,129.599996044922,2|0,1:2|0:0,0:0:0:0:
512,261,43479,70,0,P|433:253|374:255,1,108,6|0,0:3|0:0,0:0:0:0:
430,101,43854,1,0,1:2:0:0:
471,355,44079,1,0,0:0:0:0:
471,355,44229,2,0,P|401:343|360:340,1,108,2|0,0:0|0:0,0:0:0:0:
417,329,44604,2,0,P|331:368|304:343,1,129.599996044922,2|0,1:2|0:0,0:0:0:0:
255,288,44979,37,2,0:0:0:0:
257,271,45054,1,0,0:0:0:0:
267,256,45129,1,0,0:0:0:0:
281,248,45204,1,0,0:0:0:0:
298,246,45279,1,0,0:0:0:0:
314,251,45354,2,0,P|333:258|355:274,5,43.1999986816407,2|0|0|0|0|2,1:2|0:0|0:0|0:0|0:0|0:2,0:0:0:0:
194,199,45879,85,0,0:0:0:0:
180,207,45954,1,0,0:0:0:0:
171,220,46029,1,0,0:0:0:0:
168,237,46104,2,0,P|165:256|171:283,4,43.1999986816407,2|0|0|0|0,1:2|0:0|0:0|0:0|0:0,0:0:0:0:
126,360,46479,6,0,B|113:381|113:381|64:377|23:359,1,86.3999973632813,6|0,0:2|0:0,0:0:0:0:
79,276,46779,1,0,0:0:0:0:
83,283,46854,2,0,B|47:286|47:286|32:251|28:183,1,129.599996044922,4|0,0:2|0:0,0:0:0:0:
80,122,47229,5,4,0:1:0:0:
80,122,47379,1,4,0:0:0:0:
23,189,47529,1,4,0:0:0:0:
166,137,47679,1,4,1:1:0:0:
50,39,47829,1,4,1:3:0:0:
175,27,47979,70,0,P|157:92|264:130,1,180,6|0,0:2|1:0,0:0:0:0:
413,79,48579,1,0,0:0:0:0:
413,79,48729,2,0,P|348:78|281:74,1,108,2|0,0:0|0:0,0:0:0:0:
484,20,49104,2,0,P|427:86|454:143,1,129.599996044922,2|0,1:2|0:0,0:0:0:0:
396,240,49479,38,0,P|444:215|491:188,1,108,6|0,0:0|0:0,0:0:0:0:
361,162,49854,1,0,1:0:0:0:
512,335,50079,1,0,0:0:0:0:
512,335,50229,2,0,P|454:329|404:327,1,108,2|0,0:0|0:0,0:0:0:0:
393,242,50604,2,0,P|431:291|390:347,1,129.599996044922,2|0,1:2|0:0,0:0:0:0:
207,326,50979,70,0,P|229:374|307:308,1,180,2|0,0:0|1:0,0:0:0:0:
148,243,51579,1,0,0:0:0:0:
148,243,51729,2,0,P|204:242|261:246,1,108,2|0,0:0|0:0,0:0:0:0:
309,172,52104,2,0,P|277:227|194:205,1,129.599996044922,2|0,1:2|0:0,0:0:0:0:
133,298,52479,38,0,P|132:242|136:185,1,108,6|0,0:0|0:0,0:0:0:0:
62,137,52854,2,0,P|117:169|95:252,1,129.599996044922,2|0,1:2|0:0,0:0:0:0:
0,197,53229,69,2,0:0:0:0:
65,357,53454,1,0,0:0:0:0:
65,357,53604,1,0,1:0:0:0:
3,46,53979,38,0,P|20:101|130:79,1,180,2|0,0:0|1:0,0:0:0:0:
309,76,54579,1,0,0:0:0:0:
309,76,54729,2,0,P|256:62|205:49,1,108,2|0,0:0|0:0,0:0:0:0:
384,71,55104,2,0,P|323:87|309:149,1,129.599996044922,2|0,1:2|0:0,0:0:0:0:
374,203,55479,69,2,0:0:0:0:
458,28,55704,1,0,0:0:0:0:
458,28,55854,1,2,1:2:0:0:
476,259,56079,1,2,0:2:0:0:
476,259,56229,37,2,0:2:0:0:
394,287,56379,1,0,0:0:0:0:
393,305,56454,1,0,0:0:0:0:
406,317,56529,1,0,0:0:0:0:
405,335,56604,2,0,L|401:381,1,43.1999986816407,2|0,1:2|1:0,0:0:0:0:
489,341,56829,1,0,1:0:0:0:
317,354,56979,70,0,P|295:305|206:296,1,144
197,302,57354,1,0,1:2:0:0:
191,319,57429,1,0,1:0:0:0:
93,384,57579,1,0,1:0:0:0:
106,372,57654,1,0,1:0:0:0:
113,355,57729,38,0,P|90:307|1:316,1,144
17,325,58104,2,0,L|21:262,1,36,0|0,1:0|1:0,0:0:0:0:
11,205,58329,1,0,1:0:0:0:
41,207,58404,1,0,1:0:0:0:
67,195,58479,70,0,P|92:143|68:96,1,108,4|0,0:2|0:0,0:0:0:0:
0,54,58854,1,4,0:2:0:0:
8,39,58929,1,0,0:0:0:0:
4,22,59004,1,0,0:0:0:0:
14,6,59079,1,0,0:0:0:0:
152,83,59229,37,4,0:2:0:0:
69,106,59379,1,4,0:0:0:0:
129,0,59529,1,4,0:2:0:0:
235,60,59679,1,4,1:3:0:0:
175,166,59829,1,4,1:3:0:0:
243,56,59979,102,0,P|317:42|434:47,2,180,4|0|0,1:0|1:0|1:0,0:0:0:0:
282,137,60879,1,2,0:3:0:0:
302,128,61029,1,2,0:3:0:0:
336,155,61179,1,2,0:3:0:0:
387,128,61329,1,2,0:3:0:0:
460,174,61479,101,6,1:2:0:0:
498,331,61704,1,0,0:0:0:0:
481,337,61779,1,0,0:0:0:0:
493,324,61854,1,0,1:0:0:0:
280,219,62079,1,0,0:0:0:0:
363,262,62229,6,0,P|329:236|254:258,1,108,0|0,1:0|0:0,0:0:0:0:
253,363,62604,2,0,B|296:372|275:319|215:308|171:342,1,129.599996044922,0|0,1:0|0:0,0:0:0:0:
97,384,62979,102,0,P|92:280|78:204,2,180,0|0|0,1:0|1:0|1:0,0:0:0:0:
114,272,63879,1,2,0:3:0:0:
128,256,64029,1,2,0:3:0:0:
104,229,64179,1,2,0:3:0:0:
154,201,64329,1,2,0:3:0:0:
82,153,64479,5,4,1:2:0:0:
8,321,64704,1,0,0:0:0:0:
14,338,64779,1,0,0:0:0:0:
1,326,64854,1,0,1:0:0:0:
75,146,65079,1,0,0:0:0:0:
59,39,65229,101,0,1:0:0:0:
35,47,65304,1,0,0:0:0:0:
60,51,65379,1,0,1:0:0:0:
36,59,65454,1,0,1:0:0:0:
61,63,65529,1,0,1:0:0:0:
37,71,65604,1,0,1:0:0:0:
491,186,65979,6,0,P|474:96|467:3,2,180,0|0|0,1:0|1:0|1:0,0:0:0:0:
394,158,66879,1,0,0:1:0:0:
398,137,67029,1,2,0:3:0:0:
364,110,67179,1,2,0:3:0:0:
378,54,67329,1,2,0:3:0:0:
295,29,67479,101,4,1:2:0:0:
344,228,67704,1,0,0:0:0:0:
327,222,67779,1,0,0:0:0:0:
339,235,67854,1,0,1:0:0:0:
172,82,68079,1,0,0:0:0:0:
211,5,68229,6,0,P|196:46|122:60,1,108,0|0,1:0|0:0,0:0:0:0:
28,27,68604,2,0,B|23:0|53:-11|66:54|39:111,1,129.599996044922,0|0,1:0|0:0,0:0:0:0:
107,174,68979,102,0,P|196:175|286:185,2,180,0|0|0,1:0|1:0|1:0,0:0:0:0:
18,222,69879,1,2,0:3:0:0:
14,243,70029,1,2,0:3:0:0:
50,248,70179,1,2,0:3:0:0:
69,302,70329,1,2,0:3:0:0:
13,368,70479,5,4,1:2:0:0:
93,156,70704,1,0,0:0:0:0:
87,173,70779,1,0,0:0:0:0:
100,161,70854,1,0,1:0:0:0:
181,326,71229,101,0,1:0:0:0:
173,350,71304,1,0,0:0:0:0:
169,325,71379,1,0,1:0:0:0:
161,349,71454,1,0,1:0:0:0:
157,324,71529,1,0,1:0:0:0:
149,348,71604,1,0,1:0:0:0:
338,336,71829,1,0,1:0:0:0:
259,371,71979,6,0,P|308:359|448:341,1,180,0|0,1:0|1:0,0:0:0:0:
449,180,72579,1,0,0:0:0:0:
480,261,72729,1,0,1:0:0:0:
358,251,72879,1,2,0:3:0:0:
343,235,73029,1,2,0:3:0:0:
360,195,73179,1,2,0:3:0:0:
317,157,73329,1,2,0:3:0:0:
373,91,73479,101,4,1:2:0:0:
512,31,73704,1,0,0:0:0:0:
492,23,73779,1,0,0:0:0:0:
484,43,73854,1,0,1:0:0:0:
314,12,74079,1,0,0:0:0:0:
227,47,74229,6,0,P|227:96|234:126,1,72,0|0,1:0|0:0,0:0:0:0:
150,199,74529,2,0,P|155:164|155:146,2,36,0|0|0,0:0|1:0|0:0,0:0:0:0:
148,18,74829,1,0,0:0:0:0:
34,0,74979,102,0,P|55:104|63:177,1,180,0|0,1:0|1:0,0:0:0:0:
0,361,75579,1,0,0:0:0:0:
10,342,75654,1,0,0:0:0:0:
5,321,75729,1,0,1:0:0:0:
98,360,75879,1,2,0:3:0:0:
113,344,76029,1,2,0:3:0:0:
148,351,76179,1,2,0:3:0:0:
183,305,76329,1,2,0:3:0:0:
255,353,76479,5,4,1:2:0:0:
229,204,76704,1,0,0:0:0:0:
221,224,76779,1,0,0:0:0:0:
241,232,76854,1,0,1:0:0:0:
406,182,77079,1,0,0:0:0:0:
385,266,77229,101,0,1:0:0:0:
389,291,77304,1,0,0:0:0:0:
403,293,77379,1,0,0:0:0:0:
399,268,77454,1,0,0:0:0:0:
413,270,77529,1,0,0:0:0:0:
417,295,77604,1,0,1:0:0:0:
496,327,77754,2,0,L|494:375,2,36,0|0|0,0:0|1:0|1:0,0:0:0:0:
509,334,77979,6,0,P|491:223|488:136,1,180,0|0,1:0|1:0,0:0:0:0:
512,6,78579,1,0,0:0:0:0:
458,73,78729,1,0,1:0:0:0:
358,33,78879,1,2,0:3:0:0:
337,28,79029,1,2,0:3:0:0:
298,47,79179,1,2,0:3:0:0:
244,28,79329,2,2,B|229:27|229:27|206:40,1,36,2|0,0:3|0:0,0:0:0:0:
167,67,79479,101,4,1:2:0:0:
4,10,79704,1,0,0:0:0:0:
24,2,79779,1,0,0:0:0:0:
32,22,79854,2,0,L|24:82,1,36,0|0,1:0|0:0,0:0:0:0:
144,150,80079,1,0,0:0:0:0:
144,150,80229,1,0,1:0:0:0:
123,155,80379,1,0,1:0:0:0:
90,140,80529,1,0,1:0:0:0:
35,156,80679,1,0,1:0:0:0:
24,242,80829,2,0,B|31:253|31:253|80:258,1,36,0|0,1:0|1:0,0:0:0:0:
174,238,80979,6,0,B|140:245|140:245|133:325|201:362,1,172.799994726563,4|0,1:2|0:0,0:0:0:0:
211,357,81354,2,0,L|284:360,1,43.1999986816407,0|0,1:0|1:0,0:0:0:0:
370,284,81579,1,0,1:0:0:0:
458,172,81729,102,0,B|492:179|492:179|499:259|431:296,1,172.799994726563,4|0,1:2|0:0,0:0:0:0:
421,291,82104,2,0,L|348:294,1,43.1999986816407,0|0,1:0|1:0,0:0:0:0:
289,150,82329,1,0,1:0:0:0:
223,70,82479,6,0,B|189:77|189:77|171:133|235:182,1,129.599996044922,4|0,1:2|0:0,0:0:0:0:
226,159,82779,1,0,0:0:0:0:
239,157,82854,2,0,L|312:160,1,43.1999986816407,4|0,1:2|0:0,0:0:0:0:
372,32,83079,1,0,1:0:0:0:
374,45,83154,1,0,1:0:0:0:
376,58,83229,102,0,L|373:131,1,43.1999986816407,0|0,1:0|0:0,0:0:0:0:
453,139,83454,1,0,1:0:0:0:
466,156,83529,1,0,1:0:0:0:
449,169,83604,1,4,1:3:0:0:
462,186,83679,1,0,1:0:0:0:
445,199,83754,1,0,0:0:0:0:
479,297,83904,1,0,1:0:0:0:
492,291,83979,22,0,B|448:281|402:315|425:321|376:360|334:342,1,144,4|0,0:2|0:0,0:0:0:0:
354,342,84354,2,0,P|314:337|285:319,1,72,0|0,1:0|0:0,0:0:0:0:
287,310,84579,1,0,0:0:0:0:
288,299,84654,1,0,0:0:0:0:
289,288,84729,2,0,B|236:266|183:293|216:293|160:336|99:302,1,180,4|0,0:3|1:0,0:0:0:0:
32,159,85329,1,0,0:0:0:0:
30,170,85404,1,0,0:0:0:0:
28,181,85479,69,4,0:3:0:0:
116,300,85704,1,0,0:0:0:0:
114,289,85779,1,0,0:0:0:0:
112,278,85854,21,0,1:0:0:0:
165,48,86079,2,0,P|155:70|152:98,1,36
161,95,86229,101,4,0:3:0:0:
161,95,86379,1,4,0:3:0:0:
240,130,86529,1,4,0:3:0:0:
117,168,86679,1,8,0:3:0:0:
248,49,86829,1,8,0:3:0:0:
487,113,86979,22,0,B|429:146|395:105|411:98|361:69|315:103,1,180,4|0,0:2|1:0,0:0:0:0:
306,185,87504,2,0,P|338:196|367:193,1,36
351,195,87654,1,0,0:0:0:0:
356,185,87729,2,0,B|358:225|389:259|394:230|448:255|444:322,1,144,4|0,0:3|0:0,0:0:0:0:
440,303,88104,2,0,P|430:346|407:366,1,72,0|0,1:0|0:0,0:0:0:0:
399,365,88329,1,0,0:0:0:0:
388,363,88404,1,0,0:0:0:0:
377,361,88479,69,4,0:3:0:0:
512,384,88704,1,0,0:0:0:0:
510,372,88779,1,0,0:0:0:0:
509,361,88854,21,0,1:0:0:0:
373,256,89079,1,0,0:0:0:0:
384,258,89154,1,0,0:0:0:0:
395,260,89229,101,4,0:3:0:0:
306,310,89379,1,4,0:3:0:0:
230,240,89529,1,4,0:3:0:0:
272,147,89679,1,8,0:3:0:0:
375,159,89829,1,8,0:3:0:0:
311,317,89979,22,0,B|246:339|202:333|271:312|234:331|168:326,1,144,4|0,0:2|0:0,0:0:0:0:
144,338,90354,2,0,P|147:363|147:380,4,36,0|0|0|0|0,1:0|0:0|0:0|0:0|0:0,0:0:0:0:
60,364,90729,70,0,B|30:330|49:284|57:309|101:249|47:205,1,172.799994726563,4|0,0:3|0:0,0:0:0:0:
81,169,91104,1,4,1:2:0:0:
71,178,91179,1,0,0:0:0:0:
59,183,91254,2,0,P|28:181|12:177,2,43.1999986816407
2,95,91479,22,0,B|21:20|120:47|-6:33|80:7|130:24,1,144,4|0,0:2|0:0,0:0:0:0:
136,6,91854,2,0,P|155:15|177:16,4,36,0|0|0|0|0,1:0|0:0|0:0|0:0|0:0,0:0:0:0:
228,81,92229,102,0,B|267:125|336:95|309:81|344:43|399:62,1,172.799994726563,4|0,0:3|0:0,0:0:0:0:
425,24,92604,1,4,1:2:0:0:
413,29,92679,1,0,0:0:0:0:
406,40,92754,2,0,P|408:73|412:86,2,43.1999986816407
501,14,92979,22,0,B|517:58|515:160|482:66|521:85|494:173,1,144,4|0,0:2|0:0,0:0:0:0:
512,181,93354,2,0,P|512:205|509:224,4,36,0|0|0|0|0,1:0|0:0|0:0|0:0|0:0,0:0:0:0:
403,264,93729,70,0,P|442:272|418:370,1,172.799994726563,4|0,0:3|0:0,0:0:0:0:
391,384,94104,1,0,1:0:0:0:
385,359,94179,1,0,0:0:0:0:
373,382,94254,1,0,0:0:0:0:
367,357,94329,1,0,0:0:0:0:
355,380,94404,1,0,0:0:0:0:
349,355,94479,53,4,1:3:0:0:
265,358,94629,2,0,L|269:315,1,43.1999986816407,0|4,0:0|0:3,0:0:0:0:
281,292,94779,2,0,L|285:249,1,43.1999986816407,4|4,0:3|1:2,0:0:0:0:
164,267,95004,5,0,0:0:0:0:
169,288,95079,1,4,0:3:0:0:
156,305,95154,1,4,0:3:0:0:
161,326,95229,101,4,1:2:0:0:
61,381,95379,2,0,L|58:337,2,43.1999986816407,0|4|4,0:0|0:3|0:3,0:0:0:0:
4,272,95604,5,0,1:2:0:0:
10,247,95679,1,0,1:0:0:0:
29,230,95754,1,0,1:0:0:0:
54,223,95829,1,0,1:0:0:0:
73,206,95904,1,0,1:0:0:0:
79,181,95979,86,0,B|70:150|35:143|44:163|-12:136|1:77,1,144,4|0,0:2|0:0,0:0:0:0:
5,67,96354,2,0,P|35:45|75:53,1,72,0|0,1:0|0:0,0:0:0:0:
75,57,96579,1,0,0:0:0:0:
79,67,96654,1,0,0:0:0:0:
83,77,96729,2,0,B|122:99|156:65|139:57|178:7|240:19,1,180,4|0,0:3|1:0,0:0:0:0:
164,180,97329,1,0,0:0:0:0:
166,169,97404,1,0,0:0:0:0:
168,158,97479,69,4,0:3:0:0:
312,65,97704,1,0,0:0:0:0:
314,76,97779,1,0,0:0:0:0:
316,87,97854,21,0,1:0:0:0:
362,261,98079,2,0,P|357:238|358:219,1,36
365,219,98229,101,4,0:3:0:0:
365,219,98379,1,4,0:3:0:0:
446,265,98529,1,4,0:3:0:0:
360,347,98679,1,8,0:3:0:0:
277,229,98829,1,8,0:3:0:0:
406,49,98979,22,0,B|429:91|401:140|382:113|349:162|370:212,1,180,4|0,0:2|1:0,0:0:0:0:
489,262,99504,2,0,P|467:267|446:283,1,36
452,284,99654,1,0,0:0:0:0:
456,294,99729,1,4,1:3:0:0:
352,352,99954,2,0,P|330:347|309:331,1,36
315,330,100104,1,0,1:0:0:0:
319,320,100179,1,0,0:0:0:0:
323,310,100254,1,0,0:0:0:0:
272,237,100404,1,0,0:0:0:0:
270,212,100479,69,4,0:2:0:0:
176,317,100704,1,0,0:0:0:0:
174,342,100779,1,0,0:0:0:0:
172,367,100854,21,4,1:2:0:0:
78,229,101079,1,0,0:0:0:0:
76,204,101154,1,0,0:0:0:0:
74,179,101229,101,4,0:2:0:0:
140,123,101379,2,0,L|144:87,2,36,0|0|0,0:0|0:0|1:0,0:0:0:0:
58,95,101604,1,0,1:0:0:0:
33,93,101679,1,0,1:0:0:0:
8,91,101754,1,0,1:2:0:0:
40,11,101904,1,0,0:0:0:0:
65,9,101979,22,0,B|118:1|183:18|97:32|161:13|209:38,1,144,4|0,0:2|0:0,0:0:0:0:
228,19,102354,2,0,P|250:3|283:-1,4,36,0|0|0|0|0,1:0|0:0|0:0|0:0|0:0,0:0:0:0:
261,102,102729,70,0,B|287:63|339:74|317:81|383:104|417:54,1,172.799994726563,4|0,0:3|0:0,0:0:0:0:
447,79,103104,1,4,1:2:0:0:
450,66,103179,1,0,0:0:0:0:
450,53,103254,2,0,P|440:33|424:19,2,43.1999986816407,0|0|0,0:0|1:0|1:0,0:0:0:0:
506,143,103479,22,0,B|510:170|507:211|492:157|506:167|496:260|442:285,1,144,4|0,1:2|0:0,0:0:0:0:
449,304,103854,1,0,1:0:0:0:
426,294,103929,1,0,0:0:0:0:
440,315,104004,1,0,0:0:0:0:
417,305,104079,1,0,0:0:0:0:
431,326,104154,1,0,0:0:0:0:
408,316,104229,101,4,1:2:0:0:
324,297,104379,1,4,1:2:0:0:
241,354,104529,1,4,1:2:0:0:
332,296,104679,1,4,1:2:0:0:
201,256,104829,1,4,1:2:0:0:
201,256,104979,85,4,1:2:0:0:
118,281,105129,2,0,L|113:329,2,36,0|0|0,0:0|1:0|0:0,0:0:0:0:
105,287,105354,2,0,L|101:322,1,36,0|0,1:0|1:0,0:0:0:0:
36,235,105579,1,0,1:0:0:0:
36,235,105729,37,4,1:2:0:0:
91,168,105879,2,0,L|96:120,2,36,0|0|0,0:0|1:0|0:0,0:0:0:0:
104,162,106104,2,0,L|107:126,1,36,0|0,1:0|1:0,0:0:0:0:
197,152,106329,1,0,1:0:0:0:
197,152,106479,69,4,1:2:0:0:
276,187,106629,2,0,L|324:182,2,36
282,174,106854,1,0,1:0:0:0:
288,161,106929,1,0,1:0:0:0:
362,117,107079,1,0,1:0:0:0:
362,117,107229,37,4,1:2:0:0:
422,179,107379,2,0,L|427:227,2,36
435,185,107604,1,0,1:0:0:0:
448,191,107679,1,0,1:0:0:0:
512,133,107829,1,0,1:0:0:0:
480,53,107979,69,4,1:2:0:0:
482,42,108054,1,0,1:0:0:0:
405,3,108204,1,0,1:0:0:0:
386,95,108354,1,0,1:0:0:0:
281,120,108504,1,0,1:0:0:0:
215,17,108654,1,0,1:0:0:0:
219,7,108729,22,0,P|239:4|264:7,4,36,4|4|4|4|4,0:0|0:0|0:0|0:0|0:0,0:0:0:0:
200,97,109104,1,12,0:0:0:0:
175,107,109179,1,12,0:0:0:0:
152,93,109254,1,12,0:0:0:0:
142,68,109329,1,12,0:0:0:0:
119,54,109404,1,12,0:0:0:0:
94,64,109479,21,12,1:3:0:0:
5,16,109629,2,0,L|-1:76,1,43.1999986816407,0|4,0:0|0:3,0:0:0:0:
11,73,109779,2,0,L|5:133,1,43.1999986816407,4|4,0:3|1:2,0:0:0:0:
115,172,110004,5,0,0:0:0:0:
119,202,110079,1,4,0:3:0:0:
101,226,110154,1,4,0:3:0:0:
105,256,110229,5,4,1:2:0:0:
21,301,110379,2,0,L|26:350,2,43.1999986816407,0|4|4,0:0|0:3|0:3,0:0:0:0:
107,366,110604,101,0,1:0:0:0:
128,344,110679,1,0,1:0:0:0:
158,342,110754,1,0,1:0:0:0:
186,353,110829,1,0,1:0:0:0:
216,351,110904,1,0,1:0:0:0:
237,329,110979,6,0,P|240:285|287:230,1,108,12|0,0:2|0:0,0:0:0:0:
288,232,111279,2,0,L|336:226,1,36,0|0,0:0|1:0,0:0:0:0:
360,363,111579,1,0,0:2:0:0:
352,347,111654,1,0,0:2:0:0:
351,329,111729,102,0,P|377:298|406:290,1,72,4|0,0:3|0:0,0:0:0:0:
417,291,111954,2,0,L|453:306,2,36,0|0|0,0:0|0:0|1:0,0:0:0:0:
485,120,112329,2,0,L|491:170,1,36
495,165,112479,6,0,P|470:193|419:192,1,72,4|0,0:2|0:0,0:0:0:0:
420,193,112704,1,0,0:2:0:0:
406,181,112779,1,0,0:2:0:0:
400,164,112854,1,0,1:0:0:0:
426,18,113079,1,0,0:0:0:0:
426,18,113229,102,0,L|426:73,4,36,4|0|0|0|0,0:3|0:0|0:0|0:0|0:0,0:0:0:0:
343,53,113604,1,0,1:2:0:0:
326,40,113679,1,0,0:2:0:0:
313,57,113754,1,0,0:2:0:0:
296,44,113829,1,0,0:2:0:0:
283,61,113904,1,0,0:2:0:0:
266,48,113979,6,0,P|232:11|172:15,1,108,4|0,0:3|0:0,0:0:0:0:
170,20,114279,2,0,L|165:69,1,36,0|0,0:0|1:0,0:0:0:0:
13,86,114579,1,0,0:2:0:0:
28,76,114654,1,0,0:0:0:0:
34,59,114729,102,0,P|21:15|-14:-5,2,72,4|0|0,0:3|0:0|0:0,0:0:0:0:
49,70,115104,2,0,P|47:122|118:163,1,108,0|0,1:0|0:0,0:0:0:0:
24,248,115479,6,0,P|70:272|83:319,1,72,4|0,0:2|0:0,0:0:0:0:
74,297,115704,2,0,L|77:349,1,36
83,341,115854,2,0,P|141:370|192:343,1,108,0|0,1:0|0:0,0:0:0:0:
204,237,116229,102,0,L|200:290,3,36,4|0|0|0,0:3|0:0|0:0|0:0,0:0:0:0:
288,269,116529,1,0,0:0:0:0:
279,300,116604,1,4,1:2:0:0:
304,297,116679,1,0,0:0:0:0:
316,318,116754,1,0,0:0:0:0:
341,315,116829,1,0,0:0:0:0:
353,336,116904,1,0,0:0:0:0:
378,333,116979,6,0,P|435:335|472:379,1,108,4|0,0:2|0:0,0:0:0:0:
512,279,117354,1,0,1:0:0:0:
432,231,117504,1,0,0:0:0:0:
440,207,117579,1,0,0:0:0:0:
428,185,117654,1,0,0:0:0:0:
436,161,117729,102,0,P|480:130|482:72,1,108,4|0,0:3|0:0,0:0:0:0:
479,70,118029,2,0,L|517:61,1,36,0|0,0:0|1:0,0:0:0:0:
360,21,118254,1,0,0:0:0:0:
336,29,118329,1,0,0:0:0:0:
314,17,118404,1,0,0:0:0:0:
290,25,118479,6,0,P|259:69|201:71,1,108,4|0,0:2|0:0,0:0:0:0:
70,35,118854,1,0,1:0:0:0:
95,33,118929,1,0,0:0:0:0:
116,47,119004,2,0,L|120:95,2,36
33,116,119229,101,4,0:3:0:0:
134,172,119379,1,8,0:3:0:0:
209,66,119529,1,8,0:3:0:0:
141,193,119679,1,8,0:3:0:0:
10,104,119829,1,8,0:3:0:0:
218,45,119979,102,0,P|238:44|276:56,4,36,4|0|0|0|0,0:2|0:0|0:0|0:0|0:0,0:0:0:0:
288,134,120354,1,0,1:2:0:0:
305,113,120429,1,0,0:0:0:0:
332,107,120504,1,0,0:0:0:0:
354,122,120579,1,0,0:0:0:0:
381,116,120654,1,0,0:0:0:0:
399,96,120729,70,0,P|398:73|390:52,4,36,4|0|0|0|0,0:3|0:0|0:0|0:0|0:0,0:0:0:0:
486,13,121104,1,0,1:2:0:0:
474,37,121179,1,0,0:0:0:0:
480,64,121254,1,0,0:0:0:0:
503,77,121329,1,0,0:0:0:0:
508,104,121404,1,0,0:0:0:0:
498,129,121479,6,0,P|493:151|508:177,2,36,4|0|0,1:3|0:0|0:0,0:0:0:0:
419,195,121704,1,4,0:3:0:0:
414,222,121779,1,4,0:3:0:0:
424,247,121854,2,0,P|429:269|414:295,1,36,4|0,1:2|0:3,0:0:0:0:
343,145,122079,1,4,0:3:0:0:
338,118,122154,1,4,0:3:0:0:
348,93,122229,38,0,P|353:71|338:45,1,36,4|0,1:2|0:3,0:0:0:0:
244,179,122454,2,0,P|240:208|250:239,1,36,4|4,0:3|0:3,0:0:0:0:
311,298,122604,1,0,1:0:0:0:
287,286,122679,1,0,1:2:0:0:
260,292,122754,1,0,1:0:0:0:
247,315,122829,1,0,1:0:0:0:
220,320,122904,1,0,1:0:0:0:
195,310,122979,6,0,P|129:305|85:352,1,108,12|0,1:2|0:0,0:0:0:0:
87,353,123279,2,0,L|85:293,1,36,0|0,0:0|1:0,0:0:0:0:
6,146,123579,1,0,0:0:0:0:
7,164,123654,1,0,0:0:0:0:
12,181,123728,102,0,P|57:208|101:200,1,72,4|0,0:3|0:0,0:0:0:0:
98,194,123954,2,0,L|92:251,2,36,0|0|0,0:0|0:0|1:0,0:0:0:0:
0,59,124329,2,0,L|57:65,1,36
57,79,124479,6,0,P|90:38|134:30,1,72,4|0,0:2|0:0,0:0:0:0:
125,33,124704,1,0,0:0:0:0:
142,39,124779,1,0,0:0:0:0:
156,51,124854,1,0,1:0:0:0:
189,201,125079,1,0,0:0:0:0:
189,201,125229,102,0,L|186:158,4,36,4|0|0|0|0,0:3|0:0|0:0|0:0|0:0,0:0:0:0:
232,94,125604,1,0,1:0:0:0:
246,77,125679,1,0,0:0:0:0:
267,83,125754,1,0,0:0:0:0:
281,66,125829,1,0,0:0:0:0:
302,72,125904,1,0,0:0:0:0:
316,55,125979,6,0,P|352:18|428:35,1,108,4|0,0:3|0:0,0:0:0:0:
421,41,126279,2,0,L|425:5,1,36,0|0,0:0|1:0,0:0:0:0:
434,179,126579,1,0,0:0:0:0:
449,189,126654,1,0,0:0:0:0:
467,190,126729,102,0,P|499:158|489:114,1,72,4|0,0:3|0:0,0:0:0:0:
471,272,127029,1,0,0:0:0:0:
489,272,127104,2,0,P|524:337|503:373,1,108,0|0,1:0|0:0,0:0:0:0:
497,372,127404,1,0,0:0:0:0:
480,378,127479,6,0,L|388:375,1,72,4|0,0:2|0:0,0:0:0:0:
399,360,127704,1,0,1:0:0:0:
381,360,127779,1,0,1:0:0:0:
363,360,127854,2,0,L|224:362,1,108,0|0,1:0|0:0,0:0:0:0:
225,245,128229,102,0,L|223:281,2,36,4|0|0,0:2|0:0|0:0,0:0:0:0:
310,263,128454,1,0,0:0:0:0:
334,236,128529,1,0,0:0:0:0:
323,202,128604,1,0,1:0:0:0:
341,182,128679,1,0,1:0:0:0:
331,157,128754,1,0,1:0:0:0:
349,137,128829,1,0,1:0:0:0:
339,112,128904,1,0,1:0:0:0:
357,92,128979,6,0,P|389:40|372:0,1,108,4|0,0:2|0:0,0:0:0:0:
265,75,129354,1,0,1:0:0:0:
188,128,129504,1,0,0:0:0:0:
175,102,129579,1,0,0:0:0:0:
179,73,129654,1,0,0:0:0:0:
166,47,129729,102,0,P|127:14|73:22,1,108,0|0,0:2|0:0,0:0:0:0:
65,50,130029,2,0,L|47:19,1,36,0|4,0:0|1:2,0:0:0:0:
5,157,130254,1,0,0:0:0:0:
31,145,130329,1,0,0:0:0:0:
55,161,130404,1,0,0:0:0:0:
81,149,130479,6,0,P|117:202|101:257,1,108,4|0,0:2|0:0,0:0:0:0:
23,278,130854,1,0,0:0:0:0:
17,306,130929,1,0,0:0:0:0:
45,313,131004,1,0,0:0:0:0:
39,341,131079,1,0,0:0:0:0:
67,348,131154,1,0,0:0:0:0:
61,376,131229,101,4,0:2:0:0:
155,316,131379,1,4,0:2:0:0:
276,336,131529,1,4,0:3:0:0:
145,312,131679,1,4,0:2:0:0:
138,168,131829,1,4,0:3:0:0:
309,145,131979,38,0,L|311:189,4,36,12|0|0|0|0,1:2|0:0|0:0|1:0|0:0,0:0:0:0:
323,149,132354,2,0,L|325:193,1,36,0|0,1:0|1:0,0:0:0:0:
260,15,132579,1,0,1:0:0:0:
173,49,132729,38,0,L|176:5,4,36,4|0|0|0|0,1:2|0:0|0:0|1:0|0:0,0:0:0:0:
159,43,133104,2,0,L|162:0,1,36,0|0,1:0|1:0,0:0:0:0:
353,71,133329,1,0,1:0:0:0:
430,110,133479,70,0,L|474:108,2,36,4|0|0,1:2|1:0|0:0,0:0:0:0:
434,96,133704,2,0,L|478:94,1,36
438,82,133854,2,0,L|482:80,1,36,0|0,1:0|1:0,0:0:0:0:
227,139,134079,1,0,1:0:0:0:
141,129,134229,38,0,L|97:124,2,36,4|0|0,1:2|1:0|0:0,0:0:0:0:
135,142,134454,2,0,L|91:137,1,36
129,155,134604,2,0,L|85:150,1,36,0|0,1:0|1:0,0:0:0:0:
379,189,134829,1,0,1:0:0:0:
454,232,134979,69,4,1:2:0:0:
458,246,135054,1,0,1:0:0:0:
512,313,135204,1,0,1:0:0:0:
429,370,135354,1,0,1:0:0:0:
337,301,135504,1,0,1:0:0:0:
370,176,135654,1,0,1:0:0:0:
379,189,135729,22,0,L|378:232,4,36,4|4|4|4|4,0:0|0:0|0:0|0:0|0:0,0:0:0:0:
296,151,136104,1,12,0:0:0:0:
267,148,136179,1,12,0:0:0:0:
242,163,136254,1,12,0:0:0:0:
224,186,136329,1,12,0:0:0:0:
200,201,136404,1,12,0:0:0:0:
171,198,136479,37,12,1:3:0:0:
83,143,136629,2,0,L|85:204,1,43.1999986816407,0|4,0:0|0:3,0:0:0:0:
93,229,136779,2,0,L|95:290,1,43.1999986816407,4|4,0:3|1:2,0:0:0:0:
2,376,137004,5,0,0:0:0:0:
34,362,137079,1,4,0:3:0:0:
67,373,137154,1,4,0:3:0:0:
99,359,137229,101,4,1:2:0:0:
186,302,137379,2,0,L|183:373,2,43.1999986816407,0|4|4,0:0|0:3|0:3,0:0:0:0:
268,329,137604,5,0,1:0:0:0:
288,301,137679,1,0,1:0:0:0:
281,267,137754,1,0,1:0:0:0:
253,247,137829,1,0,1:0:0:0:
246,213,137904,1,0,1:0:0:0:
266,185,137979,101,4,1:3:0:0:
362,225,138129,2,0,L|364:164,1,43.1999986816407,0|4,0:0|0:3,0:0:0:0:
372,139,138279,2,0,L|374:78,1,43.1999986816407,4|4,0:3|1:2,0:0:0:0:
485,13,138504,5,0,0:0:0:0:
495,46,138579,1,4,0:3:0:0:
482,78,138654,1,4,0:3:0:0:
492,111,138729,101,4,1:2:0:0:
469,212,138879,1,4,1:2:0:0:
359,236,139029,1,4,1:3:0:0:
275,149,139179,1,4,1:2:0:0:
308,24,139329,1,4,1:3:0:0:
402,9,139479,5,4,1:2:0:0:
256,192,139554,12,2,145479,2:2:0:0:
