osu file format v14

[General]
AudioFilename: audio.mp3
AudioLeadIn: 0
PreviewTime: 110979
Countdown: 0
SampleSet: Drum
StackLeniency: 0.4
Mode: 0
LetterboxInBreaks: 0
WidescreenStoryboard: 0

[Editor]
Bookmarks: 14979,35979,59979,83979,89979,94479,95979,104979
DistanceSpacing: 1
BeatDivisor: 5
GridSize: 4
TimelineZoom: 4.300004

[Metadata]
Title:Shirayama Hime no Kami
TitleUnicode:白山比咩神
Artist:DWMw
ArtistUnicode:DWMω
Creator:Luscent
Version:Wrath
Source:
Tags:BMS of fighters 2013 Bof2013 abe3 abe yuta Hakusan 古伝新韻二十打ち Koden Shin'in Nijuu Uchi Shinin Ancient Remains Arranged 20 Beats Electronic Video Game Instrumental 404 AimNotFound Down YokesPai DeviousPanda
BeatmapID:2992855
BeatmapSetID:1367344

[Difficulty]
HPDrainRate:5
CircleSize:4.2
OverallDifficulty:9
ApproachRate:9.5
SliderMultiplier:1.7
SliderTickRate:1

[Events]
//Background and Video events
0,0,"srym.jpg",0,0
//Break Periods
//Storyboard Layer 0 (Background)
//Storyboard Layer 1 (Fail)
//Storyboard Layer 2 (Pass)
//Storyboard Layer 3 (Foreground)
//Storyboard Layer 4 (Overlay)
//Storyboard Sound Samples

[TimingPoints]
1479,375,4,2,1,30,1,0
2979,-200,4,2,1,30,0,0
14979,-125,4,2,1,50,0,0
26979,-100,4,3,1,65,0,0
31479,-100,4,3,1,70,0,0
32979,-76.9230769230769,4,3,1,85,0,1
35979,-100,4,3,1,65,0,0
80829,-66.6666666666667,4,3,1,70,0,0
83979,-83.3333333333333,4,3,1,75,0,0
94479,-83.3333333333333,4,3,1,85,0,0
95979,-83.3333333333333,4,3,1,75,0,0
104979,-83.3333333333333,4,3,1,70,0,0
109854,-83.3333333333333,4,3,1,80,0,0
110229,-83.3333333333333,4,3,1,90,0,0
110604,-83.3333333333333,4,3,1,100,0,0
110979,-100,4,3,1,85,0,1
121479,-100,4,3,1,70,0,1
121854,-100,4,3,1,80,0,1
122229,-100,4,3,1,90,0,1
122604,-100,4,3,1,100,0,1
122979,-100,4,3,1,85,0,1
131979,-83.3333333333333,4,3,1,90,0,0
136479,-83.3333333333333,4,3,1,70,0,1
136854,-83.3333333333333,4,3,1,80,0,1
137229,-83.3333333333333,4,3,1,90,0,1
137604,-83.3333333333333,4,3,1,100,0,0
137979,-83.3333333333333,4,3,1,80,0,1
138354,-83.3333333333333,4,3,1,90,0,1
138729,-83.3333333333333,4,3,1,100,0,1
139479,-83.3333333333333,4,3,1,100,0,0
139554,-83.3333333333333,4,3,1,90,0,0
140229,-83.3333333333333,4,3,1,80,0,0
140979,-83.3333333333333,4,3,1,70,0,0
141729,-83.3333333333333,4,3,1,60,0,0
142479,-83.3333333333333,4,3,1,50,0,0
143229,-83.3333333333333,4,3,1,40,0,0
143979,-83.3333333333333,4,3,1,30,0,0
144729,-83.3333333333333,4,3,1,20,0,0
145479,-83.3333333333333,4,2,2,55,0,0

[Colours]
Combo1 : 249,254,186
Combo2 : 248,211,171
Combo3 : 171,252,203
Combo4 : 242,56,36
Combo5 : 249,98,60
Combo6 : 255,255,255
Combo7 : 208,198,176
Combo8 : 175,221,254

[HitObjects]
66,157,2979,85,0,3:0:0:0:
138,180,3354,1,0,0:0:0:0:
214,187,3729,2,0,P|269:181|311:177,1,85,2|0,0:0|0:0,0:0:0:0:
463,348,4479,101,0,3:0:0:0:
455,271,4854,1,2,0:0:0:0:
299,300,5229,1,0,0:0:0:0:
299,300,5604,1,0,0:0:0:0:
0,231,5979,5,0,3:0:0:0:
66,204,6354,1,0,0:0:0:0:
137,186,6729,1,2,0:0:0:0:
209,177,7104,1,0,0:0:0:0:
139,43,7479,101,0,3:0:0:0:
205,70,7854,1,0,0:0:0:0:
278,88,8079,1,2,0:0:0:0:
278,88,8229,1,2,0:0:0:0:
353,97,8454,1,2,3:2:0:0:
353,97,8604,1,2,0:0:0:0:
423,80,8829,1,2,0:0:0:0:
474,222,8979,6,0,B|406:216|330:214,1,136,2|0,3:2|0:0,0:0:0:0:
338,214,9729,1,2,0:0:0:0:
195,319,10104,1,0,0:0:0:0:
56,203,10329,101,0,0:0:0:0:
56,203,10479,2,0,B|102:194|142:192,1,85,0|2,3:0|0:0,0:0:0:0:
184,120,11079,1,0,0:0:0:0:
184,120,11229,1,0,0:0:0:0:
161,34,11454,1,0,0:0:0:0:
161,34,11604,1,2,0:0:0:0:
350,12,11979,6,0,B|334:87|358:161,1,136,0|0,3:0|0:0,0:0:0:0:
353,146,12729,1,2,0:0:0:0:
457,247,13104,1,0,0:0:0:0:
512,181,13329,101,0,0:0:0:0:
512,181,13479,1,0,3:0:0:0:
347,194,13854,1,0,3:0:0:0:
207,209,14079,1,0,0:0:0:0:
207,209,14229,1,0,3:0:0:0:
92,229,14454,1,0,3:0:0:0:
92,229,14604,1,0,1:0:0:0:
103,64,14979,54,0,P|142:66|189:72,1,81.6,4|0,3:2|0:0,0:0:0:0:
242,139,15354,2,0,P|256:81|272:36,1,81.6,0|0,1:0|0:0,0:0:0:0:
322,11,15729,2,0,P|376:16|410:20,1,81.6,0|0,3:0|0:0,0:0:0:0:
469,84,16104,2,0,P|483:26|499:-19,1,81.6,0|0,1:0|0:0,0:0:0:0:
449,180,16479,101,4,3:0:0:0:
449,180,16704,1,4,3:0:0:0:
36,217,17079,1,0,3:0:0:0:
108,226,17229,1,0,3:0:0:0:
206,285,17454,1,0,1:0:0:0:
206,285,17529,1,0,1:0:0:0:
206,285,17604,1,0,1:0:0:0:
253,342,17829,1,2,1:2:0:0:
326,202,17979,6,0,P|281:209|234:219,1,81.6,4|0,3:2|0:0,0:0:0:0:
128,135,18354,2,0,P|161:139|221:146,1,81.6,0|0,1:0|0:0,0:0:0:0:
388,103,18729,2,0,P|343:110|296:120,1,81.6,0|0,3:0|0:0,0:0:0:0:
202,35,19104,2,0,P|235:39|286:44,1,81.6,0|0,1:0|0:0,0:0:0:0:
466,180,19479,101,4,3:0:0:0:
466,180,19704,1,4,3:0:0:0:
356,355,20079,1,0,3:0:0:0:
288,309,20229,1,0,3:0:0:0:
65,272,20454,1,0,1:0:0:0:
65,272,20529,1,0,1:0:0:0:
65,272,20604,1,0,1:0:0:0:
144,247,20829,1,2,1:2:0:0:
13,98,20979,6,0,B|-3:158|39:190,1,81.6,4|0,3:2|0:0,0:0:0:0:
170,168,21354,2,0,B|189:130|179:73,1,81.6,0|0,1:0|0:0,0:0:0:0:
99,4,21729,2,0,B|65:56|95:99,1,81.6,0|0,3:0|0:0,0:0:0:0:
261,131,22104,2,0,B|290:100|298:43,1,81.6,0|0,1:0|0:0,0:0:0:0:
453,169,22479,101,4,3:0:0:0:
453,169,22704,1,4,3:0:0:0:
28,221,23079,1,0,3:0:0:0:
117,257,23229,1,0,3:0:0:0:
237,355,23454,1,0,1:0:0:0:
237,355,23529,1,0,1:0:0:0:
237,355,23604,1,0,1:0:0:0:
276,239,23829,1,2,1:2:0:0:
45,18,23979,6,0,B|34:61|57:118,1,81.6,4|0,3:2|0:0,0:0:0:0:
111,166,24354,2,0,B|157:151|212:149,1,81.6,0|0,1:0|0:0,0:0:0:0:
411,130,24729,2,0,B|367:140|308:143,1,81.6,0|0,3:0|0:0,0:0:0:0:
256,73,25104,1,0,1:0:0:0:
15,243,25479,101,4,3:0:0:0:
15,243,25704,1,4,3:0:0:0:
186,306,26079,1,0,3:0:0:0:
201,214,26229,1,0,3:0:0:0:
360,289,26454,1,0,1:0:0:0:
364,262,26529,1,0,1:0:0:0:
368,235,26604,1,0,1:0:0:0:
466,270,26829,1,0,1:0:0:0:
128,260,26979,21,4,0:2:0:0:
135,238,27054,1,0,0:0:0:0:
153,223,27129,1,0,0:0:0:0:
175,219,27204,1,0,0:0:0:0:
197,228,27279,1,0,0:0:0:0:
210,246,27354,1,0,1:0:0:0:
213,269,27429,1,0,1:0:0:0:
81,319,27579,1,0,1:0:0:0:
135,149,27729,69,4,0:2:0:0:
155,166,27804,1,0,0:0:0:0:
178,181,27879,1,0,0:0:0:0:
202,193,27954,1,0,0:0:0:0:
228,201,28029,1,0,0:0:0:0:
255,205,28104,1,0,1:0:0:0:
282,206,28179,1,0,1:0:0:0:
343,78,28329,1,0,1:0:0:0:
16,17,28479,37,4,0:2:0:0:
20,47,28554,1,0,0:0:0:0:
18,77,28629,1,0,0:0:0:0:
23,107,28704,1,0,0:0:0:0:
21,137,28779,1,0,0:0:0:0:
26,167,28854,1,0,1:0:0:0:
23,197,28929,1,0,1:0:0:0:
131,322,29079,1,0,1:0:0:0:
353,383,29229,69,4,0:2:0:0:
366,350,29304,1,0,0:0:0:0:
367,314,29379,1,0,0:0:0:0:
358,280,29454,1,0,0:0:0:0:
338,250,29529,1,0,0:0:0:0:
315,223,29604,1,0,1:0:0:0:
282,206,29679,1,0,1:0:0:0:
31,270,29829,1,0,1:0:0:0:
186,132,29979,38,0,L|182:79,4,34,4|0|0|0|0,0:2|0:0|0:0|0:0|0:0,0:0:0:0:
193,206,30354,1,0,1:0:0:0:
193,206,30429,1,0,1:0:0:0:
252,13,30579,1,0,1:0:0:0:
13,89,30729,69,4,0:2:0:0:
53,85,30804,1,0,0:0:0:0:
93,81,30879,1,0,0:0:0:0:
133,77,30954,1,0,0:0:0:0:
173,73,31029,1,0,0:0:0:0:
245,106,31104,1,0,1:0:0:0:
285,102,31179,2,0,B|337:97|378:96,1,68,0|0,1:0|1:0,0:0:0:0:
466,50,31479,37,4,1:2:0:0:
476,89,31554,1,0,1:0:0:0:
473,129,31629,1,0,0:0:0:0:
457,166,31704,2,0,B|453:191|455:227,1,34,0|0,1:0|0:0,0:0:0:0:
410,347,31854,69,4,1:2:0:0:
378,319,31929,1,0,1:0:0:0:
340,300,32004,1,0,0:0:0:0:
298,290,32079,2,0,B|269:293|237:299,1,34,0|0,1:0|0:0,0:0:0:0:
101,265,32229,37,4,1:2:0:0:
110,261,32304,1,0,1:0:0:0:
110,251,32379,1,0,0:0:0:0:
100,248,32454,1,0,1:0:0:0:
95,256,32529,1,0,0:0:0:0:
88,265,32604,69,4,1:2:0:0:
107,284,32679,1,0,1:0:0:0:
161,262,32754,1,0,1:0:0:0:
177,188,32829,1,0,1:0:0:0:
120,132,32904,1,0,1:0:0:0:
49,161,32979,53,4,0:0:0:0:
32,178,33054,2,0,B|73:187|109:193,1,44.1999979766847
271,94,33204,1,4,0:3:0:0:
263,62,33279,1,4,0:3:0:0:
256,30,33354,1,4,0:2:0:0:
249,0,33429,2,0,B|245:26|238:57,1,44.1999979766847
393,234,33579,1,4,0:3:0:0:
433,224,33654,1,4,0:3:0:0:
473,215,33729,1,4,0:2:0:0:
512,206,33804,2,0,B|477:201|437:192,1,44.1999979766847
63,263,33954,5,4,0:3:0:0:
107,266,34029,1,4,0:3:0:0:
150,276,34104,1,4,1:2:0:0:
191,292,34179,1,0,1:0:0:0:
229,314,34254,1,0,1:0:0:0:
264,340,34329,1,0,1:0:0:0:
296,371,34404,1,0,1:0:0:0:
350,313,34479,101,4,0:0:0:0:
339,292,34554,2,0,B|341:259|346:224,1,44.1999979766847
9,133,34704,1,4,0:3:0:0:
16,167,34779,1,4,0:3:0:0:
23,201,34854,1,4,0:2:0:0:
33,234,34929,2,0,B|43:198|59:159,1,44.1999979766847
234,17,35079,1,4,0:3:0:0:
200,24,35154,1,4,0:3:0:0:
166,31,35229,1,4,1:2:0:0:
276,119,35379,5,4,1:3:0:0:
43,74,35529,1,4,1:3:0:0:
310,7,35679,1,4,1:2:0:0:
121,202,35829,1,4,1:3:0:0:
379,122,35979,86,0,B|449:124|502:140,1,102,6|0,0:2|0:0,0:0:0:0:
480,134,36354,1,0,1:0:0:0:
331,349,36579,1,0,0:0:0:0:
331,349,36729,2,0,B|303:317|302:254,1,102,2|0,0:3|0:0,0:0:0:0:
188,160,37104,2,0,B|160:192|159:255,1,102,2|0,1:2|0:0,0:0:0:0:
6,355,37479,70,0,B|62:341|131:342,1,102,6|0,0:3|0:0,0:0:0:0:
106,342,37854,1,0,1:0:0:0:
26,164,38079,1,0,0:0:0:0:
26,164,38229,2,0,B|38:216|48:276,1,102,2|0,0:0|0:0,0:0:0:0:
212,54,38604,2,0,B|163:62|109:46|86:23,1,102,2|0,1:2|0:0,0:0:0:0:
112,40,38979,38,0,B|145:97|147:165,1,102,6|0,0:3|0:0,0:0:0:0:
141,211,39354,1,0,1:0:0:0:
359,320,39579,1,0,0:0:0:0:
359,320,39729,2,0,B|299:333|253:365,1,102,2|0,0:0|0:0,0:0:0:0:
443,244,40104,2,0,B|390:222|334:214,1,102,2|0,1:2|0:0,0:0:0:0:
497,355,40479,70,0,B|499:298|517:233,1,102,6|0,0:3|0:0,0:0:0:0:
512,177,40854,1,2,1:2:0:0:
169,207,41079,1,0,0:0:0:0:
169,207,41229,2,0,B|244:204|346:255,1,170,2|0,0:0|1:0,0:0:0:0:
379,122,41829,1,0,0:0:0:0:
70,41,41979,38,0,B|43:92|50:164,1,102,4|0,0:2|0:0,0:0:0:0:
48,139,42354,1,0,1:0:0:0:
143,354,42579,1,0,0:0:0:0:
143,354,42729,2,0,B|88:280|-19:263,1,170,2|2,0:0|1:2,0:0:0:0:
285,210,43329,69,0,0:0:0:0:
285,210,43479,2,0,B|334:202|342:219|396:213,1,102,6|0,0:3|0:0,0:0:0:0:
179,91,43854,2,0,B|225:130|287:127,1,102,0|0,1:2|0:0,0:0:0:0:
459,271,44229,1,2,0:0:0:0:
445,63,44454,1,0,0:0:0:0:
445,63,44604,2,0,B|422:100|381:122|338:115,1,102,2|0,1:2|0:0,0:0:0:0:
0,218,44979,37,2,0:0:0:0:
27,231,45054,1,0,0:0:0:0:
53,247,45129,1,0,0:0:0:0:
75,266,45204,1,0,0:0:0:0:
95,287,45279,1,0,0:0:0:0:
112,311,45354,69,2,1:2:0:0:
110,270,45429,1,0,0:0:0:0:
118,229,45504,1,0,0:0:0:0:
134,191,45579,1,0,0:0:0:0:
159,156,45654,1,0,0:0:0:0:
192,127,45729,5,2,0:2:0:0:
237,148,45804,1,0,0:0:0:0:
280,175,45879,1,0,0:0:0:0:
318,207,45954,1,0,0:0:0:0:
351,242,46029,1,0,0:0:0:0:
378,282,46104,5,2,1:2:0:0:
376,224,46179,1,0,0:0:0:0:
387,166,46254,1,0,0:0:0:0:
409,112,46329,1,0,0:0:0:0:
0,20,46479,5,6,0:2:0:0:
13,50,46554,1,0,0:0:0:0:
36,76,46629,1,0,0:0:0:0:
67,90,46704,1,0,0:0:0:0:
100,92,46779,1,0,0:0:0:0:
134,87,46854,69,4,0:2:0:0:
153,132,46929,1,0,0:0:0:0:
189,172,47004,1,0,0:0:0:0:
236,194,47079,1,0,0:0:0:0:
287,197,47154,1,0,0:0:0:0:
339,189,47229,5,4,0:1:0:0:
102,250,47379,1,4,0:0:0:0:
333,96,47529,1,4,0:0:0:0:
263,344,47679,1,4,1:1:0:0:
221,52,47829,1,4,1:3:0:0:
380,252,47979,22,0,B|427:240|501:246,1,102,6|0,0:2|0:0,0:0:0:0:
481,244,48354,1,0,1:0:0:0:
98,127,48579,1,0,0:0:0:0:
98,127,48729,2,0,B|138:159|213:164,1,102,2|0,0:0|0:0,0:0:0:0:
8,256,49104,2,0,B|50:232|121:229,1,102,2|0,1:2|0:0,0:0:0:0:
286,357,49479,70,0,B|288:305|301:245,1,102,6|0,0:0|0:0,0:0:0:0:
298,255,49854,1,0,1:0:0:0:
98,127,50079,1,0,0:0:0:0:
98,127,50229,2,0,B|138:159|213:164,1,102,2|0,0:0|0:0,0:0:0:0:
448,90,50604,2,0,B|406:129|342:140,1,102,2|0,1:2|0:0,0:0:0:0:
218,0,50979,38,0,B|293:61|264:165,1,170,2|0,0:0|1:0,0:0:0:0:
18,240,51579,1,0,0:0:0:0:
18,240,51729,2,0,B|59:218|140:218,1,102,2|0,0:0|0:0,0:0:0:0:
204,374,52104,2,0,B|207:322|227:245,1,102,2|0,1:2|0:0,0:0:0:0:
19,29,52479,69,6,0:0:0:0:
171,168,52704,1,0,0:0:0:0:
207,88,52854,1,2,1:2:0:0:
365,255,53079,1,0,0:0:0:0:
363,180,53229,1,2,0:0:0:0:
480,354,53454,1,0,0:0:0:0:
502,317,53604,2,0,B|521:253|506:192,1,102,0|0,1:0|0:0,0:0:0:0:
412,97,53979,37,2,0:0:0:0:
412,97,54054,1,0,0:0:0:0:
412,97,54129,2,0,L|363:102,2,34
487,95,54354,1,0,1:0:0:0:
293,27,54579,1,0,0:0:0:0:
108,211,54729,69,2,0:0:0:0:
108,211,54804,1,0,0:0:0:0:
108,211,54879,2,0,L|157:216,2,34
27,197,55104,1,2,1:2:0:0:
172,344,55329,1,0,0:0:0:0:
312,301,55479,37,2,0:0:0:0:
314,280,55554,1,0,0:0:0:0:
316,260,55629,1,0,0:0:0:0:
316,240,55704,1,0,0:0:0:0:
316,219,55779,1,0,0:0:0:0:
315,199,55854,1,2,1:2:0:0:
257,121,56079,1,2,0:2:0:0:
468,157,56229,69,2,0:2:0:0:
450,173,56304,1,0,0:0:0:0:
435,194,56379,1,0,0:0:0:0:
423,215,56454,1,0,0:0:0:0:
415,237,56529,1,0,0:0:0:0:
408,261,56604,1,2,1:2:0:0:
403,284,56679,1,0,1:0:0:0:
419,364,56829,1,0,1:0:0:0:
10,361,56979,37,2,0:2:0:0:
36,339,57054,1,0,0:0:0:0:
66,324,57129,1,0,0:0:0:0:
99,314,57204,1,0,0:0:0:0:
132,310,57279,1,0,0:0:0:0:
166,310,57354,69,2,1:2:0:0:
146,309,57429,1,0,1:0:0:0:
126,306,57504,1,0,1:0:0:0:
106,301,57579,1,0,1:0:0:0:
87,294,57654,1,0,1:0:0:0:
68,286,57729,37,0,0:0:0:0:
89,251,57804,1,0,0:0:0:0:
120,225,57879,1,0,0:0:0:0:
158,212,57954,1,0,0:0:0:0:
199,213,58029,1,0,0:0:0:0:
239,222,58104,69,0,1:0:0:0:
268,172,58179,1,0,1:0:0:0:
312,135,58254,1,0,1:0:0:0:
366,116,58329,1,0,1:0:0:0:
425,118,58404,1,0,1:0:0:0:
481,131,58479,38,0,P|503:133|526:139,2,34,4|0|0,0:2|0:0|0:0,0:0:0:0:
300,47,58704,1,0,0:0:0:0:
450,227,58854,2,0,P|472:229|495:235,2,34,4|0|0,0:2|0:0|0:0,0:0:0:0:
292,39,59079,1,0,0:0:0:0:
344,261,59229,69,4,0:2:0:0:
415,49,59379,1,4,0:0:0:0:
224,170,59529,1,4,0:2:0:0:
412,151,59679,37,4,1:3:0:0:
117,77,59829,1,4,1:3:0:0:
270,384,59979,102,0,B|267:319|280:206,1,170,4|0,1:0|1:0,0:0:0:0:
0,168,60729,1,0,1:0:0:0:
59,250,60879,2,2,P|87:255|113:263,1,34,2|0,0:3|0:3,0:3:0:0:
129,192,61029,2,2,P|148:205|166:221,1,34,2|0,0:3|1:3,0:3:0:0:
225,125,61179,2,2,P|235:149|240:173,1,34,2|0,0:3|0:3,0:3:0:0:
361,97,61329,2,2,P|356:127|349:151,1,34,2|0,0:3|0:3,0:3:0:0:
512,114,61479,101,6,1:2:0:0:
410,315,61704,1,0,0:0:0:0:
322,268,61854,1,0,1:0:0:0:
121,358,62079,1,0,0:0:0:0:
63,296,62229,2,0,B|42:236|73:178|68:232|46:166|68:121,1,170,0|0,1:0|1:0,0:0:0:0:
511,16,62979,6,0,B|436:74|345:40,1,170,0|0,1:0|1:0,0:0:0:0:
251,0,63579,1,0,0:0:0:0:
251,0,63654,1,0,0:0:0:0:
251,0,63729,1,0,1:0:0:0:
31,53,63879,2,2,P|59:52|86:48,1,34,2|0,0:3|0:0,0:0:0:0:
91,121,64029,2,2,P|111:111|132:98,1,34,2|0,0:3|1:0,0:0:0:0:
175,202,64179,2,2,P|188:179|197:156,1,34,2|0,0:3|0:0,0:0:0:0:
305,251,64329,2,2,P|304:220|301:195,1,34,2|0,0:3|0:0,0:0:0:0:
457,258,64479,101,4,1:2:0:0:
180,346,64704,1,0,0:0:0:0:
268,384,64854,1,0,1:0:0:0:
37,245,65079,1,0,0:0:0:0:
126,218,65229,1,0,1:0:0:0:
149,205,65304,1,0,0:0:0:0:
171,188,65379,1,0,1:0:0:0:
190,169,65454,1,0,1:0:0:0:
205,146,65529,1,0,1:0:0:0:
216,121,65604,1,0,1:0:0:0:
146,17,65829,1,0,1:0:0:0:
0,129,65979,6,0,B|54:209|172:166,1,170,0|0,1:0|1:0,0:0:0:0:
432,286,66579,1,0,0:0:0:0:
482,202,66729,1,0,1:0:0:0:
258,29,66879,1,0,0:1:0:0:
258,29,66954,1,0,0:0:0:0:
258,29,67029,2,2,L|306:39,1,34,2|0,0:3|1:0,0:0:0:0:
210,106,67179,2,2,L|258:98,1,34,2|0,0:3|0:0,0:0:0:0:
179,238,67329,2,2,L|222:214,1,34,2|0,0:3|0:0,0:0:0:0:
275,384,67479,101,4,1:2:0:0:
104,277,67704,1,0,0:0:0:0:
21,261,67854,1,0,1:0:0:0:
408,277,68079,1,0,0:0:0:0:
491,261,68229,2,0,B|482:185|508:141|484:198|493:82,1,170,0|0,1:0|1:0,0:0:0:0:
29,18,68979,6,0,B|3:109|60:178,1,170,0|0,1:0|1:0,0:0:0:0:
251,287,69579,1,0,0:0:0:0:
251,287,69654,1,0,0:0:0:0:
251,287,69729,1,0,1:0:0:0:
138,193,69879,2,2,P|153:199|169:206,1,34,2|0,0:3|0:0,0:0:0:0:
200,112,70029,2,2,P|205:139|209:160,1,34,2|0,0:3|1:0,0:0:0:0:
331,72,70179,2,2,P|324:99|319:124,1,34,2|0,0:3|0:0,0:0:0:0:
489,82,70329,2,2,P|477:109|473:132,1,34,2|0,0:3|0:0,0:0:0:0:
107,19,70479,102,0,B|105:76|131:141,1,102,4|0,1:2|0:0,0:0:0:0:
257,208,70854,2,0,B|319:211|372:187,1,102,0|0,1:0|0:0,0:0:0:0:
150,350,71229,1,0,1:0:0:0:
127,324,71304,1,0,0:0:0:0:
100,304,71379,1,0,1:0:0:0:
68,292,71454,1,0,1:0:0:0:
34,288,71529,1,0,1:0:0:0:
0,289,71604,1,0,1:0:0:0:
267,276,71754,1,0,1:0:0:0:
267,276,71829,1,0,1:0:0:0:
25,66,71979,6,0,B|9:139|45:188,1,102,0|0,1:0|0:0,0:0:0:0:
121,222,72354,2,0,B|170:198|227:194,1,102,0|0,1:0|0:0,0:0:0:0:
439,210,72729,1,0,1:0:0:0:
317,24,72879,2,2,L|313:67,1,34,2|0,0:3|0:0,0:0:0:0:
309,32,73029,2,2,L|305:75,1,34,2|0,0:3|1:0,0:0:0:0:
301,40,73179,2,2,L|297:83,1,34,2|0,0:3|0:0,0:0:0:0:
293,48,73329,2,2,L|289:91,1,34,2|0,0:3|0:0,0:0:0:0:
343,323,73479,101,4,1:2:0:0:
50,347,73704,1,0,0:0:0:0:
144,322,73854,1,0,1:0:0:0:
2,179,74079,1,0,0:0:0:0:
86,143,74229,2,0,B|102:86|88:21,1,102,0|0,1:0|0:0,0:0:0:0:
23,0,74604,1,0,1:0:0:0:
23,0,74829,1,0,0:0:0:0:
158,209,74979,6,0,B|227:232|265:185|324:208,1,170,0|0,1:0|1:0,0:0:0:0:
465,330,75579,1,0,0:0:0:0:
465,330,75654,1,0,0:0:0:0:
465,330,75729,1,0,1:0:0:0:
297,277,75879,2,2,L|293:320,1,34,2|0,0:3|0:0,0:0:0:0:
289,285,76029,2,2,L|285:328,1,34,2|0,0:3|1:0,0:0:0:0:
281,293,76179,2,2,L|277:336,1,34,0|0,0:3|0:0,0:0:0:0:
273,301,76329,2,2,L|269:344,1,34,0|0,0:3|0:0,0:0:0:0:
9,330,76479,102,0,B|61:338|132:371,1,102,4|0,1:2|0:0,0:0:0:0:
193,217,76854,2,0,B|155:260|102:270,1,102,0|0,1:0|0:0,0:0:0:0:
21,233,77229,1,0,1:0:0:0:
10,207,77304,1,0,0:0:0:0:
5,176,77379,1,0,0:0:0:0:
2,142,77454,1,0,0:0:0:0:
7,105,77529,1,0,0:0:0:0:
23,63,77604,1,0,1:0:0:0:
467,154,77829,5,0,1:0:0:0:
467,154,77904,1,0,1:0:0:0:
467,154,77979,2,0,B|441:197|453:262,1,102,0|0,1:0|0:0,0:0:0:0:
500,357,78354,2,0,B|457:328|375:325,1,102,0|0,1:0|0:0,0:0:0:0:
132,289,78729,1,0,1:0:0:0:
262,360,78879,2,2,L|257:309,1,34,2|0,0:3|0:0,0:0:0:0:
270,352,79029,2,2,L|265:301,1,34,2|0,0:3|1:0,0:0:0:0:
278,344,79179,2,2,L|273:293,1,34,2|0,0:3|0:0,0:0:0:0:
286,336,79329,2,2,L|281:285,1,34,2|0,0:3|0:0,0:0:0:0:
260,36,79479,101,4,1:2:0:0:
51,120,79704,1,0,0:0:0:0:
71,207,79854,1,0,1:0:0:0:
441,207,80079,1,0,0:0:0:0:
461,120,80229,1,0,1:0:0:0:
464,105,80304,1,0,0:0:0:0:
467,91,80379,1,0,1:0:0:0:
468,77,80454,1,0,0:0:0:0:
468,62,80529,1,0,1:0:0:0:
467,47,80604,1,0,1:0:0:0:
84,273,80829,5,0,1:0:0:0:
84,273,80904,1,0,1:0:0:0:
84,273,80979,2,0,L|239:264,1,153.000005836487,4|0,1:2|0:0,0:0:0:0:
395,316,81354,1,0,1:0:0:0:
395,316,81429,1,0,1:0:0:0:
84,273,81579,101,0,1:0:0:0:
84,273,81654,1,0,1:0:0:0:
84,273,81729,2,0,L|239:264,1,153.000005836487,4|0,1:2|0:0,0:0:0:0:
395,316,82104,1,0,1:0:0:0:
395,316,82179,1,0,1:0:0:0:
84,273,82329,5,0,1:0:0:0:
84,273,82404,1,0,1:0:0:0:
84,273,82479,2,0,B|52:206|59:163|69:110,1,153.000005836487,4|0,1:2|0:0,0:0:0:0:
321,153,82779,1,0,0:0:0:0:
321,153,82854,101,4,1:2:0:0:
321,153,82929,2,0,B|250:152|181:169,1,102.000003890991,0|0,0:0|1:0,0:0:0:0:
147,165,83154,1,0,1:0:0:0:
147,165,83229,5,0,1:0:0:0:
408,234,83379,1,0,1:0:0:0:
404,198,83454,1,0,1:0:0:0:
400,162,83529,1,0,1:0:0:0:
396,126,83604,1,4,1:3:0:0:
392,90,83679,1,0,1:0:0:0:
82,295,83829,1,0,1:0:0:0:
78,259,83904,1,0,1:0:0:0:
4,228,83979,6,0,B|99:239|207:256,1,203.999993774414,4|0,0:2|1:0,0:0:0:0:
379,291,84504,1,0,0:0:0:0:
370,310,84579,1,0,0:0:0:0:
362,328,84654,1,0,0:0:0:0:
354,347,84729,2,0,B|357:262|355:121,1,203.999993774414,4|0,0:3|1:0,0:0:0:0:
24,35,85254,1,0,0:0:0:0:
24,35,85329,1,0,0:0:0:0:
24,35,85404,1,0,0:0:0:0:
24,35,85479,2,0,B|64:73|145:82,1,122.399996264649,4|0,0:3|0:0,0:0:0:0:
211,125,85779,1,0,0:0:0:0:
198,133,85854,2,0,B|214:66|240:9,1,122.399996264649,0|0,1:0|0:0,0:0:0:0:
330,12,86154,1,0,0:0:0:0:
330,12,86229,69,4,0:3:0:0:
243,192,86379,1,4,0:3:0:0:
0,132,86529,1,4,0:3:0:0:
83,238,86679,21,8,0:3:0:0:
292,130,86829,1,8,0:3:0:0:
497,180,86979,2,0,B|482:316|479:383,1,203.999993774414,4|0,0:2|1:0,0:0:0:0:
23,311,87504,1,0,0:0:0:0:
23,311,87579,1,0,0:0:0:0:
23,311,87654,1,0,0:0:0:0:
23,311,87729,2,0,B|112:322|261:353,1,203.999993774414,4|0,0:3|1:0,0:0:0:0:
362,181,88254,1,0,0:0:0:0:
349,196,88329,1,0,0:0:0:0:
336,211,88404,1,0,0:0:0:0:
323,226,88479,102,0,B|274:210|195:198,1,122.399996264649,4|0,0:3|0:0,0:0:0:0:
141,235,88779,1,0,0:0:0:0:
81,192,88854,2,0,B|87:145|91:60,1,122.399996264649,0|0,1:0|0:0,0:0:0:0:
71,39,89154,1,0,0:0:0:0:
52,11,89229,21,4,0:3:0:0:
150,256,89379,1,4,0:3:0:0:
0,104,89529,1,4,0:3:0:0:
271,103,89679,69,8,0:3:0:0:
9,227,89829,1,8,0:3:0:0:
356,186,89979,2,0,B|428:191|483:197,1,122.399996264649,4|0,0:2|0:0,0:0:0:0:
135,352,90354,21,0,1:0:0:0:
126,314,90429,1,0,0:0:0:0:
115,277,90504,1,0,0:0:0:0:
101,241,90579,1,0,0:0:0:0:
85,206,90654,1,0,0:0:0:0:
9,227,90729,1,4,0:3:0:0:
42,0,91104,101,4,1:2:0:0:
66,51,91179,1,0,0:0:0:0:
110,87,91254,1,0,0:0:0:0:
164,103,91329,1,0,0:0:0:0:
220,96,91404,1,0,0:0:0:0:
269,67,91479,1,4,0:2:0:0:
458,325,91854,21,0,1:0:0:0:
461,292,91929,1,0,0:0:0:0:
466,260,92004,1,0,0:0:0:0:
471,228,92079,1,0,0:0:0:0:
477,196,92154,1,0,0:0:0:0:
406,161,92229,1,4,0:3:0:0:
26,270,92604,69,4,1:2:0:0:
82,265,92679,1,0,0:0:0:0:
139,274,92754,1,0,0:0:0:0:
191,296,92829,1,0,0:0:0:0:
237,330,92904,1,0,0:0:0:0:
274,373,92979,1,4,0:2:0:0:
26,270,93354,21,0,1:0:0:0:
82,278,93429,1,0,0:0:0:0:
138,271,93504,1,0,0:0:0:0:
191,248,93579,1,0,0:0:0:0:
235,212,93654,1,0,0:0:0:0:
255,135,93729,1,4,0:3:0:0:
467,263,93954,101,0,0:0:0:0:
458,263,94029,1,0,0:0:0:0:
449,264,94104,1,0,1:0:0:0:
440,265,94179,1,0,0:0:0:0:
431,266,94254,1,0,0:0:0:0:
423,267,94329,1,0,0:0:0:0:
414,268,94404,1,0,0:0:0:0:
405,269,94479,37,4,1:3:0:0:
392,271,94554,2,0,B|435:277|467:285,1,40.7999987548829
280,218,94704,1,4,0:3:0:0:
269,248,94779,1,4,0:3:0:0:
266,280,94854,1,4,1:2:0:0:
273,311,94929,2,0,B|287:342|303:360,1,40.7999987548829
59,135,95079,1,4,0:3:0:0:
66,183,95154,1,4,0:3:0:0:
87,227,95229,1,4,1:2:0:0:
120,263,95304,2,0,B|161:292|188:301,1,40.7999987548829
0,54,95454,5,4,0:3:0:0:
52,95,95529,1,4,0:3:0:0:
112,122,95604,1,0,1:2:0:0:
176,136,95679,1,0,1:0:0:0:
243,134,95754,1,0,1:0:0:0:
307,117,95829,1,0,1:0:0:0:
365,86,95904,1,0,1:0:0:0:
438,50,95979,86,0,B|449:102|439:143|439:143|456:197|431:272,1,203.999993774414,4|0,0:2|1:0,0:0:0:0:
96,328,96504,1,0,0:0:0:0:
96,328,96579,1,0,0:0:0:0:
96,328,96654,1,0,0:0:0:0:
96,328,96729,2,0,B|181:319|216:379|298:362,1,203.999993774414,4|0,0:3|1:0,0:0:0:0:
13,192,97254,69,0,0:0:0:0:
13,192,97329,1,0,0:0:0:0:
13,192,97404,1,0,0:0:0:0:
13,192,97479,2,0,B|80:207|142:232,1,122.399996264649,4|0,0:3|0:0,0:0:0:0:
191,163,97779,1,0,0:0:0:0:
191,163,97854,2,0,B|184:113|179:34,1,122.399996264649,0|0,1:0|0:0,0:0:0:0:
249,0,98154,1,0,0:0:0:0:
249,0,98229,21,4,0:3:0:0:
118,143,98379,1,4,0:3:0:0:
216,300,98529,1,4,0:3:0:0:
67,78,98679,101,8,0:3:0:0:
271,227,98829,1,8,0:3:0:0:
500,209,98979,2,0,B|513:146|493:104|493:104|511:54|500:4,1,203.999993774414,4|0,0:2|1:0,0:0:0:0:
363,224,99504,1,0,0:0:0:0:
363,224,99579,1,0,0:0:0:0:
363,224,99654,1,0,0:0:0:0:
363,224,99729,2,0,B|363:273|374:316,1,81.5999975097657,4|0,1:3|0:0,0:0:0:0:
240,370,99954,1,0,0:0:0:0:
204,333,100029,1,0,0:0:0:0:
176,290,100104,1,0,1:0:0:0:
155,244,100179,1,0,0:0:0:0:
142,195,100254,2,0,B|126:139|120:93,1,81.5999975097657
11,2,100479,21,4,0:2:0:0:
320,51,100704,1,0,0:0:0:0:
267,81,100779,1,0,0:0:0:0:
207,91,100854,1,4,1:2:0:0:
334,255,101079,1,0,0:0:0:0:
294,246,101154,1,0,0:0:0:0:
255,234,101229,1,4,0:2:0:0:
218,216,101304,1,0,0:0:0:0:
0,252,101454,69,0,0:0:0:0:
72,262,101529,1,0,1:0:0:0:
128,293,101604,1,0,1:0:0:0:
166,335,101679,1,0,1:0:0:0:
188,373,101754,1,0,1:2:0:0:
487,312,101904,1,0,0:0:0:0:
487,312,101979,1,4,0:2:0:0:
110,135,102354,21,0,1:0:0:0:
152,143,102429,1,0,0:0:0:0:
208,143,102504,1,0,0:0:0:0:
269,122,102579,1,0,0:0:0:0:
324,75,102654,1,0,0:0:0:0:
364,10,102729,1,4,0:3:0:0:
0,97,103104,101,4,1:2:0:0:
42,159,103179,1,0,0:0:0:0:
100,202,103254,1,0,0:0:0:0:
162,220,103329,1,0,1:0:0:0:
218,218,103404,1,0,1:0:0:0:
260,208,103479,1,4,1:2:0:0:
473,377,103704,21,0,0:0:0:0:
482,362,103779,1,0,0:0:0:0:
491,344,103854,1,0,1:0:0:0:
496,321,103929,1,0,0:0:0:0:
496,292,104004,1,0,0:0:0:0:
491,258,104079,1,0,0:0:0:0:
477,222,104154,1,0,0:0:0:0:
434,161,104229,69,4,1:2:0:0:
368,267,104379,1,4,1:2:0:0:
112,94,104529,1,4,1:2:0:0:
147,336,104679,1,4,1:2:0:0:
329,162,104829,21,4,1:2:0:0:
1,126,104979,69,4,1:2:0:0:
69,199,105129,1,0,0:0:0:0:
109,193,105204,1,0,1:0:0:0:
150,195,105279,1,0,0:0:0:0:
189,205,105354,1,0,1:0:0:0:
226,222,105429,1,0,1:0:0:0:
263,317,105579,1,0,1:0:0:0:
1,126,105729,37,4,1:2:0:0:
69,199,105879,1,0,0:0:0:0:
106,186,105954,1,0,1:0:0:0:
142,165,106029,1,0,0:0:0:0:
172,139,106104,1,0,1:0:0:0:
197,106,106179,1,0,1:0:0:0:
209,6,106329,1,0,1:0:0:0:
497,134,106479,69,4,1:2:0:0:
500,137,106554,1,0,1:0:0:0:
404,185,106704,1,0,0:0:0:0:
363,185,106779,1,0,0:0:0:0:
322,180,106854,1,0,1:0:0:0:
283,169,106929,1,0,1:0:0:0:
199,221,107079,1,0,1:0:0:0:
497,134,107229,37,4,1:2:0:0:
500,137,107304,1,0,1:0:0:0:
404,185,107454,1,0,0:0:0:0:
372,210,107529,1,0,0:0:0:0:
344,240,107604,1,0,1:0:0:0:
322,274,107679,1,0,1:0:0:0:
285,362,107829,1,0,1:0:0:0:
21,249,107979,69,4,1:2:0:0:
24,252,108054,1,0,1:0:0:0:
76,384,108204,1,0,1:0:0:0:
118,242,108354,1,0,1:0:0:0:
3,330,108504,1,0,1:0:0:0:
147,326,108654,1,0,1:0:0:0:
150,329,108729,21,4,0:0:0:0:
182,330,108804,1,4,0:0:0:0:
213,334,108879,1,4,0:0:0:0:
245,340,108954,1,4,0:0:0:0:
277,347,109029,1,4,0:0:0:0:
308,358,109104,21,12,0:0:0:0:
282,307,109179,1,12,0:0:0:0:
265,252,109254,1,12,0:0:0:0:
257,196,109329,1,12,0:0:0:0:
259,139,109404,1,12,0:0:0:0:
270,83,109479,1,12,1:3:0:0:
279,38,109554,2,0,B|288:8|303:-18,1,40.7999987548829
72,72,109704,5,4,0:3:0:0:
94,87,109779,1,4,0:3:0:0:
118,99,109854,1,4,1:2:0:0:
144,109,109929,2,0,B|177:115|206:118,1,40.7999987548829
0,233,110079,5,4,0:3:0:0:
34,211,110154,1,4,0:3:0:0:
71,194,110229,1,4,1:2:0:0:
111,185,110304,2,0,B|143:180|171:179,1,40.7999987548829
97,365,110454,101,4,0:3:0:0:
120,336,110529,1,4,0:3:0:0:
154,304,110604,1,0,1:0:0:0:
199,272,110679,1,0,1:0:0:0:
258,243,110754,1,0,1:0:0:0:
328,220,110829,1,0,1:0:0:0:
406,205,110904,1,0,1:0:0:0:
491,199,110979,6,0,B|508:287|502:379,1,170,12|0,0:2|1:0,0:0:0:0:
29,95,111504,1,0,0:0:0:0:
29,95,111579,1,0,0:2:0:0:
29,95,111654,1,0,0:2:0:0:
29,95,111729,2,0,B|90:160|193:114,1,170,4|0,0:3|1:0,0:0:0:0:
485,59,112404,101,0,0:0:0:0:
485,59,112479,1,4,0:2:0:0:
278,132,112704,1,0,0:2:0:0:
269,81,112779,1,0,0:2:0:0:
261,30,112854,1,0,1:0:0:0:
403,284,113079,1,0,0:0:0:0:
491,168,113229,2,0,B|425:173|360:183,1,102,4|0,0:3|0:0,0:0:0:0:
0,252,113604,5,0,1:2:0:0:
72,262,113679,1,0,0:2:0:0:
128,293,113754,1,0,0:2:0:0:
166,335,113829,1,0,0:2:0:0:
182,360,113904,1,0,0:2:0:0:
193,384,113979,2,0,B|194:293|203:213,1,170,4|0,0:3|1:0,0:0:0:0:
0,140,114504,1,0,0:0:0:0:
0,140,114579,1,0,0:2:0:0:
0,140,114654,1,0,0:0:0:0:
0,140,114729,2,0,B|66:132|108:130,1,102,4|0,0:3|0:0,0:0:0:0:
270,189,115104,1,0,1:0:0:0:
238,17,115404,101,0,0:0:0:0:
238,17,115479,1,4,0:2:0:0:
304,288,115704,1,0,0:0:0:0:
354,271,115779,1,0,0:0:0:0:
406,265,115854,1,0,1:0:0:0:
62,241,116079,1,0,0:0:0:0:
204,349,116229,1,4,0:3:0:0:
488,303,116454,1,0,0:0:0:0:
491,306,116529,5,0,0:0:0:0:
496,272,116604,1,4,1:2:0:0:
500,238,116679,1,0,0:0:0:0:
501,204,116754,1,0,0:0:0:0:
499,170,116829,1,0,0:0:0:0:
495,137,116904,1,0,0:0:0:0:
454,71,116979,1,4,0:2:0:0:
64,153,117204,101,0,0:0:0:0:
111,127,117279,1,0,0:0:0:0:
162,111,117354,1,0,1:0:0:0:
3,250,117504,1,0,0:0:0:0:
56,269,117579,1,0,0:0:0:0:
106,296,117654,1,0,0:0:0:0:
151,329,117729,1,4,0:3:0:0:
412,196,118029,5,0,0:0:0:0:
410,142,118104,1,0,1:0:0:0:
274,369,118254,1,0,0:0:0:0:
316,332,118329,1,0,0:0:0:0:
365,302,118404,1,0,0:0:0:0:
416,280,118479,1,4,0:2:0:0:
212,219,118854,1,0,1:0:0:0:
218,238,118929,1,0,0:0:0:0:
216,258,119004,1,0,0:0:0:0:
222,277,119079,1,0,0:0:0:0:
225,297,119154,1,0,0:0:0:0:
229,317,119229,101,4,0:3:0:0:
135,204,119379,1,8,0:3:0:0:
0,153,119529,1,8,0:3:0:0:
106,107,119679,1,8,0:3:0:0:
166,8,119829,1,8,0:3:0:0:
0,0,119979,101,4,0:2:0:0:
19,39,120054,1,0,0:0:0:0:
51,70,120129,1,0,0:0:0:0:
94,84,120204,1,0,0:0:0:0:
140,84,120279,1,0,0:0:0:0:
184,75,120354,69,0,1:2:0:0:
164,82,120429,1,0,0:0:0:0:
146,91,120504,1,0,0:0:0:0:
129,102,120579,1,0,0:0:0:0:
113,115,120654,1,0,0:0:0:0:
97,128,120729,5,4,0:3:0:0:
118,165,120804,1,0,0:0:0:0:
151,193,120879,1,0,0:0:0:0:
193,208,120954,1,0,0:0:0:0:
238,208,121029,1,0,0:0:0:0:
281,200,121104,5,0,1:2:0:0:
307,245,121179,1,0,0:0:0:0:
347,279,121254,1,0,0:0:0:0:
398,297,121329,1,0,0:0:0:0:
453,297,121404,1,0,0:0:0:0:
504,278,121479,1,4,1:3:0:0:
508,228,121554,2,0,B|511:199|512:172,1,34
228,223,121704,21,4,0:3:0:0:
217,253,121779,1,4,0:3:0:0:
214,285,121854,1,4,1:2:0:0:
221,316,121929,2,0,B|235:347|248:361,1,34,0|0,0:3|0:0,0:0:0:0:
0,138,122079,1,4,0:3:0:0:
7,183,122154,1,4,0:3:0:0:
27,225,122229,1,4,1:2:0:0:
58,258,122304,2,0,B|97:286|112:293,1,34,0|0,0:3|0:0,0:0:0:0:
64,10,122454,5,4,0:3:0:0:
89,39,122529,1,4,0:3:0:0:
125,71,122604,1,0,1:0:0:0:
174,103,122679,1,0,1:2:0:0:
238,132,122754,1,0,1:0:0:0:
313,155,122829,1,0,1:0:0:0:
397,170,122904,1,0,1:0:0:0:
487,177,122979,102,0,B|496:97|499:-3,1,170,12|0,1:2|1:0,0:0:0:0:
41,301,123504,1,0,0:0:0:0:
41,301,123579,1,0,0:0:0:0:
41,301,123654,1,0,0:0:0:0:
41,301,123729,2,0,B|119:254|207:258,1,170,4|0,0:3|1:0,0:0:0:0:
499,331,124404,5,0,0:0:0:0:
499,331,124479,1,4,0:2:0:0:
295,248,124704,1,0,0:0:0:0:
286,299,124779,1,0,0:0:0:0:
278,350,124854,1,0,1:0:0:0:
417,106,125079,1,0,0:0:0:0:
505,222,125228,2,0,B|454:218|403:212,1,102,4|0,0:3|0:0,0:0:0:0:
218,141,125604,101,0,1:0:0:0:
145,134,125679,1,0,0:0:0:0:
84,152,125754,1,0,0:0:0:0:
37,184,125829,1,0,0:0:0:0:
11,208,125904,1,0,0:0:0:0:
0,225,125979,2,0,B|7:134|8:50,1,170,4|0,0:3|1:0,0:0:0:0:
198,210,126504,1,0,0:0:0:0:
198,210,126579,1,0,0:0:0:0:
198,210,126654,1,0,0:0:0:0:
198,210,126729,2,0,B|167:265|168:330,1,102,4|0,0:3|0:0,0:0:0:0:
165,384,127104,1,0,1:0:0:0:
508,314,127404,5,0,0:0:0:0:
508,314,127479,1,4,0:2:0:0:
198,210,127704,1,0,1:0:0:0:
252,237,127779,1,0,1:0:0:0:
312,243,127854,1,0,1:0:0:0:
484,46,128079,1,0,0:0:0:0:
401,322,128229,1,4,0:2:0:0:
187,165,128454,1,0,0:0:0:0:
190,178,128529,1,0,0:0:0:0:
193,191,128604,101,0,1:0:0:0:
242,154,128679,1,0,1:0:0:0:
259,106,128754,1,0,1:0:0:0:
262,61,128829,1,0,1:0:0:0:
255,34,128904,1,0,1:0:0:0:
182,0,128979,5,4,0:2:0:0:
0,336,129354,101,0,1:0:0:0:
29,304,129429,1,0,0:0:0:0:
74,271,129504,1,0,0:0:0:0:
136,253,129579,1,0,0:0:0:0:
208,258,129654,1,0,0:0:0:0:
278,287,129729,1,0,0:2:0:0:
182,0,130029,5,0,0:0:0:0:
232,56,130104,1,4,1:2:0:0:
294,92,130179,1,0,0:0:0:0:
358,103,130254,1,0,0:0:0:0:
413,93,130329,1,0,0:0:0:0:
453,77,130404,1,0,0:0:0:0:
477,54,130479,1,4,0:2:0:0:
352,384,130704,101,0,0:0:0:0:
362,374,130779,1,0,0:0:0:0:
379,358,130854,1,0,0:0:0:0:
395,331,130929,1,0,0:0:0:0:
405,295,131004,1,0,0:0:0:0:
404,250,131079,1,0,0:0:0:0:
384,202,131154,1,0,0:0:0:0:
340,158,131229,2,0,B|373:171|392:175,1,34,4|0,0:2|2:0,0:0:0:0:
509,187,131379,2,0,B|485:191|464:196,1,34,4|0,0:2|2:0,0:0:0:0:
258,242,131529,2,0,B|286:238|306:237,1,34,4|0,0:3|2:0,0:0:0:0:
508,204,131679,2,0,B|484:208|463:213,1,34,4|0,0:2|2:0,0:0:0:0:
236,101,131829,2,0,B|265:105|283:105,1,34,4|0,0:3|2:0,0:0:0:0:
81,292,131979,37,12,1:2:0:0:
33,206,132129,1,0,0:0:0:0:
65,196,132204,1,0,1:0:0:0:
95,180,132279,1,0,0:0:0:0:
122,160,132354,1,0,1:0:0:0:
147,136,132429,1,0,1:0:0:0:
151,55,132579,1,0,1:0:0:0:
81,292,132729,37,4,1:2:0:0:
33,206,132879,1,0,0:0:0:0:
20,175,132954,1,0,1:0:0:0:
13,141,133029,1,0,0:0:0:0:
11,108,133104,1,0,1:0:0:0:
13,73,133179,1,0,1:0:0:0:
78,12,133329,1,0,1:0:0:0:
332,109,133479,69,4,1:2:0:0:
335,112,133554,1,0,1:0:0:0:
250,198,133704,1,0,0:0:0:0:
258,230,133779,1,0,0:0:0:0:
264,264,133854,1,0,1:0:0:0:
268,298,133929,1,0,1:0:0:0:
341,379,134079,1,0,1:0:0:0:
332,109,134229,37,4,1:2:0:0:
335,112,134304,1,0,1:0:0:0:
250,198,134454,1,0,0:0:0:0:
221,215,134529,1,0,0:0:0:0:
190,231,134604,1,0,1:0:0:0:
160,246,134679,1,0,1:0:0:0:
51,260,134829,1,0,1:0:0:0:
21,129,134979,69,4,1:2:0:0:
24,132,135054,1,0,1:0:0:0:
82,0,135204,1,0,1:0:0:0:
120,134,135354,1,0,1:0:0:0:
7,48,135504,1,0,1:0:0:0:
147,52,135654,1,0,1:0:0:0:
150,55,135729,21,4,0:0:0:0:
182,54,135804,1,4,0:0:0:0:
213,50,135879,1,4,0:0:0:0:
245,44,135954,1,4,0:0:0:0:
277,37,136029,1,4,0:0:0:0:
308,26,136104,21,12,0:0:0:0:
282,77,136179,1,12,0:0:0:0:
265,132,136254,1,12,0:0:0:0:
257,188,136329,1,12,0:0:0:0:
259,245,136404,1,12,0:0:0:0:
270,301,136479,1,12,1:3:0:0:
279,346,136554,2,0,B|288:376|297:404,1,40.7999987548829
64,267,136704,5,4,0:3:0:0:
90,287,136779,1,4,0:3:0:0:
119,305,136854,1,4,1:2:0:0:
149,319,136929,2,0,B|176:325|203:328,1,40.7999987548829
15,98,137079,5,4,0:3:0:0:
40,133,137154,1,4,0:3:0:0:
69,169,137229,1,4,1:2:0:0:
102,199,137304,2,0,B|135:218|162:230,1,40.7999987548829
492,203,137454,101,4,0:3:0:0:
464,197,137529,1,4,0:3:0:0:
425,194,137604,1,0,1:0:0:0:
374,194,137679,1,0,1:0:0:0:
314,203,137754,1,0,1:0:0:0:
254,224,137829,1,0,1:0:0:0:
199,256,137904,1,0,1:0:0:0:
146,295,137979,1,4,1:3:0:0:
100,345,138054,2,0,B|79:367|68:394,1,40.7999987548829
15,98,138204,5,4,0:3:0:0:
40,133,138279,1,4,0:3:0:0:
69,169,138354,1,4,1:2:0:0:
102,199,138429,2,0,B|135:218|162:230,1,40.7999987548829
218,4,138579,101,4,0:3:0:0:
204,56,138654,1,4,0:3:0:0:
200,110,138729,1,4,1:2:0:0:
352,271,138879,1,4,1:2:0:0:
413,86,139029,1,4,1:3:0:0:
132,59,139179,5,4,1:2:0:0:
199,181,139329,1,4,1:3:0:0:
242,382,139479,1,4,1:2:0:0:
256,192,139554,12,2,145479,2:2:0:0:
