osu file format v14

[General]
AudioFilename: audio.mp3
AudioLeadIn: 0
PreviewTime: 110979
Countdown: 0
SampleSet: Drum
StackLeniency: 0.5
Mode: 0
LetterboxInBreaks: 0
WidescreenStoryboard: 1

[Editor]
Bookmarks: 14979,26979,35979,59979,83979,110979,122979
DistanceSpacing: 0.6
BeatDivisor: 5
GridSize: 8
TimelineZoom: 3.699999

[Metadata]
Title:Shirayama Hime no Kami
TitleUnicode:白山比咩神
Artist:DWMw
ArtistUnicode:DWMω
Creator:Luscent
Version:Insane
Source:
Tags:BMS of fighters 2013 Bof2013 abe3 abe yuta Hakusan 古伝新韻二十打ち Koden Shin'in Nijuu Uchi Shinin Ancient Remains Arranged 20 Beats Electronic Video Game Instrumental 404 AimNotFound Down YokesPai DeviousPanda
BeatmapID:2983190
BeatmapSetID:1367344

[Difficulty]
HPDrainRate:5
CircleSize:4
OverallDifficulty:8
ApproachRate:9
SliderMultiplier:1.6
SliderTickRate:1

[Events]
//Background and Video events
0,0,"srym.jpg",0,0
//Break Periods
//Storyboard Layer 0 (Background)
//Storyboard Layer 1 (Fail)
//Storyboard Layer 2 (Pass)
//Storyboard Layer 3 (Foreground)
//Storyboard Layer 4 (Overlay)
//Storyboard Sound Samples

[TimingPoints]
1479,375,4,2,1,30,1,0
2979,-125,4,2,1,30,0,0
13104,-100,4,2,1,30,0,0
13479,-83.3333333333333,4,2,1,30,0,0
13854,-71.4285714285714,4,2,1,30,0,0
14229,-62.5,4,2,1,30,0,0
14604,-133.333333333333,4,2,1,30,0,0
14979,-100,4,2,1,50,0,0
26979,-71.4285714285714,4,3,1,65,0,0
31479,-71.4285714285714,4,3,1,70,0,0
32979,-71.4285714285714,4,3,1,85,0,0
35979,-100,4,3,1,65,0,0
80829,-100,4,3,1,70,0,0
80979,-83.3333333333333,4,3,1,70,0,0
83979,-71.4285714285714,4,3,1,75,0,0
94479,-71.4285714285714,4,3,1,85,0,0
95979,-71.4285714285714,4,3,1,75,0,0
104979,-83.3333333333333,4,3,1,70,0,0
109854,-83.3333333333333,4,3,1,80,0,0
110229,-83.3333333333333,4,3,1,90,0,0
110604,-83.3333333333333,4,3,1,100,0,0
110979,-100,4,3,1,85,0,0
121479,-100,4,3,1,70,0,0
121854,-100,4,3,1,80,0,0
122229,-100,4,3,1,90,0,0
122604,-100,4,3,1,100,0,0
122979,-100,4,3,1,85,0,0
131979,-83.3333333333333,4,3,1,90,0,0
136479,-83.3333333333333,4,3,1,70,0,0
136854,-83.3333333333333,4,3,1,80,0,0
137229,-83.3333333333333,4,3,1,90,0,0
137604,-83.3333333333333,4,3,1,100,0,0
137979,-83.3333333333333,4,3,1,80,0,0
138354,-83.3333333333333,4,3,1,90,0,0
138729,-83.3333333333333,4,3,1,100,0,0
139554,-83.3333333333333,4,3,1,90,0,0
140229,-83.3333333333333,4,3,1,80,0,0
140979,-83.3333333333333,4,3,1,70,0,0
141729,-83.3333333333333,4,3,1,60,0,0
142479,-83.3333333333333,4,3,1,50,0,0
143229,-83.3333333333333,4,3,1,40,0,0
143979,-83.3333333333333,4,3,1,30,0,0
144729,-83.3333333333333,4,3,1,20,0,0
145479,-83.3333333333333,4,2,2,55,0,0

[Colours]
Combo1 : 249,254,186
Combo2 : 248,211,171
Combo3 : 171,252,203
Combo4 : 242,56,36
Combo5 : 249,98,60
Combo6 : 255,255,255
Combo7 : 208,198,176
Combo8 : 175,221,254

[HitObjects]
93,294,2979,86,0,P|71:230|80:158,1,128,0|0,3:0|0:0,0:0:0:0:
210,188,3729,1,2,0:0:0:0:
210,188,4104,2,0,P|199:130|196:56,1,128,0|0,0:0|3:0,0:0:0:0:
317,319,4854,2,0,P|331:245|356:184,1,128,2|0,0:0|0:0,0:0:0:0:
427,365,5604,1,0,0:0:0:0:
427,365,5979,102,0,P|358:374|280:389,2,128,0|0|2,3:0|0:0|0:0,0:0:0:0:
276,200,7104,2,0,P|239:261|247:326,1,128,0|0,0:0|3:0,0:0:0:0:
115,384,7854,1,0,0:0:0:0:
21,243,8079,1,2,0:0:0:0:
98,259,8229,1,2,0:0:0:0:
221,146,8454,1,2,3:2:0:0:
168,154,8604,1,2,0:0:0:0:
52,31,8829,1,2,0:0:0:0:
85,33,8979,6,0,P|138:35|221:40,1,128,2|0,3:2|0:0,0:0:0:0:
318,181,9579,1,0,0:0:0:0:
318,181,9729,2,0,P|307:114|321:44,1,128,2|0,0:0|0:0,0:0:0:0:
510,148,10479,2,0,P|495:218|455:279,1,128,0|2,3:0|0:0,0:0:0:0:
386,330,11079,1,0,0:0:0:0:
386,330,11229,2,0,P|333:316|296:313,1,76.8
228,362,11604,1,2,0:0:0:0:
228,362,11979,102,0,P|218:271|212:228,1,128,0|0,3:0|0:0,0:0:0:0:
27,226,12579,1,0,0:0:0:0:
27,226,12729,2,0,P|72:218|117:214,1,76.8,2|0,0:0|0:0,0:0:0:0:
269,81,13104,2,0,P|231:110|184:116,1,96
184,116,13479,6,0,P|246:151|287:200,1,115.199996484375,0|0,3:0|0:0,0:0:0:0:
382,313,13854,102,0,P|416:239|471:180,1,134.399995898438,0|0,3:0|0:0,0:0:0:0:
442,101,14229,5,0,3:0:0:0:
442,101,14454,1,0,3:0:0:0:
276,183,14604,2,0,P|239:181|202:179,1,72.0000027465821,0|0,1:0|0:0,0:0:0:0:
0,204,14979,38,0,P|30:256|46:327,1,128,4|0,3:2|0:0,0:0:0:0:
45,321,15354,2,0,P|110:305|149:301,1,96,0|0,1:0|0:0,0:0:0:0:
244,66,15729,2,0,P|205:116|208:190,1,128,0|0,3:0|0:0,0:0:0:0:
203,178,16104,2,0,P|250:182|298:185,1,96,0|0,1:0|0:0,0:0:0:0:
454,136,16479,101,4,3:0:0:0:
454,136,16704,1,4,3:0:0:0:
418,355,17079,1,0,3:0:0:0:
344,305,17229,2,0,P|336:253|342:203,1,96,0|0,3:0|1:0,0:0:0:0:
346,195,17529,1,0,1:0:0:0:
354,181,17604,1,0,1:0:0:0:
160,297,17829,1,2,1:2:0:0:
43,228,17979,6,0,P|89:223|146:218,1,96,4|0,3:2|0:0,0:0:0:0:
292,120,18354,2,0,P|245:111|202:89,1,96,0|0,1:0|0:0,0:0:0:0:
0,33,18729,2,0,P|46:24|89:2,1,96,0|0,3:0|0:0,0:0:0:0:
130,136,19104,1,0,1:0:0:0:
454,136,19479,101,4,3:0:0:0:
454,136,19704,1,4,3:0:0:0:
418,355,20079,1,0,3:0:0:0:
344,305,20229,2,0,P|291:308|240:317,1,96,0|0,3:0|1:0,0:0:0:0:
233,320,20529,1,0,1:0:0:0:
217,325,20604,1,0,1:0:0:0:
369,154,20829,1,2,1:2:0:0:
274,30,20979,6,0,P|283:77|287:124,1,96,4|0,3:2|0:0,0:0:0:0:
169,270,21354,2,0,P|162:220|151:166,1,96,0|0,1:0|0:0,0:0:0:0:
0,74,21729,2,0,P|4:132|17:192,1,96,0|0,3:0|0:0,0:0:0:0:
92,285,22104,1,0,1:0:0:0:
454,136,22479,101,4,3:0:0:0:
454,136,22704,1,4,3:0:0:0:
418,355,23079,1,0,3:0:0:0:
344,305,23229,2,0,P|300:275|268:237,1,96,0|0,3:0|1:0,0:0:0:0:
264,228,23529,1,0,1:0:0:0:
256,213,23604,1,0,1:0:0:0:
223,33,23829,1,2,1:2:0:0:
329,52,23979,6,0,P|314:96|310:157,1,96,4|0,3:2|0:0,0:0:0:0:
98,269,24354,2,0,P|144:268|207:255,1,96,0|0,1:0|0:0,0:0:0:0:
346,369,24729,2,0,P|349:306|368:249,1,96,0|0,3:0|0:0,0:0:0:0:
229,115,25104,1,0,1:0:0:0:
454,136,25479,101,4,3:0:0:0:
454,136,25704,1,4,3:0:0:0:
418,355,26079,1,0,3:0:0:0:
344,305,26229,2,0,P|291:308|240:317,1,96,0|0,3:0|1:0,0:0:0:0:
233,319,26529,1,0,1:0:0:0:
217,323,26604,1,0,1:0:0:0:
141,343,26829,1,0,1:0:0:0:
41,251,26979,21,4,0:2:0:0:
21,221,27054,1,0,0:0:0:0:
6,188,27129,1,0,0:0:0:0:
6,152,27204,2,0,P|8:126|16:98,1,44.7999986328125
210,224,27354,1,0,1:0:0:0:
210,224,27429,2,0,P|150:239|95:270,1,89.5999972656251,0|0,1:0|1:0,0:0:0:0:
264,27,27729,69,4,0:2:0:0:
282,57,27804,1,0,0:0:0:0:
290,91,27879,1,0,0:0:0:0:
284,126,27954,2,0,P|283:160|277:188,1,44.7999986328125
90,32,28104,1,0,1:0:0:0:
90,32,28179,2,0,P|163:43|211:55,1,89.5999972656251,0|0,1:0|1:0,0:0:0:0:
501,26,28479,37,4,0:2:0:0:
363,96,28629,1,0,0:0:0:0:
369,128,28704,2,0,P|373:157|377:184,1,44.7999986328125
498,266,28854,1,0,1:0:0:0:
498,266,28929,2,0,P|508:197|516:155,1,89.5999972656251,0|0,1:0|1:0,0:0:0:0:
383,351,29229,69,4,0:2:0:0:
348,360,29304,1,0,0:0:0:0:
312,357,29379,1,0,0:0:0:0:
279,342,29454,2,0,P|257:318|248:296,1,44.7999986328125
50,214,29604,1,0,1:0:0:0:
50,214,29679,2,0,P|65:279|70:332,1,89.5999972656251,0|0,1:0|1:0,0:0:0:0:
180,355,29979,37,4,0:2:0:0:
180,355,30054,1,0,0:0:0:0:
180,355,30129,2,0,P|147:360|120:367,2,44.7999986328125
316,269,30354,1,0,1:0:0:0:
316,269,30429,2,0,P|305:225|302:180,1,89.5999972656251,0|0,1:0|1:0,0:0:0:0:
358,95,30729,69,4,0:2:0:0:
358,95,30804,1,0,0:0:0:0:
358,95,30879,2,0,P|325:90|298:83,2,44.7999986328125
495,180,31104,1,0,1:0:0:0:
494,181,31179,2,0,P|483:225|480:270,1,89.5999972656251,0|0,1:0|1:0,0:0:0:0:
251,315,31479,38,0,P|255:344|261:371,3,44.7999986328125,4|0|0|0,1:2|1:0|0:0|1:0,0:0:0:0:
188,256,31779,1,0,0:0:0:0:
165,275,31854,2,0,P|147:298|132:322,4,44.7999986328125,4|0|0|0|0,1:2|1:0|0:0|1:0|0:0,0:0:0:0:
134,191,32229,69,4,1:2:0:0:
105,196,32304,1,0,1:0:0:0:
75,194,32379,1,0,0:0:0:0:
47,185,32454,1,0,1:0:0:0:
21,170,32529,1,0,0:0:0:0:
0,149,32604,2,0,P|-3:116|-6:96,3,44.7999986328125,4|0|0|0,1:2|1:0|1:0|1:0,0:0:0:0:
80,0,32979,54,0,P|96:46|105:91,1,89.5999972656251,4|0,0:0|0:0,0:0:0:0:
106,108,33204,1,4,0:3:0:0:
103,130,33279,1,4,0:3:0:0:
101,152,33354,1,4,0:2:0:0:
223,223,33579,1,4,0:3:0:0:
206,238,33654,1,4,0:3:0:0:
186,248,33729,1,4,0:2:0:0:
60,318,33954,1,4,0:3:0:0:
53,296,34029,1,4,0:3:0:0:
44,275,34104,2,0,P|36:249|33:225,3,44.7999986328125,4|0|0|0,1:2|1:0|1:0|1:0,0:0:0:0:
186,143,34479,6,0,P|256:147|315:153,1,89.5999972656251,4|0,0:0|0:0,0:0:0:0:
297,151,34704,1,4,0:3:0:0:
319,154,34779,1,4,0:3:0:0:
340,159,34854,1,4,0:2:0:0:
383,14,35079,1,4,0:3:0:0:
367,29,35154,1,4,0:3:0:0:
359,49,35229,2,0,P|372:94|379:144,2,89.5999972656251,4|4|4,1:2|1:3|1:3,0:0:0:0:
458,180,35679,2,0,P|446:223|440:279,1,89.5999972656251,4|4,1:2|1:3,0:0:0:0:
374,331,35979,86,0,P|298:320|202:313,1,160,6|0,0:2|1:0,0:0:0:0:
45,273,36579,1,0,0:0:0:0:
45,273,36729,2,0,P|58:327|66:382,1,96,2|0,0:3|0:0,0:0:0:0:
202,150,37104,1,2,1:2:0:0:
202,150,37479,70,0,P|198:89|200:43,1,96,6|0,0:3|0:0,0:0:0:0:
32,184,37854,2,0,P|82:197|142:226,1,96,0|0,1:0|0:0,0:0:0:0:
301,335,38229,1,2,0:0:0:0:
301,335,38454,1,0,0:0:0:0:
355,270,38604,2,0,P|361:216|356:153,1,96,2|0,1:2|0:0,0:0:0:0:
303,97,38979,38,0,P|340:138|453:117,1,160,6|0,0:3|1:0,0:0:0:0:
512,280,39579,1,0,0:0:0:0:
512,280,39729,2,0,P|451:306|416:329,1,96,2|0,0:0|0:0,0:0:0:0:
274,261,40104,1,2,1:2:0:0:
274,261,40479,70,0,P|223:265|166:281,1,96,6|0,0:3|0:0,0:0:0:0:
187,88,40854,2,0,P|234:100|281:103,1,96,2|0,1:2|0:0,0:0:0:0:
158,182,41229,2,0,B|75:196|73:156|-8:174,1,160,2|0,0:0|1:0,0:0:0:0:
0,172,41829,1,0,0:0:0:0:
0,34,41979,38,0,P|92:50|116:126,1,160,4|0,0:2|1:0,0:0:0:0:
6,260,42579,1,0,0:0:0:0:
6,260,42729,2,0,P|71:232|113:224,1,96,2|0,0:0|0:0,0:0:0:0:
193,332,43104,1,2,1:2:0:0:
193,332,43479,70,0,P|199:264|205:224,1,96,6|0,0:3|0:0,0:0:0:0:
307,257,43854,2,0,P|299:193|295:139,1,96,0|0,1:2|0:0,0:0:0:0:
203,4,44229,1,2,0:0:0:0:
289,70,44454,1,0,0:0:0:0:
289,70,44604,2,0,P|344:68|386:62,1,96,2|0,1:2|0:0,0:0:0:0:
492,26,44979,37,2,0:0:0:0:
495,52,45054,1,0,0:0:0:0:
492,79,45129,1,0,0:0:0:0:
483,104,45204,1,0,0:0:0:0:
468,126,45279,1,0,0:0:0:0:
449,145,45354,2,0,P|422:141|399:139,3,32,2|0|0|0,1:2|0:0|0:0|0:0,0:0:0:0:
297,143,45729,85,2,0:2:0:0:
294,169,45804,1,0,0:0:0:0:
297,195,45879,1,0,0:0:0:0:
306,220,45954,1,0,0:0:0:0:
320,243,46029,1,0,0:0:0:0:
339,261,46104,2,0,P|366:257|389:255,3,32,2|0|0|0,1:2|0:0|0:0|0:0,0:0:0:0:
497,226,46479,6,0,P|480:271|470:318,1,96,6|0,0:2|0:0,0:0:0:0:
218,315,46854,2,0,P|267:328|321:354,1,96,4|0,0:2|0:0,0:0:0:0:
105,165,47229,5,4,0:1:0:0:
43,211,47379,1,4,0:0:0:0:
38,287,47529,1,4,0:0:0:0:
82,349,47679,1,4,1:1:0:0:
157,362,47829,1,4,1:3:0:0:
218,315,47979,70,0,P|223:234|234:153,1,160,6|0,0:2|1:0,0:0:0:0:
212,50,48579,1,0,0:0:0:0:
212,50,48729,2,0,P|259:75|320:82,1,96,2|0,0:0|0:0,0:0:0:0:
361,200,49104,2,0,P|418:181|480:177,1,96,2|0,1:2|0:0,0:0:0:0:
512,94,49479,37,6,0:0:0:0:
362,0,49704,1,0,0:0:0:0:
362,0,49854,2,0,P|371:56|376:123,1,96,0|0,1:0|0:0,0:0:0:0:
151,221,50229,2,0,P|223:179|301:152,1,160,2|2,0:0|1:2,0:0:0:0:
78,6,50979,70,0,P|16:52|15:130,1,160,2|0,0:0|1:0,0:0:0:0:
0,243,51579,1,0,0:0:0:0:
0,243,51729,2,0,P|56:227|104:222,1,96,2|0,0:0|0:0,0:0:0:0:
206,167,52104,2,0,P|191:221|184:271,1,96,2|0,1:2|0:0,0:0:0:0:
357,355,52479,38,0,P|349:307|335:261,1,96,6|0,0:0|0:0,0:0:0:0:
126,362,52854,2,0,P|177:352|228:348,1,96,2|0,1:2|0:0,0:0:0:0:
503,234,53229,1,2,0:0:0:0:
503,234,53454,1,0,0:0:0:0:
415,254,53604,2,0,P|410:170|410:141,1,96,0|0,1:0|0:0,0:0:0:0:
503,11,53979,69,2,0:0:0:0:
490,40,54054,1,0,0:0:0:0:
467,62,54129,1,0,0:0:0:0:
438,75,54204,1,0,0:0:0:0:
406,75,54279,1,0,0:0:0:0:
377,64,54354,2,0,P|335:59|272:68,1,96,0|0,1:0|0:0,0:0:0:0:
158,22,54729,37,2,0:0:0:0:
149,52,54804,1,0,0:0:0:0:
150,84,54879,1,0,0:0:0:0:
160,114,54954,1,0,0:0:0:0:
179,140,55029,1,0,0:0:0:0:
204,160,55104,2,0,P|227:205|235:275,1,96,2|0,1:2|0:0,0:0:0:0:
43,267,55479,69,2,0:0:0:0:
43,267,55554,1,0,0:0:0:0:
43,267,55629,2,0,L|36:215,2,32
7,359,55854,2,0,P|58:342|120:335,1,96,2|2,1:2|0:2,0:0:0:0:
254,363,56229,37,2,0:2:0:0:
224,329,56304,1,0,0:0:0:0:
212,289,56379,1,0,0:0:0:0:
220,251,56454,1,0,0:0:0:0:
244,226,56529,1,0,0:0:0:0:
275,223,56604,1,2,1:2:0:0:
299,238,56679,1,0,1:0:0:0:
260,369,56829,1,0,1:0:0:0:
138,223,56979,70,0,L|134:169,4,32,2|0|0|0|0,0:2|0:0|0:0|0:0|0:0,0:0:0:0:
55,158,57354,1,2,1:2:0:0:
86,155,57429,1,0,1:0:0:0:
117,152,57504,1,0,1:0:0:0:
148,149,57579,1,0,1:0:0:0:
179,146,57654,1,0,1:0:0:0:
210,144,57729,38,0,L|214:89,4,32
292,79,58104,1,0,1:0:0:0:
292,79,58179,1,0,1:0:0:0:
292,79,58254,1,0,1:0:0:0:
292,79,58329,2,0,L|287:22,1,32,0|0,1:0|1:0,0:0:0:0:
393,35,58479,70,0,P|377:92|375:141,1,96,4|0,0:2|0:0,0:0:0:0:
248,228,58854,2,0,P|322:212|368:210,1,96,4|0,0:2|0:0,0:0:0:0:
458,140,59229,37,4,0:2:0:0:
431,256,59379,1,4,0:0:0:0:
475,126,59529,1,4,0:2:0:0:
441,263,59679,1,4,1:3:0:0:
493,113,59829,1,4,1:3:0:0:
441,263,59979,102,0,P|357:282|271:318,1,160,4|0,1:0|1:0,0:0:0:0:
217,364,60729,1,0,1:0:0:0:
35,281,60879,2,2,P|29:240|23:196,3,64,2|2|2|2,0:3|0:3|0:3|0:3,0:3:0:0:
90,149,61479,1,6,1:2:0:0:
238,217,61704,1,0,0:0:0:0:
238,217,61854,2,0,P|298:208|339:206,1,96,0|0,1:0|0:0,0:0:0:0:
437,269,62229,2,0,P|418:185|426:84,1,160,0|0,1:0|1:0,0:0:0:0:
17,11,62979,102,0,P|64:74|154:74,1,160,0|0,1:0|1:0,0:0:0:0:
268,43,63579,1,0,0:0:0:0:
268,43,63654,1,0,0:0:0:0:
268,43,63729,2,0,P|260:88|259:130,4,64,0|2|2|2|2,1:0|0:3|0:3|0:3|0:3,0:0:0:0:
355,0,64479,1,4,1:2:0:0:
319,188,64704,1,0,0:0:0:0:
319,188,64854,2,0,P|254:194|202:203,1,96,0|0,1:0|0:0,0:0:0:0:
101,162,65229,1,0,1:0:0:0:
115,183,65304,1,0,0:0:0:0:
126,205,65379,1,0,1:0:0:0:
135,228,65454,1,0,1:0:0:0:
141,252,65529,1,0,1:0:0:0:
145,277,65604,1,0,1:0:0:0:
457,373,65979,6,0,P|468:299|494:209,1,160,0|0,1:0|1:0,0:0:0:0:
466,136,66729,1,0,1:0:0:0:
296,198,66879,2,0,P|260:201|226:205,3,64,0|2|2|2,0:1|0:3|0:3|0:3,0:0:0:0:
167,158,67479,1,4,1:2:0:0:
388,67,67704,1,0,0:0:0:0:
388,67,67854,2,0,P|379:118|372:171,1,96,0|0,1:0|0:0,0:0:0:0:
219,299,68229,2,0,P|141:287|56:283,1,160,0|0,1:0|1:0,0:0:0:0:
0,120,68979,102,0,P|72:180|144:162,1,160,0|0,1:0|1:0,0:0:0:0:
279,221,69579,1,0,0:0:0:0:
279,221,69654,1,0,0:0:0:0:
279,221,69729,2,0,P|287:163|295:134,4,64,0|2|2|2|2,1:0|0:3|0:3|0:3|0:3,0:0:0:0:
310,306,70479,6,0,P|266:318|234:334,2,64,4|0|0,1:2|0:0|0:0,0:0:0:0:
392,316,70854,2,0,P|402:356|409:397,2,64,0|0|0,1:0|0:0|0:0,0:0:0:0:
467,272,71229,1,0,1:0:0:0:
448,253,71304,1,0,0:0:0:0:
435,230,71379,1,0,1:0:0:0:
425,206,71454,1,0,1:0:0:0:
419,180,71529,1,0,1:0:0:0:
421,154,71604,1,0,1:0:0:0:
148,0,71979,102,0,P|161:77|167:165,1,160,0|0,1:0|1:0,0:0:0:0:
106,218,72729,1,0,1:0:0:0:
203,349,72879,2,2,P|237:345|275:341,3,64,2|2|2|2,0:3|0:3|0:3|0:3,0:0:0:0:
329,286,73479,1,4,1:2:0:0:
486,359,73704,1,0,0:0:0:0:
486,359,73854,2,0,P|489:302|495:253,1,96,0|0,1:0|0:0,0:0:0:0:
388,171,74229,2,0,B|301:158|306:201|230:189,1,160,0|0,1:0|1:0,0:0:0:0:
92,356,74979,6,0,P|173:349|213:275,1,160,0|0,1:0|1:0,0:0:0:0:
5,213,75579,1,0,0:0:0:0:
5,213,75654,1,0,0:0:0:0:
5,213,75729,2,0,P|12:248|19:289,4,64,0|2|2|0|0,1:0|0:3|0:3|0:3|0:3,0:0:0:0:
82,173,76479,2,0,P|72:120|66:57,1,96,4|0,1:2|0:0,0:0:0:0:
154,18,76854,2,0,P|164:71|170:134,1,96,0|0,1:0|0:0,0:0:0:0:
173,210,77229,1,0,1:0:0:0:
197,201,77304,1,0,0:0:0:0:
221,195,77379,1,0,0:0:0:0:
246,191,77454,1,0,0:0:0:0:
271,190,77529,1,0,0:0:0:0:
296,191,77604,1,0,1:0:0:0:
449,23,77829,101,0,1:0:0:0:
449,23,77904,1,0,1:0:0:0:
449,23,77979,2,0,P|429:82|426:139,1,96,0|0,1:0|0:0,0:0:0:0:
378,184,78354,2,0,P|415:240|436:295,1,96,0|0,1:0|0:0,0:0:0:0:
490,345,78729,2,0,P|457:352|421:364,4,64,0|2|2|2|2,1:0|0:3|0:3|0:3|0:3,0:0:0:0:
512,263,79479,1,4,1:2:0:0:
232,215,79704,1,0,0:0:0:0:
232,215,79854,2,0,P|225:262|230:319,1,96,0|0,1:0|0:0,0:0:0:0:
54,337,80229,2,0,P|104:354|145:377,1,96,0|0,1:0|0:0,0:0:0:0:
114,175,80604,2,0,P|76:212|26:240,1,96,0|0,1:0|1:0,0:0:0:0:
16,219,80904,1,0,1:0:0:0:
0,203,80979,6,0,P|7:120|15:1,1,191.999994140625,4|0,1:2|1:0,0:0:0:0:
228,310,81579,1,0,1:0:0:0:
228,310,81654,1,0,1:0:0:0:
228,310,81729,2,0,P|211:212|206:96,1,191.999994140625,4|0,1:2|1:0,0:0:0:0:
233,90,82179,1,0,1:0:0:0:
252,113,82254,1,0,0:0:0:0:
278,129,82329,1,0,1:0:0:0:
308,135,82404,1,0,1:0:0:0:
337,128,82479,102,0,P|346:73|350:-3,1,115.199996484375,4|0,1:2|0:0,0:0:0:0:
104,157,82779,1,0,0:0:0:0:
104,157,82854,2,0,P|116:207|151:275,1,115.199996484375,4|0,1:2|1:0,0:0:0:0:
133,362,83229,5,0,1:0:0:0:
244,290,83379,1,0,1:0:0:0:
273,281,83454,1,0,1:0:0:0:
303,281,83529,1,0,1:0:0:0:
333,285,83604,1,4,1:3:0:0:
362,293,83679,1,0,1:0:0:0:
390,305,83754,1,0,0:0:0:0:
506,179,83904,101,0,1:0:0:0:
506,179,83979,2,0,B|358:157|358:157|401:166|426:202,1,223.999993164063,4|0,0:2|1:0,0:0:0:0:
162,19,84504,1,0,0:0:0:0:
162,19,84579,1,0,0:0:0:0:
162,19,84654,1,0,0:0:0:0:
162,19,84729,2,0,B|190:117|305:96|305:96|296:33,1,223.999993164063,4|0,0:3|1:0,0:0:0:0:
42,87,85254,21,0,0:0:0:0:
42,87,85329,1,0,0:0:0:0:
42,87,85404,1,0,0:0:0:0:
42,87,85479,2,0,B|46:129|33:156|33:156|51:180|55:238,1,134.399995898438,4|0,0:3|0:0,0:0:0:0:
0,279,85779,1,0,0:0:0:0:
0,279,85854,2,0,P|75:254|155:241,1,134.399995898438,0|0,1:0|0:0,0:0:0:0:
207,258,86154,1,0,0:0:0:0:
211,262,86229,69,4,0:3:0:0:
187,184,86379,1,4,0:3:0:0:
228,115,86529,1,4,0:3:0:0:
308,115,86679,1,8,0:3:0:0:
358,52,86829,1,8,0:3:0:0:
273,41,86979,22,0,B|316:123|278:206|278:206|304:292,1,223.999993164063,4|0,0:2|1:0,0:0:0:0:
447,370,87504,1,0,0:0:0:0:
447,370,87579,1,0,0:0:0:0:
447,370,87654,1,0,0:0:0:0:
447,370,87729,2,0,B|462:305|511:283|511:283|499:206|499:206|485:277,1,223.999993164063,4|0,0:3|1:0,0:0:0:0:
286,342,88254,101,0,0:0:0:0:
286,342,88329,1,0,0:0:0:0:
286,342,88404,1,0,0:0:0:0:
286,342,88479,2,0,B|207:344|221:363|150:360,1,134.399995898438,4|0,0:3|0:0,0:0:0:0:
73,377,88779,1,0,0:0:0:0:
73,377,88854,2,0,B|32:323|65:268|65:268|81:289,1,134.399995898438,0|0,1:0|0:0,0:0:0:0:
149,275,89154,1,0,0:0:0:0:
153,279,89229,21,4,0:3:0:0:
212,224,89379,1,4,0:3:0:0:
234,146,89529,1,4,0:3:0:0:
201,72,89679,1,8,0:3:0:0:
124,45,89829,1,8,0:3:0:0:
55,87,89979,1,4,0:2:0:0:
55,87,90354,69,0,1:0:0:0:
75,112,90429,1,0,0:0:0:0:
101,130,90504,1,0,0:0:0:0:
132,142,90579,1,0,0:0:0:0:
165,147,90654,1,0,0:0:0:0:
198,146,90729,2,0,P|209:73|232:0,1,134.399995898438,4|0,0:3|0:0,0:0:0:0:
450,83,91104,21,4,1:2:0:0:
450,114,91179,1,0,0:0:0:0:
437,142,91254,1,0,0:0:0:0:
414,162,91329,1,0,0:0:0:0:
384,170,91404,1,0,0:0:0:0:
352,163,91479,2,0,P|341:111|348:48,1,89.5999972656251,4|0,0:2|0:0,0:0:0:0:
179,239,91854,101,0,1:0:0:0:
216,230,91929,1,0,0:0:0:0:
255,234,92004,1,0,0:0:0:0:
291,252,92079,1,0,0:0:0:0:
317,280,92154,1,0,0:0:0:0:
332,315,92229,2,0,P|259:330|192:360,1,134.399995898438,4|0,0:3|0:0,0:0:0:0:
17,315,92604,21,4,1:2:0:0:
5,291,92679,1,0,0:0:0:0:
6,264,92754,1,0,0:0:0:0:
18,241,92829,1,0,0:0:0:0:
41,226,92904,1,0,0:0:0:0:
67,224,92979,2,0,P|99:286|59:369,1,134.399995898438,4|0,0:2|0:0,0:0:0:0:
12,310,93354,69,0,1:0:0:0:
0,286,93429,1,0,0:0:0:0:
1,259,93504,1,0,0:0:0:0:
13,236,93579,1,0,0:0:0:0:
36,221,93654,1,0,0:0:0:0:
62,219,93729,2,0,P|91:140|82:70,1,134.399995898438,4|0,0:3|0:0,0:0:0:0:
78,52,94029,2,0,P|70:24|59:4,4,44.7999986328125,0|0|0|0|0,0:0|1:0|0:0|0:0|0:0,0:0:0:0:
242,38,94479,54,0,P|228:81|226:125,1,89.5999972656251,4|0,1:3|0:0,0:0:0:0:
161,177,94704,1,4,0:3:0:0:
177,192,94779,1,4,0:3:0:0:
196,202,94854,2,0,P|239:215|283:217,1,89.5999972656251,4|0,1:2|0:0,0:0:0:0:
343,276,95079,1,4,0:3:0:0:
358,260,95154,1,4,0:3:0:0:
368,241,95229,2,0,P|381:198|383:154,1,89.5999972656251,4|0,1:2|0:0,0:0:0:0:
310,54,95454,1,4,0:3:0:0:
306,76,95529,1,4,0:3:0:0:
307,98,95604,2,0,P|309:121|313:149,4,44.7999986328125,0|0|0|0|0,1:2|1:0|1:0|1:0|1:0,0:0:0:0:
480,220,95979,102,0,B|500:148|482:109|482:109|503:60|479:-29,1,223.999993164063,4|0,0:2|1:0,0:0:0:0:
220,92,96504,1,0,0:0:0:0:
220,92,96579,1,0,0:0:0:0:
220,92,96654,1,0,0:0:0:0:
220,92,96729,2,0,B|218:160|293:197|363:183|363:183|339:138,1,223.999993164063,4|0,0:3|1:0,0:0:0:0:
392,337,97254,69,0,0:0:0:0:
392,337,97329,1,0,0:0:0:0:
392,337,97404,1,0,0:0:0:0:
392,337,97479,2,0,P|325:312|260:310,1,134.399995898438,4|0,0:3|0:0,0:0:0:0:
135,196,97779,1,0,0:0:0:0:
135,196,97854,2,0,P|162:258|175:330,1,134.399995898438,0|0,1:0|0:0,0:0:0:0:
130,384,98154,1,0,0:0:0:0:
130,384,98229,21,4,0:3:0:0:
54,355,98379,1,4,0:3:0:0:
21,281,98529,1,4,0:3:0:0:
44,203,98679,1,8,0:3:0:0:
116,168,98829,1,8,0:3:0:0:
194,188,98979,102,0,B|242:129|199:44|199:44|186:61|184:89|184:89|200:109|205:136,1,223.999993164063,4|0,0:2|1:0,0:0:0:0:
489,98,99504,1,0,0:0:0:0:
489,98,99579,1,0,0:0:0:0:
489,98,99654,1,0,0:0:0:0:
489,98,99729,2,0,P|430:118|339:114,1,134.399995898438,4|0,1:3|0:0,0:0:0:0:
271,54,100029,1,0,0:0:0:0:
259,87,100104,1,0,1:0:0:0:
269,121,100179,1,0,0:0:0:0:
285,152,100254,2,0,P|302:202|308:267,1,89.5999972656251
286,326,100479,22,0,P|356:301|440:296,1,134.399995898438,4|0,0:2|0:0,0:0:0:0:
446,298,100779,1,0,0:0:0:0:
475,307,100854,1,4,1:2:0:0:
477,183,101079,1,0,0:0:0:0:
447,192,101154,1,0,0:0:0:0:
415,193,101229,1,4,0:2:0:0:
207,310,101454,69,0,0:0:0:0:
207,310,101529,2,0,P|213:341|216:374,3,44.7999986328125,0|0|0|0,1:0|1:0|1:0|1:2,0:0:0:0:
279,206,101904,1,0,0:0:0:0:
279,206,101979,2,0,P|266:138|266:57,1,134.399995898438,4|0,0:2|0:0,0:0:0:0:
16,27,102354,21,0,1:0:0:0:
33,58,102429,1,0,0:0:0:0:
59,82,102504,1,0,0:0:0:0:
92,97,102579,1,0,0:0:0:0:
127,101,102654,1,0,0:0:0:0:
162,94,102729,1,4,0:3:0:0:
440,65,103104,2,0,P|463:69|489:77,4,44.7999986328125,4|0|0|0|0,1:2|0:0|0:0|1:0|1:0,0:0:0:0:
348,14,103479,102,0,P|363:82|368:182,1,134.399995898438,4|0,1:2|0:0,0:0:0:0:
366,178,103779,1,0,0:0:0:0:
352,206,103854,1,0,1:0:0:0:
329,228,103929,1,0,0:0:0:0:
300,241,104004,1,0,0:0:0:0:
269,246,104079,1,0,0:0:0:0:
238,239,104154,1,0,0:0:0:0:
210,223,104229,21,4,1:2:0:0:
141,179,104379,69,4,1:2:0:0:
61,190,104529,21,4,1:2:0:0:
17,257,104679,101,4,1:2:0:0:
28,336,104829,21,4,1:2:0:0:
97,376,104979,54,0,P|156:367|188:367,1,76.7999976562501,4|0,1:2|0:0,0:0:0:0:
210,384,105204,1,0,1:0:0:0:
210,384,105279,1,0,0:0:0:0:
104,262,105429,2,0,P|156:268|192:276,1,76.7999976562501,0|0,1:0|1:0,0:0:0:0:
396,245,105729,38,0,P|337:236|305:236,1,76.7999976562501,4|0,1:2|0:0,0:0:0:0:
283,253,105954,1,0,1:0:0:0:
283,253,106029,1,0,0:0:0:0:
389,131,106179,2,0,P|337:137|301:145,1,76.7999976562501,0|0,1:0|1:0,0:0:0:0:
50,67,106479,69,4,1:2:0:0:
50,67,106554,2,0,P|56:119|58:140,1,38.399998828125,0|0,1:0|0:0,0:0:0:0:
173,183,106704,1,0,0:0:0:0:
173,183,106779,1,0,0:0:0:0:
173,183,106854,1,0,1:0:0:0:
173,183,106929,2,0,P|183:118|190:73,1,76.7999976562501,0|0,1:0|1:0,0:0:0:0:
325,28,107229,37,4,1:2:0:0:
325,28,107304,2,0,P|331:80|333:101,1,38.399998828125,0|0,1:0|0:0,0:0:0:0:
448,144,107454,1,0,0:0:0:0:
448,144,107529,1,0,0:0:0:0:
448,144,107604,1,0,1:0:0:0:
448,144,107679,2,0,P|458:79|465:34,1,76.7999976562501,0|0,1:0|1:0,0:0:0:0:
479,253,107979,69,4,1:2:0:0:
479,253,108054,2,0,P|418:246|366:248,1,76.7999976562501,0|0,1:0|1:0,0:0:0:0:
276,201,108354,1,0,1:0:0:0:
276,201,108429,2,0,P|294:261|298:299,1,76.7999976562501
316,372,108729,1,4,0:0:0:0:
284,372,108804,1,4,0:0:0:0:
253,363,108879,1,4,0:0:0:0:
227,344,108954,1,4,0:0:0:0:
201,326,109029,1,4,0:0:0:0:
170,317,109104,1,12,0:0:0:0:
138,316,109179,2,0,P|114:321|94:329,2,38.399998828125,12|12|12,0:0|0:0|0:0,0:0:0:0:
0,243,109479,22,0,P|20:283|24:344,1,76.7999976562501,12|0,1:3|0:0,0:0:0:0:
29,336,109704,1,4,0:3:0:0:
27,358,109779,1,4,0:3:0:0:
20,380,109854,1,4,1:2:0:0:
153,230,110079,1,4,0:3:0:0:
118,223,110154,1,4,0:3:0:0:
91,200,110229,1,4,1:2:0:0:
248,212,110454,1,4,0:3:0:0:
247,173,110529,1,4,0:3:0:0:
255,135,110604,2,0,P|259:96|266:69,4,38.399998828125,0|0|0|0|0,1:0|1:0|1:0|1:0|1:0,0:0:0:0:
335,162,110979,38,0,P|423:148|497:149,1,160,12|0,0:2|1:0,0:0:0:0:
106,8,111579,1,0,0:2:0:0:
106,8,111654,1,0,0:2:0:0:
106,8,111729,2,0,P|93:69|110:170,1,160,4|0,0:3|1:0,0:0:0:0:
208,366,112404,1,0,0:0:0:0:
208,366,112479,5,4,0:2:0:0:
245,195,112704,1,0,0:2:0:0:
245,195,112779,1,0,0:2:0:0:
245,195,112854,1,0,1:0:0:0:
124,269,113079,1,0,0:0:0:0:
311,359,113229,2,0,P|359:353|414:349,1,96,4|0,0:3|0:0,0:0:0:0:
505,250,113604,101,0,1:2:0:0:
473,252,113679,1,0,0:2:0:0:
442,244,113754,1,0,0:2:0:0:
415,227,113829,1,0,0:2:0:0:
395,202,113904,1,0,0:2:0:0:
384,172,113979,2,0,P|377:88|371:3,1,160,4|0,0:3|1:0,0:0:0:0:
90,140,114579,1,0,0:2:0:0:
90,140,114654,1,0,0:0:0:0:
90,140,114729,2,0,P|158:142|202:143,1,96,4|0,0:3|0:0,0:0:0:0:
255,207,115104,2,0,P|266:260|269:321,1,96,0|0,1:0|0:0,0:0:0:0:
205,381,115479,5,4,0:2:0:0:
27,315,115704,1,0,0:0:0:0:
16,284,115779,1,0,0:0:0:0:
6,253,115854,2,0,P|2:202|12:145,1,96,0|0,1:0|0:0,0:0:0:0:
67,89,116229,101,4,0:3:0:0:
255,207,116454,1,0,0:0:0:0:
255,207,116529,1,0,0:0:0:0:
255,207,116604,2,0,P|285:204|307:201,4,32,4|0|0|0|0,1:2|0:0|0:0|0:0|0:0,0:0:0:0:
178,149,116979,6,0,P|172:82|182:28,1,96,4|0,0:2|0:0,0:0:0:0:
185,24,117279,1,0,0:0:0:0:
185,24,117354,1,0,1:0:0:0:
326,97,117504,1,0,0:0:0:0:
356,87,117579,1,0,0:0:0:0:
383,69,117654,1,0,0:0:0:0:
407,48,117729,102,0,P|404:114|408:160,1,96,4|0,0:3|0:0,0:0:0:0:
481,181,118029,1,0,0:0:0:0:
481,181,118104,2,0,P|483:215|482:238,1,32,0|0,1:0|0:0,0:0:0:0:
444,292,118254,1,0,0:0:0:0:
444,292,118329,1,0,0:0:0:0:
444,292,118404,1,0,0:0:0:0:
444,292,118479,6,0,B|355:281|362:322|284:312,1,160,4|0,0:2|1:0,0:0:0:0:
257,298,118929,1,0,0:0:0:0:
234,275,119004,1,0,0:0:0:0:
222,245,119079,1,0,0:0:0:0:
222,213,119154,1,0,0:0:0:0:
239,186,119229,102,0,P|281:177|318:175,2,64,4|8|8,0:3|0:3|0:3,0:0:0:0:
76,112,119679,2,0,P|44:104|13:101,1,64,8|8,0:3|0:3,0:0:0:0:
213,16,119979,101,4,0:2:0:0:
223,46,120054,1,0,0:0:0:0:
224,77,120129,1,0,0:0:0:0:
208,105,120204,1,0,0:0:0:0:
184,126,120279,1,0,0:0:0:0:
155,140,120354,2,0,P|154:159|155:172,4,32,0|0|0|0|0,1:2|0:0|0:0|0:0|0:0,0:0:0:0:
71,220,120729,69,4,0:3:0:0:
92,243,120804,1,0,0:0:0:0:
119,259,120879,1,0,0:0:0:0:
149,266,120954,2,0,P|176:268|199:265,1,32
279,311,121104,5,0,1:2:0:0:
288,281,121179,1,0,0:0:0:0:
288,249,121254,1,0,0:0:0:0:
279,220,121329,2,0,P|267:195|253:177,1,32
223,84,121479,6,0,P|264:109|305:111,1,64,4|0,1:3|0:0,0:0:0:0:
311,110,121704,1,4,0:3:0:0:
341,101,121779,1,4,0:3:0:0:
368,85,121854,1,4,1:2:0:0:
449,218,122079,1,4,0:3:0:0:
442,186,122154,1,4,0:3:0:0:
446,154,122229,1,4,1:2:0:0:
427,333,122454,1,4,0:3:0:0:
400,314,122529,1,4,0:3:0:0:
371,298,122604,1,0,1:0:0:0:
341,286,122679,1,0,1:2:0:0:
310,276,122754,1,0,1:0:0:0:
278,271,122829,1,0,1:0:0:0:
246,269,122904,1,0,1:0:0:0:
214,274,122979,22,0,P|184:204|160:105,1,160,12|0,1:2|1:0,0:0:0:0:
0,384,123579,1,0,0:0:0:0:
0,384,123654,1,0,0:0:0:0:
0,384,123729,2,0,P|68:363|169:356,1,160,4|0,0:3|1:0,0:0:0:0:
273,194,124404,1,0,0:0:0:0:
273,194,124479,5,4,0:2:0:0:
89,121,124704,1,0,0:0:0:0:
89,121,124779,1,0,0:0:0:0:
89,121,124854,1,0,1:0:0:0:
172,242,125079,1,0,0:0:0:0:
293,172,125229,2,0,P|298:116|295:68,1,96,4|0,0:3|0:0,0:0:0:0:
30,29,125604,101,0,1:0:0:0:
15,57,125679,1,0,0:0:0:0:
7,88,125754,1,0,0:0:0:0:
6,119,125829,1,0,0:0:0:0:
12,150,125904,1,0,0:0:0:0:
23,179,125979,2,0,P|58:244|44:346,1,160,4|0,0:3|1:0,0:0:0:0:
165,384,126579,1,0,0:0:0:0:
165,384,126654,1,0,0:0:0:0:
165,384,126729,2,0,P|214:367|284:361,1,96,4|0,0:3|0:0,0:0:0:0:
342,285,127104,2,0,P|333:238|329:191,1,96,0|0,1:0|0:0,0:0:0:0:
266,125,127479,5,4,0:2:0:0:
512,284,127704,1,0,1:0:0:0:
512,284,127779,1,0,1:0:0:0:
512,284,127854,2,0,P|453:307|406:310,1,96,0|0,1:0|0:0,0:0:0:0:
206,251,128229,2,0,P|195:191|198:128,1,96,4|0,0:2|0:0,0:0:0:0:
204,125,128529,1,0,0:0:0:0:
229,105,128604,2,0,L|284:102,4,32,0|0|0|0|0,1:0|1:0|1:0|1:0|1:0,0:0:0:0:
182,40,128979,102,0,B|102:31|94:71|19:57,1,160,4|0,0:2|1:0,0:0:0:0:
30,73,129429,1,0,0:0:0:0:
35,88,129504,1,0,0:0:0:0:
40,103,129579,1,0,0:0:0:0:
45,118,129654,1,0,0:0:0:0:
50,133,129729,1,0,0:2:0:0:
32,334,130029,1,0,0:0:0:0:
32,334,130104,2,0,L|81:327,1,32,4|0,1:2|0:0,0:0:0:0:
165,382,130254,1,0,0:0:0:0:
165,382,130329,1,0,0:0:0:0:
165,382,130404,1,0,0:0:0:0:
165,382,130479,6,0,P|185:311|170:229,1,128,4|0,0:2|0:0,0:0:0:0:
171,226,130854,1,0,0:0:0:0:
163,194,130929,2,0,P|158:162|158:150,3,32
246,211,131229,101,4,0:2:0:0:
302,159,131379,1,4,0:2:0:0:
287,83,131529,1,4,0:3:0:0:
214,58,131679,1,4,0:2:0:0:
157,110,131829,1,4,0:3:0:0:
253,223,131979,38,0,P|292:215|342:211,1,76.7999976562501,12|0,1:2|0:0,0:0:0:0:
368,213,132204,1,0,1:0:0:0:
368,213,132279,1,0,0:0:0:0:
466,287,132429,2,0,P|470:255|478:205,1,76.7999976562501,0|0,1:0|1:0,0:0:0:0:
412,107,132729,38,0,P|369:101|322:99,1,76.7999976562501,4|0,1:2|0:0,0:0:0:0:
308,98,132954,1,0,1:0:0:0:
308,98,133029,1,0,0:0:0:0:
194,99,133179,2,0,P|200:131|207:186,1,76.7999976562501,0|0,1:0|1:0,0:0:0:0:
122,362,133479,69,4,1:2:0:0:
122,362,133554,1,0,1:0:0:0:
26,303,133704,1,0,0:0:0:0:
26,303,133779,1,0,0:0:0:0:
26,303,133854,1,0,1:0:0:0:
26,303,133929,2,0,P|22:252|23:211,1,76.7999976562501,0|0,1:0|1:0,0:0:0:0:
193,100,134229,37,4,1:2:0:0:
193,100,134304,1,0,1:0:0:0:
269,191,134454,1,0,0:0:0:0:
269,191,134529,1,0,0:0:0:0:
269,191,134604,1,0,1:0:0:0:
269,191,134679,2,0,P|262:244|254:297,1,76.7999976562501,0|0,1:0|1:0,0:0:0:0:
331,366,134979,69,4,1:2:0:0:
331,366,135054,2,0,P|382:360|429:358,1,76.7999976562501,0|0,1:0|1:0,0:0:0:0:
487,290,135354,1,0,1:0:0:0:
487,290,135429,2,0,P|480:236|479:193,1,76.7999976562501
397,148,135729,1,4,0:0:0:0:
365,141,135804,1,4,0:0:0:0:
335,152,135879,1,4,0:0:0:0:
309,171,135954,1,4,0:0:0:0:
290,196,136029,1,4,0:0:0:0:
282,227,136104,2,0,P|283:255|288:279,4,38.399998828125,12|12|12|12|12,0:0|0:0|0:0|0:0|0:0,0:0:0:0:
213,311,136479,70,0,P|164:306|113:305,1,76.7999976562501,12|0,1:3|0:0,0:0:0:0:
106,313,136704,1,4,0:3:0:0:
77,327,136779,1,4,0:3:0:0:
54,349,136854,1,4,1:2:0:0:
60,233,137079,1,4,0:3:0:0:
28,228,137154,1,4,0:3:0:0:
0,212,137229,1,4,1:2:0:0:
150,164,137454,1,4,0:3:0:0:
158,133,137529,1,4,0:3:0:0:
153,101,137604,2,0,P|149:81|145:58,4,38.399998828125,0|0|0|0|0,1:0|1:0|1:0|1:0|1:0,0:0:0:0:
246,114,137979,6,0,P|296:108|335:100,1,76.7999976562501,4|0,1:3|0:0,0:0:0:0:
351,82,138204,1,4,0:3:0:0:
378,66,138279,1,4,0:3:0:0:
400,43,138354,1,4,1:2:0:0:
388,239,138579,1,4,0:3:0:0:
355,218,138654,1,4,0:3:0:0:
317,211,138729,2,0,P|273:207|224:212,2,76.7999976562501,4|4|4,1:2|1:2|1:3,0:0:0:0:
445,292,139179,2,0,P|469:325|482:360,1,76.7999976562501,4|4,1:2|1:3,0:0:0:0:
457,139,139479,101,4,1:2:0:0:
256,192,139554,12,2,145479,2:2:0:0:
