osu file format v14

[General]
AudioFilename: audio.mp3
AudioLeadIn: 0
PreviewTime: 110979
Countdown: 0
SampleSet: Soft
StackLeniency: 0.2
Mode: 0
LetterboxInBreaks: 0
WidescreenStoryboard: 0

[Editor]
Bookmarks: 14979,26979,35979,59979,83979,110979
DistanceSpacing: 0.8
BeatDivisor: 5
GridSize: 8
TimelineZoom: 3.699999

[Metadata]
Title:Shirayama Hime no Kami
TitleUnicode:白山比咩神
Artist:DWMw
ArtistUnicode:DWMω
Creator:Luscent
Version:Down's Extra
Source:
Tags:BMS of fighters 2013 Bof2013 abe3 abe yuta Hakusan 古伝新韻二十打ち Koden Shin'in Nijuu Uchi Shinin Ancient Remains Arranged 20 Beats Electronic Video Game Instrumental 404 AimNotFound Down YokesPai DeviousPanda
BeatmapID:2828365
BeatmapSetID:1367344

[Difficulty]
HPDrainRate:5
CircleSize:4
OverallDifficulty:8.4
ApproachRate:9.4
SliderMultiplier:2.1
SliderTickRate:1

[Events]
//Background and Video events
0,0,"srym.jpg",0,0
//Break Periods
//Storyboard Layer 0 (Background)
//Storyboard Layer 1 (Fail)
//Storyboard Layer 2 (Pass)
//Storyboard Layer 3 (Foreground)
//Storyboard Layer 4 (Overlay)
//Storyboard Sound Samples

[TimingPoints]
1479,375,4,2,1,30,1,0
1479,-200,4,2,1,30,0,0
13854,-133.333333333333,4,2,1,30,0,0
14229,-100,4,2,1,30,0,0
14979,-125,4,2,1,50,0,0
26979,-100,4,3,1,65,0,0
31479,-100,4,3,1,70,0,0
32979,-100,4,3,1,85,0,0
35979,-125,4,3,1,65,0,0
58479,-100,4,3,1,65,0,0
59979,-125,4,3,1,65,0,0
79479,-100,4,3,1,65,0,0
80829,-100,4,3,1,70,0,0
80979,-83.3333333333333,4,3,1,70,0,0
83229,-66.6666666666667,4,3,1,70,0,0
83979,-100,4,3,1,75,0,0
94479,-100,4,3,1,85,0,0
95979,-100,4,3,1,75,0,0
104979,-100,4,3,1,70,0,0
109854,-100,4,3,1,80,0,0
110229,-100,4,3,1,90,0,0
110604,-100,4,3,1,100,0,0
110979,-100,4,3,1,85,0,0
121479,-76.9230769230769,4,3,1,70,0,0
121854,-76.9230769230769,4,3,1,80,0,0
122229,-76.9230769230769,4,3,1,90,0,0
122604,-76.9230769230769,4,3,1,100,0,0
122979,-100,4,3,1,85,0,0
127479,-76.9230769230769,4,3,1,85,0,0
128979,-100,4,3,1,85,0,0
131979,-83.3333333333333,4,3,1,90,0,0
136479,-83.3333333333333,4,3,1,70,0,0
136854,-83.3333333333333,4,3,1,80,0,0
137229,-83.3333333333333,4,3,1,90,0,0
137604,-83.3333333333333,4,3,1,100,0,0
137979,-83.3333333333333,4,3,1,80,0,0
138354,-83.3333333333333,4,3,1,90,0,0
138729,-83.3333333333333,4,3,1,100,0,0
139554,-83.3333333333333,4,3,1,90,0,0
140229,-83.3333333333333,4,3,1,80,0,0
140979,-83.3333333333333,4,3,1,70,0,0
141729,-83.3333333333333,4,3,1,60,0,0
142479,-83.3333333333333,4,3,1,50,0,0
143229,-83.3333333333333,4,3,1,40,0,0
143979,-83.3333333333333,4,3,1,30,0,0
144729,-83.3333333333333,4,3,1,20,0,0
145479,-83.3333333333333,4,2,2,55,0,0

[Colours]
Combo1 : 249,254,186
Combo2 : 248,211,171
Combo3 : 171,252,203
Combo4 : 242,56,36
Combo5 : 249,98,60
Combo6 : 255,255,255
Combo7 : 208,198,176
Combo8 : 175,221,254

[HitObjects]
340,193,2979,86,0,P|287:186|223:177,1,105,0|0,3:0|0:0,0:0:0:0:
235,178,3729,1,2,0:0:0:0:
340,193,4104,1,0,0:0:0:0:
235,178,4479,102,0,P|250:231|262:284,2,105,0|2|0,3:0|0:0|0:0,0:0:0:0:
235,178,5604,1,0,0:0:0:0:
261,279,5979,6,0,P|320:286|377:296,1,105,0|0,3:0|0:0,0:0:0:0:
364,293,6729,1,2,0:0:0:0:
261,279,7104,1,0,0:0:0:0:
364,293,7479,102,0,P|418:261|465:235,1,105,0|0,3:0|0:0,0:0:0:0:
459,126,8079,1,2,0:0:0:0:
377,90,8229,2,0,P|375:127|371:162,1,63,2|2,0:0|3:2,0:0:0:0:
296,250,8604,1,2,0:0:0:0:
454,240,8829,1,2,0:0:0:0:
372,231,8979,6,0,P|386:288|404:345,2,105,2|0|2,3:2|0:0|0:0,0:0:0:0:
372,231,10104,1,0,0:0:0:0:
169,109,10479,102,0,P|179:73|194:43,1,63,0|0,3:0|0:0,0:0:0:0:
39,86,10854,2,0,P|76:108|94:127,1,63,2|0,0:0|0:0,0:0:0:0:
225,168,11229,5,0,0:0:0:0:
106,226,11454,1,0,0:0:0:0:
93,210,11604,1,2,0:0:0:0:
229,259,11829,1,0,0:0:0:0:
171,311,11979,102,0,P|121:321|67:335,1,105,0|0,3:0|0:0,0:0:0:0:
4,225,12579,1,0,0:0:0:0:
83,248,12729,2,0,P|86:211|91:175,1,63,2|0,0:0|0:0,0:0:0:0:
4,225,13104,1,0,0:0:0:0:
172,188,13329,1,0,0:0:0:0:
129,118,13479,6,0,P|103:107|63:94,1,63,0|0,3:0|0:0,0:0:0:0:
293,162,13854,102,0,P|273:125|224:63,1,94.5000036048891,0|0,3:0|0:0,0:0:0:0:
337,353,14229,6,0,P|361:309|382:216,1,126,0|0,3:0|3:0,0:0:0:0:
477,67,14604,1,0,1:0:0:0:
477,67,14979,38,0,P|419:60|390:9,1,100.8,4|0,3:2|0:0,0:0:0:0:
240,61,15354,2,0,P|294:76|356:96,1,100.8,0|0,1:0|0:0,0:0:0:0:
411,180,15729,2,0,B|388:207|388:207|405:281,1,100.8,0|0,3:0|0:0,0:0:0:0:
474,228,16104,1,0,1:0:0:0:
474,228,16479,102,0,P|482:199|486:164,1,33.6,4|0,3:0|0:0,0:0:0:0:
303,76,16704,2,0,P|333:147|354:219,1,134.4,4|0,3:0|0:0,0:0:0:0:
402,259,17079,2,0,P|390:278|373:295,1,33.6,0|0,3:0|0:0,0:0:0:0:
306,265,17229,5,0,3:0:0:0:
116,311,17454,1,0,1:0:0:0:
104,297,17529,1,0,1:0:0:0:
86,292,17604,2,0,P|52:303|10:325,1,67.2,0|0,1:0|0:0,0:0:0:0:
6,313,17829,1,2,1:2:0:0:
76,379,17979,102,0,P|71:343|117:212,2,168,4|0|0,3:2|1:0|3:0,0:0:0:0:
56,162,18954,1,0,0:0:0:0:
110,220,19104,2,0,P|156:211|176:165,1,100.8,0|0,1:0|0:0,0:0:0:0:
56,162,19479,6,0,P|38:168|-3:185,1,33.6,4|0,3:0|0:0,0:0:0:0:
62,30,19704,2,0,P|109:81|190:84,1,134.4,4|0,3:0|0:0,0:0:0:0:
244,124,20079,2,0,P|265:107|291:91,1,33.6,0|0,3:0|0:0,0:0:0:0:
230,39,20229,101,0,3:0:0:0:
425,172,20454,1,0,1:0:0:0:
413,186,20529,1,0,1:0:0:0:
395,191,20604,2,0,P|361:180|319:158,1,67.2,0|0,1:0|0:0,0:0:0:0:
315,170,20829,1,2,1:2:0:0:
344,255,20979,6,0,P|353:307|365:369,1,100.8,4|0,3:2|0:0,0:0:0:0:
137,190,21354,2,0,B|118:167|118:167|142:93,1,100.8,0|0,1:0|0:0,0:0:0:0:
265,232,21729,2,0,P|223:245|158:266,1,100.8,0|0,3:0|0:0,0:0:0:0:
344,255,22104,1,0,1:0:0:0:
344,255,22479,102,0,P|363:290|369:307,1,33.6,4|0,3:0|0:0,0:0:0:0:
408,119,22704,2,0,P|326:137|271:160,1,134.4,4|0,3:0|0:0,0:0:0:0:
202,146,23079,2,0,P|180:133|148:125,1,33.6,0|0,3:0|0:0,0:0:0:0:
134,62,23229,5,0,3:0:0:0:
53,226,23454,1,0,1:0:0:0:
41,240,23529,1,0,1:0:0:0:
23,245,23604,2,0,P|74:279|83:293,1,67.2,0|0,1:0|0:0,0:0:0:0:
93,291,23829,1,2,1:2:0:0:
13,330,23979,102,0,P|129:305|178:296,1,168,4|0,3:2|1:0,0:0:0:0:
507,76,24729,2,0,P|494:143|490:184,1,100.8,0|0,3:0|0:0,0:0:0:0:
451,245,25104,1,0,1:0:0:0:
451,245,25479,6,0,P|426:234|412:232,1,33.6,4|0,3:0|0:0,0:0:0:0:
323,183,25704,1,4,3:0:0:0:
245,295,25854,2,0,P|281:266|308:254,1,67.2
370,292,26079,2,0,P|364:317|368:340,1,33.6,0|0,3:0|0:0,0:0:0:0:
289,361,26229,101,0,3:0:0:0:
66,292,26454,1,0,1:0:0:0:
54,278,26529,1,0,1:0:0:0:
36,273,26604,2,0,P|48:315|31:372,1,100.8,0|0,1:0|1:0,0:0:0:0:
45,67,26979,22,0,P|38:47|22:28,4,42,4|0|0|0|0,0:2|0:0|0:0|0:0|0:0,0:0:0:0:
125,91,27354,1,0,1:0:0:0:
125,91,27429,1,0,1:0:0:0:
17,138,27579,1,0,1:0:0:0:
123,235,27729,70,0,P|116:255|100:274,4,42,4|0|0|0|0,0:2|0:0|0:0|0:0|0:0,0:0:0:0:
203,211,28104,1,0,1:0:0:0:
203,211,28179,1,0,1:0:0:0:
95,164,28329,1,0,1:0:0:0:
261,76,28479,37,4,0:2:0:0:
271,75,28554,1,0,0:0:0:0:
281,74,28629,1,0,0:0:0:0:
291,71,28704,1,0,0:0:0:0:
301,66,28779,1,0,0:0:0:0:
345,84,28854,69,0,1:0:0:0:
345,84,28929,1,0,1:0:0:0:
328,180,29079,1,0,1:0:0:0:
482,218,29229,37,4,0:2:0:0:
472,217,29304,1,0,0:0:0:0:
462,216,29379,1,0,0:0:0:0:
452,213,29454,1,0,0:0:0:0:
442,208,29529,1,0,0:0:0:0:
398,226,29604,69,0,1:0:0:0:
398,226,29679,1,0,1:0:0:0:
415,322,29829,1,0,1:0:0:0:
253,266,29979,38,0,P|228:252|221:231,1,42,4|0,0:2|0:0,0:0:0:0:
97,183,30129,1,0,0:0:0:0:
108,177,30204,1,0,0:0:0:0:
118,169,30279,1,0,0:0:0:0:
161,196,30354,69,0,1:0:0:0:
161,196,30429,1,0,1:0:0:0:
63,253,30579,1,0,1:0:0:0:
253,266,30729,38,0,P|278:252|285:231,1,42,4|0,0:2|0:0,0:0:0:0:
409,183,30879,1,0,0:0:0:0:
398,177,30954,1,0,0:0:0:0:
388,169,31029,1,0,0:0:0:0:
345,196,31104,69,0,1:0:0:0:
345,196,31179,1,0,1:0:0:0:
443,253,31329,1,0,1:0:0:0:
184,312,31479,37,4,1:2:0:0:
192,319,31554,1,0,1:0:0:0:
197,328,31629,1,0,0:0:0:0:
192,337,31704,2,0,P|165:331|146:324,1,42,0|0,1:0|0:0,0:0:0:0:
328,312,31854,69,4,1:2:0:0:
320,319,31929,1,0,1:0:0:0:
315,328,32004,1,0,0:0:0:0:
320,337,32079,2,0,P|347:331|366:324,1,42,0|0,1:0|0:0,0:0:0:0:
259,263,32229,37,4,1:2:0:0:
251,252,32304,1,0,1:0:0:0:
268,237,32379,69,0,0:0:0:0:
249,222,32454,1,0,1:0:0:0:
274,195,32529,37,0,0:0:0:0:
240,172,32604,1,4,1:2:0:0:
277,141,32679,69,0,1:0:0:0:
239,113,32754,1,0,1:0:0:0:
278,72,32829,37,0,1:0:0:0:
230,49,32904,1,0,1:0:0:0:
256,16,32979,6,0,P|283:26|300:57,1,42,4|0,0:0|0:0,0:0:0:0:
362,94,33129,5,0,0:0:0:0:
359,105,33204,1,4,0:3:0:0:
349,117,33279,1,4,0:3:0:0:
329,126,33354,2,0,P|306:118|260:107,1,42,4|0,0:2|0:0,0:0:0:0:
250,187,33504,101,0,0:0:0:0:
238,189,33579,1,4,0:3:0:0:
223,187,33654,1,4,0:3:0:0:
205,174,33729,2,0,P|200:150|186:104,1,42,4|0,0:2|0:0,0:0:0:0:
109,144,33879,5,0,0:0:0:0:
99,140,33954,1,4,0:3:0:0:
93,125,34029,1,4,0:3:0:0:
97,105,34104,1,4,1:2:0:0:
117,84,34179,1,0,1:0:0:0:
129,63,34254,1,0,1:0:0:0:
122,45,34329,1,0,1:0:0:0:
112,34,34404,1,0,1:0:0:0:
34,58,34479,101,4,0:0:0:0:
33,67,34554,1,0,0:0:0:0:
38,77,34629,1,0,0:0:0:0:
57,83,34704,2,0,P|77:78|80:47,1,42,4|4,0:3|0:3,0:0:0:0:
34,58,34854,5,4,0:2:0:0:
23,71,34929,1,0,0:0:0:0:
31,102,35004,1,0,0:0:0:0:
79,130,35079,2,0,P|112:112|126:81,1,42,4|4,0:3|0:3,0:0:0:0:
34,58,35229,101,4,1:2:0:0:
77,161,35379,5,4,1:3:0:0:
165,228,35529,101,4,1:3:0:0:
274,242,35679,5,4,1:2:0:0:
375,199,35829,101,4,1:3:0:0:
448,253,35979,102,0,P|453:209|484:81,1,168,6|0,0:2|1:0,0:0:0:0:
244,64,36579,1,0,0:0:0:0:
300,121,36729,2,0,P|362:111|394:87,1,100.8,2|0,0:3|0:0,0:0:0:0:
363,268,37104,2,0,P|333:227|277:192,1,100.8,2|0,1:2|0:0,0:0:0:0:
127,225,37479,69,6,0:3:0:0:
97,366,37704,1,0,0:0:0:0:
11,260,37854,2,0,L|-3:140,1,100.8,0|0,1:0|0:0,0:0:0:0:
22,338,38229,1,2,0:0:0:0:
127,225,38454,1,0,0:0:0:0:
191,318,38604,2,0,P|145:309|76:293,1,100.8,2|0,1:2|0:0,0:0:0:0:
22,338,38979,38,0,P|62:313|37:203,1,168,6|0,0:3|1:0,0:0:0:0:
139,57,39579,1,0,0:0:0:0:
45,40,39729,2,0,P|67:98|77:147,1,100.8,2|0,0:0|0:0,0:0:0:0:
159,281,40104,2,0,P|172:228|217:198,1,100.8,2|0,1:2|0:0,0:0:0:0:
240,83,40479,70,0,P|196:75|136:60,1,100.8,6|0,0:3|0:0,0:0:0:0:
301,35,40854,1,2,1:2:0:0:
429,209,41079,1,0,0:0:0:0:
497,172,41229,1,2,0:0:0:0:
256,158,41454,1,0,0:0:0:0:
334,141,41604,2,0,P|330:182|319:263,1,100.8,0|0,1:0|0:0,0:0:0:0:
89,249,41979,38,0,P|184:267|259:284,1,168,4|0,0:2|1:0,0:0:0:0:
334,141,42579,1,0,0:0:0:0:
256,158,42729,2,0,B|215:193|215:193|153:179,1,100.8,2|0,0:0|0:0,0:0:0:0:
44,64,43104,2,0,P|32:115|16:182,1,100.8,2|0,1:2|0:0,0:0:0:0:
115,120,43479,69,6,0:3:0:0:
22,292,43704,1,0,0:0:0:0:
89,249,43854,37,0,1:2:0:0:
252,299,44079,1,0,0:0:0:0:
171,293,44229,70,0,P|124:324|87:364,1,100.8,2|0,0:0|0:0,0:0:0:0:
19,216,44604,2,0,P|26:170|36:106,1,100.8,2|0,1:2|0:0,0:0:0:0:
225,70,44979,38,0,P|169:55|126:30,1,100.8,2|0,0:0|0:0,0:0:0:0:
114,117,45279,1,0,0:0:0:0:
114,117,45354,2,0,P|134:138|146:157,4,33.6,2|0|0|0|0,1:2|0:0|0:0|0:0|0:0,0:0:0:0:
217,158,45729,85,2,0:2:0:0:
234,150,45804,1,0,0:0:0:0:
252,142,45879,1,0,0:0:0:0:
270,135,45954,1,0,0:0:0:0:
287,128,46029,1,0,0:0:0:0:
305,121,46104,2,0,P|327:146|335:165,4,33.6,2|0|0|0|0,1:2|0:0|0:0|0:0|0:0,0:0:0:0:
392,102,46479,6,0,P|373:144|362:231,1,134.4,6|0,0:2|0:0,0:0:0:0:
435,306,46854,2,0,B|453:286|453:286|435:239,1,67.2,4|0,0:2|0:0,0:0:0:0:
361,230,47079,2,0,P|337:244|306:259,1,33.6
344,339,47229,5,4,0:1:0:0:
344,339,47379,69,4,0:0:0:0:
344,339,47529,5,4,0:0:0:0:
344,339,47679,5,4,1:1:0:0:
344,339,47829,5,4,1:3:0:0:
331,246,47979,70,0,P|274:286|166:299,1,168,6|0,0:2|1:0,0:0:0:0:
27,201,48579,1,0,0:0:0:0:
24,290,48729,2,0,P|76:262|128:245,1,100.8,2|0,0:0|0:0,0:0:0:0:
189,140,49104,2,0,P|242:165|279:194,1,100.8,2|0,1:2|0:0,0:0:0:0:
429,301,49479,37,6,0:0:0:0:
355,159,49704,1,0,0:0:0:0:
295,266,49854,2,0,P|362:246|390:229,1,100.8,0|0,1:0|0:0,0:0:0:0:
435,167,50229,69,2,0:0:0:0:
325,36,50454,1,0,0:0:0:0:
411,34,50604,2,0,P|384:89|360:142,1,100.8,2|0,1:2|0:0,0:0:0:0:
435,167,50979,38,0,P|339:156|247:140,1,168,2|0,0:0|1:0,0:0:0:0:
132,42,51579,1,0,0:0:0:0:
217,35,51729,2,0,P|199:92|186:140,1,100.8,2|0,0:0|0:0,0:0:0:0:
37,206,52104,2,0,P|85:232|134:270,1,100.8,2|0,1:2|0:0,0:0:0:0:
202,285,52479,69,6,0:0:0:0:
28,130,52704,1,0,0:0:0:0:
37,206,52854,37,2,1:2:0:0:
197,132,53079,1,0,0:0:0:0:
143,193,53229,70,0,P|133:239|123:310,1,100.8,2|0,0:0|0:0,0:0:0:0:
52,239,53604,1,0,1:0:0:0:
200,323,53829,1,0,0:0:0:0:
124,292,53979,38,0,P|241:257|266:211,1,168,2|0,0:0|1:0,0:0:0:0:
418,100,54579,1,0,0:0:0:0:
441,177,54729,2,0,P|384:173|342:128,1,100.8,2|0,0:0|0:0,0:0:0:0:
226,47,55104,2,0,P|185:53|108:74,1,100.8,2|0,1:2|0:0,0:0:0:0:
54,38,55479,69,2,0:0:0:0:
14,197,55704,1,0,0:0:0:0:
114,145,55854,2,0,P|96:196|83:256,1,100.8,2|2,1:2|0:2,0:0:0:0:
204,314,56229,38,0,P|227:331|248:344,1,33.6,2|0,0:2|0:0,0:0:0:0:
275,229,56379,1,0,0:0:0:0:
283,231,56454,1,0,0:0:0:0:
291,234,56529,1,0,0:0:0:0:
299,237,56604,70,0,P|309:309|315:346,1,100.8,2|0,1:2|1:0,0:0:0:0:
421,210,56979,38,0,P|480:251|497:234,1,100.8
486,164,57279,1,0,0:0:0:0:
486,164,57354,2,0,L|493:123,1,33.6,0|0,1:2|1:0,0:0:0:0:
447,65,57504,1,0,1:0:0:0:
440,68,57579,1,0,1:0:0:0:
434,73,57654,1,0,1:0:0:0:
431,80,57729,70,0,P|357:67|321:56,1,100.8
256,33,58029,1,0,0:0:0:0:
256,33,58104,2,0,L|201:47,1,33.6,0|0,1:0|1:0,0:0:0:0:
271,108,58254,1,0,1:0:0:0:
274,115,58329,1,0,1:0:0:0:
279,121,58404,1,0,1:0:0:0:
286,124,58479,38,0,P|283:198|289:271,1,126,4|0,0:2|0:0,0:0:0:0:
196,279,58779,1,0,0:0:0:0:
196,279,58854,2,0,P|226:304|254:334,1,42,4|0,0:2|0:0,0:0:0:0:
81,275,59004,2,0,P|109:257|127:249,1,42
158,353,59229,69,4,0:2:0:0:
158,353,59379,37,4,0:0:0:0:
158,353,59529,69,4,0:2:0:0:
158,353,59679,37,4,1:3:0:0:
158,353,59829,69,4,1:3:0:0:
76,373,59979,22,0,B|82:331|49:294|45:312|13:265|33:214,1,168,4|0,1:0|1:0,0:0:0:0:
88,53,60579,1,0,0:0:0:0:
158,100,60729,2,0,P|38:66|-1:46,1,168,0|0,1:0|1:3,0:0:0:0:
108,245,61329,1,2,0:3:0:0:
55,187,61479,102,0,P|43:186|25:134,1,67.2,6|0,1:2|0:0,0:0:0:0:
22,134,61704,2,0,P|40:117|66:114,1,33.6
128,145,61854,5,0,1:0:0:0:
128,145,61929,1,0,0:0:0:0:
35,36,62079,1,0,0:0:0:0:
165,74,62229,102,0,P|217:90|279:96,1,100.8,0|0,1:0|0:0,0:0:0:0:
440,111,62604,2,0,P|426:141|347:142,1,100.8,0|0,1:0|0:0,0:0:0:0:
300,30,62979,6,0,P|286:138|280:221,1,168,0|0,1:0|1:0,0:0:0:0:
432,275,63579,1,0,0:0:0:0:
460,289,63654,1,0,0:0:0:0:
475,316,63729,1,0,1:0:0:0:
234,261,63954,2,0,P|214:280|189:285,2,33.6,0|2|0,0:0|0:3|1:0,0:0:0:0:
199,84,64329,1,2,0:3:0:0:
98,207,64479,102,0,P|87:212|98:267,1,67.2,4|0,1:2|0:0,0:0:0:0:
95,269,64704,2,0,P|119:274|143:264,1,33.6
182,206,64854,5,0,1:0:0:0:
182,206,64929,1,0,0:0:0:0:
156,347,65079,1,0,0:0:0:0:
269,209,65229,102,0,P|256:176|238:122,1,67.2,0|0,1:0|1:0,0:0:0:0:
236,137,65454,1,0,1:0:0:0:
226,127,65529,1,0,1:0:0:0:
251,84,65604,5,0,1:0:0:0:
89,40,65829,1,0,1:0:0:0:
30,92,65979,102,0,P|138:49|216:26,1,168,0|0,1:0|1:0,0:0:0:0:
84,264,66579,1,0,0:0:0:0:
117,142,66729,2,0,B|203:208|203:208|166:201|137:217,1,168,0|0,1:0|1:0,0:0:0:0:
257,150,67329,1,2,0:3:0:0:
295,285,67479,6,0,P|284:279|295:224,1,67.2,4|0,1:2|0:0,0:0:0:0:
292,223,67704,2,0,P|316:217|340:227,1,33.6
379,286,67854,101,0,1:0:0:0:
379,286,67929,1,0,0:0:0:0:
225,336,68079,1,0,0:0:0:0:
345,357,68229,6,0,P|395:365|468:376,1,100.8,0|0,1:0|0:0,0:0:0:0:
478,223,68604,2,0,P|461:181|444:122,1,100.8,0|0,1:0|0:0,0:0:0:0:
374,0,68979,102,0,P|366:102|362:170,1,168,0|0,1:0|1:0,0:0:0:0:
223,240,69579,1,0,0:0:0:0:
195,254,69654,1,0,0:0:0:0:
180,281,69729,1,0,1:0:0:0:
421,226,69954,2,0,P|441:245|466:250,2,33.6,0|2|0,0:0|0:3|1:0,0:0:0:0:
456,49,70329,1,2,0:3:0:0:
326,98,70479,6,0,P|327:85|274:68,1,67.2,4|0,1:2|0:0,0:0:0:0:
273,64,70704,2,0,P|256:82|253:108,1,33.6
189,135,70854,102,0,P|206:164|220:240,1,100.8,0|0,1:0|0:0,0:0:0:0:
410,347,71229,1,0,1:0:0:0:
415,340,71304,1,0,0:0:0:0:
421,334,71379,1,0,1:0:0:0:
427,329,71454,1,0,1:0:0:0:
434,324,71529,1,0,1:0:0:0:
410,347,71604,6,0,P|332:330|287:305,1,100.8,0|0,1:0|1:0,0:0:0:0:
106,268,71979,102,0,B|139:270|168:292|168:292|268:254,1,168,0|0,1:0|1:0,0:0:0:0:
109,350,72579,1,0,0:0:0:0:
261,256,72729,2,0,P|169:205|83:188,1,168,0|0,1:0|1:0,0:0:0:0:
109,350,73329,1,2,0:3:0:0:
108,190,73479,6,0,P|118:184|160:220,1,67.2,4|0,1:2|0:0,0:0:0:0:
163,219,73704,2,0,P|155:242|134:258,1,33.6
70,256,73854,102,0,P|42:230|5:171,1,100.8,0|0,1:0|0:0,0:0:0:0:
106,25,74229,2,0,P|95:31|81:47,4,33.6,0|0|0|0|0,1:0|0:0|0:0|0:0|0:0,0:0:0:0:
36,107,74604,2,0,P|22:95|6:87,1,33.6,0|0,1:0|0:0,0:0:0:0:
175,66,74829,1,0,0:0:0:0:
331,8,74979,6,0,P|312:113|303:189,1,168,0|0,1:0|1:0,0:0:0:0:
162,244,75579,1,0,0:0:0:0:
134,258,75654,1,0,0:0:0:0:
119,285,75729,1,0,1:0:0:0:
360,230,75954,2,0,P|380:249|405:254,2,33.6,0|2|0,0:0|0:3|1:0,0:0:0:0:
199,315,76329,1,0,0:3:0:0:
350,322,76479,102,0,P|351:335|298:352,1,67.2,4|0,1:2|0:0,0:0:0:0:
297,356,76704,2,0,P|280:338|277:312,1,33.6
307,260,76854,1,0,1:0:0:0:
307,260,76929,2,0,P|300:224|274:145,1,100.8
264,49,77229,1,0,1:0:0:0:
265,40,77304,1,0,0:0:0:0:
266,32,77379,1,0,0:0:0:0:
267,24,77454,1,0,0:0:0:0:
269,15,77529,1,0,0:0:0:0:
264,49,77604,6,0,P|228:59|168:80,1,100.8,0|0,1:0|1:0,0:0:0:0:
281,162,77979,102,0,P|336:176|348:224,1,100.8,0|0,1:0|0:0,0:0:0:0:
149,158,78354,1,0,1:0:0:0:
149,158,78429,2,0,P|104:130|50:104,1,100.8
5,195,78729,6,0,P|20:185|57:179,1,33.6,0|0,1:0|0:0,0:0:0:0:
149,158,78879,2,2,P|165:165|188:195,1,33.6,2|0,0:3|0:0,0:0:0:0:
243,273,79029,1,2,0:3:0:0:
261,267,79104,101,0,1:0:0:0:
279,266,79179,2,2,P|259:227|247:197,1,67.2,2|2,0:3|0:3,0:0:0:0:
258,130,79404,1,0,0:0:0:0:
258,130,79479,6,0,P|191:182|142:203,1,126,4|0,1:2|0:0,0:0:0:0:
76,169,79779,1,0,0:0:0:0:
63,162,79854,2,0,P|78:212|96:301,1,126,0|0,1:0|0:0,0:0:0:0:
279,266,80229,102,0,P|261:291|240:328,1,42,0|0,1:0|0:0,0:0:0:0:
400,205,80379,2,0,P|369:201|326:202,1,42,0|0,1:0|0:0,0:0:0:0:
499,288,80529,1,0,1:0:0:0:
482,296,80604,5,0,1:0:0:0:
465,307,80679,2,0,P|478:240|493:210,1,84,0|0,0:0|1:0,0:0:0:0:
462,149,80904,1,0,1:0:0:0:
462,149,80979,102,0,L|268:119,1,151.199995385742,4|0,1:2|0:0,0:0:0:0:
228,127,81279,1,0,0:0:0:0:
227,109,81354,1,0,1:0:0:0:
235,93,81429,1,0,1:0:0:0:
336,52,81579,1,0,1:0:0:0:
462,149,81729,6,0,P|429:237|404:305,1,151.199995385742,4|0,1:2|0:0,0:0:0:0:
363,354,82029,1,0,0:0:0:0:
346,345,82104,1,0,1:0:0:0:
337,330,82179,1,0,1:0:0:0:
346,223,82329,1,0,1:0:0:0:
462,149,82479,102,0,P|401:115|331:46,1,151.199995385742,4|0,1:2|0:0,0:0:0:0:
265,32,82779,1,0,0:0:0:0:
265,32,82854,2,0,P|227:53|198:74,1,50.3999984619141,4|0,1:2|0:0,0:0:0:0:
112,159,83079,1,0,1:0:0:0:
56,59,83229,6,0,B|44:41|22:34|22:34|106:13|135:63|153:107,1,189.000007209778,0|0,1:0|1:0,0:0:0:0:
112,159,83529,1,0,1:0:0:0:
127,166,83604,1,4,1:3:0:0:
161,167,83679,1,0,1:0:0:0:
206,144,83754,1,0,0:0:0:0:
342,191,83904,1,0,1:0:0:0:
328,181,83979,6,0,P|373:266|331:280,1,168,4|0,0:2|0:0,0:0:0:0:
323,281,84354,2,0,P|297:294|291:319,2,42,0|0|0,1:0|0:0|0:0,0:0:0:0:
247,230,84579,1,0,0:0:0:0:
247,230,84654,1,0,0:0:0:0:
247,230,84729,70,0,B|212:230|191:195|191:195|149:185|149:185|119:247|55:230,1,210,4|0,0:3|1:0,0:0:0:0:
58,233,85179,2,0,P|33:221|15:194,1,42
77,156,85329,1,0,0:0:0:0:
77,156,85404,1,0,0:0:0:0:
77,156,85479,22,0,P|85:100|99:58,1,84,4|0,0:3|0:0,0:0:0:0:
177,108,85704,1,0,0:0:0:0:
177,108,85779,1,0,0:0:0:0:
177,108,85854,102,0,P|185:52|199:10,1,84,0|0,1:0|0:0,0:0:0:0:
262,153,86079,1,0,0:0:0:0:
262,153,86154,1,0,0:0:0:0:
262,153,86229,22,0,P|270:97|276:79,1,42,4|0,0:3|0:0,0:0:0:0:
228,274,86379,2,0,P|188:313|173:325,1,42,4|0,0:3|0:0,0:0:0:0:
329,195,86529,2,0,P|384:186|403:185,1,42,4|0,0:3|0:0,0:0:0:0:
200,201,86679,2,0,P|149:175|133:164,1,42,8|0,0:3|0:0,0:0:0:0:
310,271,86829,2,0,P|335:320|342:339,1,42,8|0,0:3|0:0,0:0:0:0:
400,262,86979,70,0,P|406:189|426:79,1,168,4|0,0:2|0:0,0:0:0:0:
429,85,87354,2,0,P|468:74|496:71,2,42,0|0|0,1:0|0:0|0:0,0:0:0:0:
335,92,87579,1,0,0:0:0:0:
335,92,87654,1,0,0:0:0:0:
335,92,87729,22,0,B|280:102|280:102|266:89|266:89|238:86|219:67|219:67|182:77|176:141,1,210,4|0,0:3|1:0,0:0:0:0:
181,145,88179,2,0,P|196:175|200:197,1,42
117,193,88329,1,0,0:0:0:0:
117,193,88404,1,0,0:0:0:0:
117,193,88479,102,0,P|111:248|103:290,1,84,4|0,0:3|0:0,0:0:0:0:
199,270,88704,1,0,0:0:0:0:
199,270,88779,1,0,0:0:0:0:
199,270,88854,22,0,P|193:325|185:367,1,84,0|0,1:0|0:0,0:0:0:0:
293,229,89079,1,0,0:0:0:0:
293,229,89154,1,0,0:0:0:0:
293,229,89229,70,0,P|285:284|283:300,1,42,4|0,0:3|0:0,0:0:0:0:
310,96,89379,2,0,P|318:41|320:25,1,42,4|0,0:3|0:0,0:0:0:0:
307,227,89529,22,0,P|313:282|315:298,1,42,4|0,0:3|0:0,0:0:0:0:
288,94,89679,2,0,P|281:38|279:22,1,42,8|0,0:3|0:0,0:0:0:0:
363,158,89829,102,0,L|404:151,1,42,8|0,0:3|0:0,0:0:0:0:
244,161,89979,22,0,P|166:153|74:136,1,168,4|0,0:2|0:0,0:0:0:0:
29,77,90354,2,0,P|19:61|0:19,4,42,0|0|0|0|0,1:0|0:0|0:0|0:0|0:0,0:0:0:0:
77,136,90729,70,0,B|50:176|64:225|89:209|115:244|103:289,1,168,4|0,0:3|0:0,0:0:0:0:
0,306,91104,1,4,1:2:0:0:
5,296,91179,1,0,0:0:0:0:
11,288,91254,1,0,0:0:0:0:
19,281,91329,1,0,0:0:0:0:
28,275,91404,1,0,0:0:0:0:
102,289,91479,22,0,B|102:242|136:215|156:237|182:193|166:147,1,168,4|0,0:2|0:0,0:0:0:0:
159,71,91854,2,0,P|178:52|204:44,4,42,0|0|0|0|0,1:0|0:0|0:0|0:0|0:0,0:0:0:0:
166,147,92229,102,0,P|267:188|330:235,1,168,4|0,0:3|0:0,0:0:0:0:
422,210,92604,1,4,1:2:0:0:
413,216,92679,1,0,0:0:0:0:
405,223,92754,1,0,0:0:0:0:
399,231,92829,1,0,0:0:0:0:
394,241,92904,1,0,0:0:0:0:
314,221,92979,22,0,B|341:146|341:146|390:144|418:92,1,168,4|0,0:2|0:0,0:0:0:0:
342,65,93354,2,0,P|320:67|305:49,4,42,0|0|0|0|0,1:0|0:0|0:0|0:0|0:0,0:0:0:0:
412,101,93729,70,0,B|440:151|479:157|479:157|459:166|439:195,1,126,4|0,0:3|0:0,0:0:0:0:
412,245,94029,1,0,0:0:0:0:
421,249,94104,1,0,1:0:0:0:
433,258,94179,1,0,0:0:0:0:
446,271,94254,1,0,0:0:0:0:
461,287,94329,1,0,0:0:0:0:
475,310,94404,1,0,0:0:0:0:
495,337,94479,54,0,P|471:336|450:337,4,42,4|0|0|4|4,1:3|0:0|0:0|0:3|0:3,0:0:0:0:
512,263,94854,1,4,1:2:0:0:
497,257,94929,1,0,0:0:0:0:
481,242,95004,1,0,0:0:0:0:
466,219,95079,1,4,0:3:0:0:
461,187,95154,1,4,0:3:0:0:
412,187,95229,5,4,1:2:0:0:
402,174,95304,1,0,0:0:0:0:
395,153,95379,1,0,0:0:0:0:
394,125,95454,1,4,0:3:0:0:
405,95,95529,1,4,0:3:0:0:
422,46,95604,101,0,1:2:0:0:
440,67,95679,1,0,1:0:0:0:
454,73,95754,1,0,1:0:0:0:
464,70,95829,1,0,1:0:0:0:
470,64,95904,1,0,1:0:0:0:
424,0,95979,102,0,P|400:120|381:166,1,168,4|0,0:2|0:0,0:0:0:0:
374,173,96354,2,0,P|338:179|305:161,2,42,0|0|0,1:0|0:0|0:0,0:0:0:0:
326,101,96579,1,0,0:0:0:0:
326,101,96654,1,0,0:0:0:0:
326,101,96729,70,0,B|298:97|298:97|270:106|248:138|248:138|225:87|202:57|202:57|170:49,1,210,4|0,0:3|1:0,0:0:0:0:
168,50,97179,2,0,P|147:52|116:61,1,42
158,136,97329,1,0,0:0:0:0:
158,136,97404,1,0,0:0:0:0:
158,136,97479,22,0,P|147:192|138:256,1,84,4|0,0:3|0:0,0:0:0:0:
31,154,97704,1,0,0:0:0:0:
31,154,97779,1,0,0:0:0:0:
31,154,97854,102,0,P|42:98|51:34,1,84,0|0,1:0|0:0,0:0:0:0:
142,218,98079,1,0,0:0:0:0:
142,218,98154,1,0,0:0:0:0:
142,218,98229,22,0,P|87:234|69:236,1,42,4|0,0:3|0:0,0:0:0:0:
265,196,98379,2,0,P|317:215|334:224,1,42,4|0,0:3|0:0,0:0:0:0:
150,138,98529,2,0,P|118:91|109:75,1,42,4|0,0:3|0:0,0:0:0:0:
211,253,98679,2,0,P|208:310|205:329,1,42,8|0,0:3|0:0,0:0:0:0:
228,124,98829,2,0,P|261:80|276:66,1,42,8|0,0:3|0:0,0:0:0:0:
340,139,98979,70,0,B|458:119|458:119|489:78,1,168,4|0,0:2|0:0,0:0:0:0:
481,69,99354,2,0,P|460:46|442:29,2,42,0|0|0,1:0|0:0|0:0,0:0:0:0:
365,60,99579,1,0,0:0:0:0:
365,60,99654,1,0,0:0:0:0:
365,60,99729,22,0,P|344:104|339:141,1,84,4|0,1:3|0:0,0:0:0:0:
342,152,99954,2,0,P|357:181|375:201,1,42
446,254,100104,1,0,1:0:0:0:
446,254,100179,1,0,0:0:0:0:
446,254,100254,2,0,P|400:260|342:272,1,84
286,243,100479,102,0,P|270:221|183:199,1,84,4|0,0:2|0:0,0:0:0:0:
134,156,100704,1,0,0:0:0:0:
134,156,100779,1,0,0:0:0:0:
134,156,100854,2,0,P|102:180|87:235,1,84,4|0,1:2|0:0,0:0:0:0:
41,303,101079,1,0,0:0:0:0:
41,303,101154,1,0,0:0:0:0:
41,303,101229,22,0,P|66:341|79:347,3,42,4|0|0|0,0:2|0:0|0:0|0:0,0:0:0:0:
134,313,101529,1,0,1:0:0:0:
147,311,101604,1,0,1:0:0:0:
167,302,101679,1,0,1:0:0:0:
190,280,101754,1,0,1:2:0:0:
316,322,101904,1,0,0:0:0:0:
308,334,101979,70,0,P|297:283|397:266,1,168,4|0,0:2|0:0,0:0:0:0:
453,302,102354,2,0,P|479:322|505:315,4,42,0|0|0|0|0,1:0|0:0|0:0|0:0|0:0,0:0:0:0:
388,256,102729,22,0,B|384:218|384:218|415:189|424:149|424:149|401:140|382:102,1,168,4|0,0:3|0:0,0:0:0:0:
461,38,103104,1,4,1:2:0:0:
465,47,103179,1,0,0:0:0:0:
465,57,103254,1,0,0:0:0:0:
462,67,103329,1,0,1:0:0:0:
456,76,103404,1,0,1:0:0:0:
389,115,103479,102,0,B|365:105|358:92|358:92|310:113|263:72,1,126,4|0,1:2|0:0,0:0:0:0:
214,33,103779,1,0,0:0:0:0:
214,33,103854,2,0,P|195:41|168:57,4,42,0|0|0|0|0,1:0|0:0|0:0|0:0|0:0,0:0:0:0:
204,124,104229,21,4,1:2:0:0:
204,124,104379,69,4,1:2:0:0:
204,124,104529,21,4,1:2:0:0:
204,124,104679,101,4,1:2:0:0:
204,124,104829,21,4,1:2:0:0:
288,83,104979,53,4,1:2:0:0:
298,82,105054,1,0,0:0:0:0:
308,81,105129,1,0,0:0:0:0:
318,78,105204,1,0,1:0:0:0:
328,73,105279,1,0,0:0:0:0:
366,96,105354,37,0,1:0:0:0:
366,96,105429,1,0,1:0:0:0:
452,78,105579,1,0,1:0:0:0:
451,175,105729,69,4,1:2:0:0:
441,174,105804,1,0,0:0:0:0:
431,173,105879,1,0,0:0:0:0:
421,170,105954,1,0,1:0:0:0:
411,165,106029,1,0,0:0:0:0:
373,188,106104,37,0,1:0:0:0:
373,188,106179,1,0,1:0:0:0:
287,170,106329,1,0,1:0:0:0:
289,266,106479,69,4,1:2:0:0:
299,265,106554,1,0,1:0:0:0:
309,264,106629,1,0,0:0:0:0:
319,261,106704,1,0,0:0:0:0:
329,256,106779,1,0,0:0:0:0:
367,279,106854,37,0,1:0:0:0:
367,279,106929,1,0,1:0:0:0:
453,261,107079,1,0,1:0:0:0:
452,358,107229,69,4,1:2:0:0:
442,357,107304,1,0,1:0:0:0:
432,356,107379,1,0,0:0:0:0:
422,353,107454,1,0,0:0:0:0:
412,348,107529,1,0,0:0:0:0:
374,371,107604,37,0,1:0:0:0:
374,371,107679,1,0,1:0:0:0:
288,353,107829,1,0,1:0:0:0:
213,289,107979,69,4,1:2:0:0:
213,289,108054,1,0,1:0:0:0:
97,333,108204,1,0,1:0:0:0:
12,282,108354,1,0,1:0:0:0:
23,199,108504,1,0,1:0:0:0:
32,184,108579,1,0,0:0:0:0:
42,179,108654,1,0,1:0:0:0:
49,179,108729,21,4,0:0:0:0:
42,172,108804,1,4,0:0:0:0:
30,172,108879,1,4,0:0:0:0:
16,180,108954,1,4,0:0:0:0:
6,197,109029,1,4,0:0:0:0:
7,222,109104,1,12,0:0:0:0:
18,245,109179,1,12,0:0:0:0:
46,260,109254,1,12,0:0:0:0:
77,253,109329,1,12,0:0:0:0:
104,229,109404,1,12,0:0:0:0:
111,184,109479,22,0,P|104:157|83:125,1,42,12|0,1:3|0:0,0:0:0:0:
174,85,109629,85,0,0:0:0:0:
171,74,109704,1,4,0:3:0:0:
161,62,109779,1,4,0:3:0:0:
141,53,109854,2,0,P|121:55|78:76,1,42,4|0,1:2|0:0,0:0:0:0:
258,171,110004,37,0,0:0:0:0:
261,158,110079,1,4,0:3:0:0:
258,144,110154,1,4,0:3:0:0:
245,126,110229,2,0,P|226:117|178:114,1,42,4|0,1:2|0:0,0:0:0:0:
81,172,110379,5,0,0:0:0:0:
72,183,110454,1,4,0:3:0:0:
67,199,110529,1,4,0:3:0:0:
42,210,110604,101,0,1:0:0:0:
89,231,110679,1,0,1:0:0:0:
114,253,110754,1,0,1:0:0:0:
127,268,110829,1,0,1:0:0:0:
132,280,110904,1,0,1:0:0:0:
130,290,110979,6,0,P|127:322|125:347,4,42,12|0|0|0|0,0:2|0:0|0:0|0:0|0:0,0:0:0:0:
203,259,111354,2,0,P|281:274|360:287,1,126,0|0,1:0|0:2,0:0:0:0:
462,160,111729,2,0,P|484:139|508:125,4,42,4|0|0|0|0,0:3|0:0|0:0|0:0|0:0,0:0:0:0:
394,201,112104,2,0,P|405:260|424:354,1,126,0|0,1:0|0:0,0:0:0:0:
343,357,112404,1,0,0:0:0:0:
343,357,112479,102,0,P|298:346|282:304,1,84,4|0,0:2|0:0,0:0:0:0:
211,276,112704,1,0,0:2:0:0:
213,263,112779,1,0,0:2:0:0:
220,252,112854,2,0,P|248:198|288:141,1,126,0|0,1:0|0:0,0:0:0:0:
265,71,113154,1,0,0:0:0:0:
265,71,113229,6,0,P|239:38|211:28,4,42,4|0|0|0|0,0:3|0:0|0:0|0:0|0:0,0:0:0:0:
285,144,113604,1,0,1:2:0:0:
300,140,113679,1,0,0:2:0:0:
320,126,113754,1,0,0:2:0:0:
341,104,113829,1,0,0:2:0:0:
363,72,113904,1,0,0:2:0:0:
393,40,113979,102,0,P|419:22|442:15,4,42,4|0|0|0|0,0:3|0:0|0:0|0:0|0:0,0:0:0:0:
384,116,114354,2,0,P|301:91|230:66,1,126,0|0,1:0|0:2,0:0:0:0:
117,151,114729,2,0,P|91:133|68:126,4,42,4|0|0|0|0,0:3|0:0|0:0|0:0|0:0,0:0:0:0:
187,185,115104,2,0,P|197:140|154:43,1,126,0|0,1:0|0:0,0:0:0:0:
236,14,115404,1,0,0:0:0:0:
236,14,115479,6,0,P|291:36|301:62,1,84,4|0,0:2|0:0,0:0:0:0:
285,133,115704,1,0,0:0:0:0:
279,145,115779,1,0,0:0:0:0:
276,158,115854,2,0,P|266:232|264:288,1,126,0|0,1:0|0:0,0:0:0:0:
327,337,116154,1,0,0:0:0:0:
327,337,116229,102,0,L|384:309,3,42,4|0|0|0,0:3|0:0|0:0|0:0,0:0:0:0:
263,283,116529,1,0,0:0:0:0:
222,282,116604,1,4,1:2:0:0:
195,298,116679,1,0,0:0:0:0:
179,315,116754,1,0,0:0:0:0:
169,326,116829,1,0,0:0:0:0:
158,332,116904,1,0,0:0:0:0:
148,333,116979,6,0,P|90:312|71:275,1,84,4|0,0:2|0:0,0:0:0:0:
71,286,117204,2,0,P|77:255|91:243,1,42
157,226,117354,102,0,P|175:195|162:142,1,84,0|0,1:0|0:0,0:0:0:0:
122,83,117579,1,0,0:0:0:0:
112,89,117654,1,0,0:0:0:0:
105,99,117729,2,0,P|93:129|90:159,3,42,4|0|0|0,0:3|0:0|0:0|0:0,0:0:0:0:
167,149,118029,1,0,0:0:0:0:
177,157,118104,5,0,1:0:0:0:
332,190,118254,1,0,0:0:0:0:
329,177,118329,1,0,0:0:0:0:
312,160,118404,1,0,0:0:0:0:
284,145,118479,102,0,P|243:222|249:256,1,126,4|0,0:2|0:0,0:0:0:0:
312,307,118779,1,0,0:0:0:0:
299,315,118854,5,0,1:0:0:0:
312,326,118929,1,0,0:0:0:0:
342,334,119004,1,0,0:0:0:0:
382,326,119079,1,0,0:0:0:0:
417,281,119154,1,0,0:0:0:0:
438,212,119229,102,0,P|430:195|401:162,1,42,4|0,0:3|0:0,0:0:0:0:
357,129,119379,2,0,P|343:133|302:147,1,42,8|0,0:3|0:0,0:0:0:0:
249,106,119529,2,0,P|237:86|227:60,1,42,8|0,0:3|0:0,0:0:0:0:
186,151,119679,2,0,P|172:147|131:133,1,42,8|0,0:3|0:0,0:0:0:0:
78,175,119829,2,0,P|65:191|56:210,1,42,8|0,0:3|0:0,0:0:0:0:
23,112,119979,101,4,0:2:0:0:
0,85,120054,1,0,0:0:0:0:
0,51,120129,1,0,0:0:0:0:
15,25,120204,1,0,0:0:0:0:
41,16,120279,1,0,0:0:0:0:
62,27,120354,1,0,1:2:0:0:
71,43,120429,1,0,0:0:0:0:
68,56,120504,1,0,0:0:0:0:
62,66,120579,1,0,0:0:0:0:
51,65,120654,1,0,0:0:0:0:
46,60,120729,70,0,P|27:36|33:26,4,42,4|0|0|0|0,0:3|0:0|0:0|0:0|0:0,0:0:0:0:
115,81,121104,1,0,1:2:0:0:
124,92,121179,1,0,0:0:0:0:
128,112,121254,1,0,0:0:0:0:
116,143,121329,1,0,0:0:0:0:
78,178,121404,1,0,0:0:0:0:
27,206,121479,6,0,P|17:233|7:293,1,54.5999975006105,4|0,1:3|0:0,0:0:0:0:
146,246,121629,1,0,0:0:0:0:
156,245,121704,1,4,0:3:0:0:
165,241,121779,1,4,0:3:0:0:
171,233,121854,38,0,P|161:260|151:320,1,54.5999975006105,4|0,1:2|0:3,0:0:0:0:
312,230,122004,1,0,0:0:0:0:
322,229,122079,1,4,0:3:0:0:
331,225,122154,1,4,0:3:0:0:
337,217,122229,6,0,P|327:244|317:304,1,54.5999975006105,4|0,1:2|0:3,0:0:0:0:
467,258,122379,1,0,0:0:0:0:
477,257,122454,1,4,0:3:0:0:
486,253,122529,1,4,0:3:0:0:
492,245,122604,101,0,1:0:0:0:
458,234,122679,1,0,1:2:0:0:
424,201,122754,1,0,1:0:0:0:
410,154,122829,1,0,1:0:0:0:
424,97,122904,1,0,1:0:0:0:
475,45,122979,6,0,P|462:25|447:7,4,42,12|0|0|0|0,1:2|0:0|0:0|0:0|0:0,0:0:0:0:
500,121,123354,2,0,P|437:117|359:86,1,126,0|0,1:0|0:0,0:0:0:0:
209,55,123729,2,0,P|206:35|192:0,4,42,4|0|0|0|0,0:3|0:0|0:0|0:0|0:0,0:0:0:0:
175,122,124104,2,0,P|135:108|18:90,1,126,0|0,1:0|0:0,0:0:0:0:
22,165,124404,1,0,0:0:0:0:
22,165,124479,102,0,P|33:209|85:212,1,84,4|0,0:2|0:0,0:0:0:0:
145,202,124704,1,0,0:0:0:0:
158,200,124779,1,0,0:0:0:0:
170,204,124854,2,0,P|229:217|294:240,1,126,0|0,1:0|0:0,0:0:0:0:
364,210,125154,1,0,0:0:0:0:
364,210,125229,2,0,P|405:192|427:188,4,42,4|0|0|0|0,0:3|0:0|0:0|0:0|0:0,0:0:0:0:
290,239,125604,1,0,1:0:0:0:
275,243,125679,1,0,0:0:0:0:
255,257,125754,1,0,0:0:0:0:
234,279,125829,1,0,0:0:0:0:
212,311,125904,1,0,0:0:0:0:
182,343,125979,6,0,P|156:361|133:368,4,42,4|0|0|0|0,0:3|0:0|0:0|0:0|0:0,0:0:0:0:
144,277,126354,2,0,P|148:261|170:123,1,126,0|0,1:0|0:0,0:0:0:0:
50,20,126729,2,0,P|34:10|7:3,4,42,4|0|0|0|0,0:3|0:0|0:0|0:0|0:0,0:0:0:0:
39,97,127104,2,0,P|112:85|191:71,1,126,0|0,1:0|0:0,0:0:0:0:
239,107,127404,1,0,0:0:0:0:
239,107,127479,102,0,B|267:129|267:129|246:214,1,109.199995001221,4|0,0:2|0:0,0:0:0:0:
204,267,127704,1,0,1:0:0:0:
232,278,127779,1,0,1:0:0:0:
253,299,127854,2,0,P|336:275|423:274,1,163.799992501831,0|0,1:0|0:0,0:0:0:0:
487,310,128154,1,0,0:0:0:0:
487,310,128229,6,0,P|476:341|446:332,2,54.5999975006105,4|0|0,0:2|0:0|0:0,0:0:0:0:
412,272,128454,1,0,0:0:0:0:
391,253,128529,1,0,0:0:0:0:
385,211,128604,101,0,1:0:0:0:
413,229,128679,1,0,1:0:0:0:
412,259,128754,1,0,1:0:0:0:
401,273,128829,1,0,1:0:0:0:
388,279,128904,1,0,1:0:0:0:
380,276,128979,6,0,P|359:274|325:255,4,42,4|0|0|0|0,0:2|0:0|0:0|0:0|0:0,0:0:0:0:
376,200,129354,1,0,1:0:0:0:
376,184,129429,1,0,0:0:0:0:
367,161,129504,1,0,0:0:0:0:
351,135,129579,1,0,0:0:0:0:
326,106,129654,1,0,0:0:0:0:
303,68,129729,102,0,P|292:38|291:14,2,42,0|0|0,0:2|0:0|0:0,0:0:0:0:
383,88,129954,1,0,0:0:0:0:
382,124,130029,1,0,0:0:0:0:
351,135,130104,1,4,1:2:0:0:
343,162,130179,1,0,0:0:0:0:
321,162,130254,1,0,0:0:0:0:
311,177,130329,1,0,0:0:0:0:
295,174,130404,1,0,0:0:0:0:
288,170,130479,6,0,P|244:209|252:274,1,126,4|0,0:2|0:0,0:0:0:0:
207,335,130779,1,0,0:0:0:0:
213,348,130854,101,0,0:0:0:0:
197,351,130929,1,0,0:0:0:0:
167,343,131004,1,0,0:0:0:0:
136,316,131079,1,0,0:0:0:0:
128,259,131154,1,0,0:0:0:0:
144,188,131229,6,0,P|131:169|108:145,1,42,4|0,0:2|2:0,0:0:0:0:
169,95,131379,2,0,P|205:108|232:115,1,42,4|0,0:2|2:0,0:0:0:0:
258,198,131529,2,0,B|252:222|252:222|263:251,1,42,4|0,0:3|2:0,0:0:0:0:
303,108,131679,2,0,P|323:102|343:95,1,42,4|0,0:2|2:0,0:0:0:0:
393,154,131829,2,0,P|379:170|368:188,1,42,4|0,0:3|2:0,0:0:0:0:
263,316,131979,22,0,B|258:340|258:340|269:369,4,50.3999984619141,12|0|0|0|0,1:2|0:0|0:0|1:0|0:0,0:0:0:0:
347,340,132354,1,0,1:0:0:0:
347,340,132429,1,0,1:0:0:0:
180,349,132579,1,0,1:0:0:0:
223,247,132729,38,0,B|218:223|218:223|229:194,4,50.3999984619141,4|0|0|0|0,1:2|0:0|0:0|1:0|0:0,0:0:0:0:
307,223,133104,1,0,1:0:0:0:
307,223,133179,1,0,1:0:0:0:
151,279,133329,1,0,1:0:0:0:
81,125,133479,70,0,L|71:181,4,50.3999984619141,4|0|0|0|0,1:2|1:0|0:0|0:0|0:0,0:0:0:0:
160,155,133854,1,0,1:0:0:0:
160,155,133929,1,0,1:0:0:0:
256,88,134079,1,0,1:0:0:0:
431,125,134229,38,0,L|441:181,4,50.3999984619141,4|0|0|0|0,1:2|1:0|0:0|0:0|0:0,0:0:0:0:
352,155,134604,1,0,1:0:0:0:
352,155,134679,1,0,1:0:0:0:
256,88,134829,1,0,1:0:0:0:
346,31,134979,69,4,1:2:0:0:
346,31,135054,1,0,1:0:0:0:
256,88,135204,1,0,1:0:0:0:
161,36,135354,1,0,1:0:0:0:
154,44,135429,1,0,0:0:0:0:
150,53,135504,1,0,1:0:0:0:
151,63,135579,2,0,P|165:98|169:113,1,50.3999984619141,0|0,0:0|1:0,0:0:0:0:
256,88,135729,21,4,0:0:0:0:
248,99,135804,1,4,0:0:0:0:
265,114,135879,21,4,0:0:0:0:
246,129,135954,1,4,0:0:0:0:
271,156,136029,85,4,0:0:0:0:
237,179,136104,1,12,0:0:0:0:
274,210,136179,21,12,0:0:0:0:
234,234,136254,1,12,0:0:0:0:
279,272,136329,85,12,0:0:0:0:
231,294,136404,1,12,0:0:0:0:
259,335,136479,38,0,P|291:333|317:359,1,50.3999984619141,12|0,1:3|0:0,0:0:0:0:
345,269,136629,5,0,0:0:0:0:
350,259,136704,1,4,0:3:0:0:
363,250,136779,1,4,0:3:0:0:
382,247,136854,2,0,P|408:274|419:304,1,50.3999984619141,4|0,1:2|0:0,0:0:0:0:
268,236,137004,101,0,0:0:0:0:
261,226,137079,1,4,0:3:0:0:
260,210,137154,1,4,0:3:0:0:
267,192,137229,2,0,P|274:166|271:135,1,50.3999984619141,4|0,1:2|0:0,0:0:0:0:
206,291,137379,5,0,0:0:0:0:
196,297,137454,1,4,0:3:0:0:
180,295,137529,1,4,0:3:0:0:
166,281,137604,1,0,1:0:0:0:
157,254,137679,1,0,1:0:0:0:
144,232,137754,1,0,1:0:0:0:
125,229,137829,1,0,1:0:0:0:
111,233,137904,1,0,1:0:0:0:
73,300,137979,101,4,1:3:0:0:
78,308,138054,1,0,0:0:0:0:
89,311,138129,1,0,0:0:0:0:
106,302,138204,2,0,P|116:284|96:260,1,50.3999984619141,4|4,0:3|0:3,0:0:0:0:
73,300,138354,5,4,1:2:0:0:
74,317,138429,1,0,0:0:0:0:
101,334,138504,1,0,0:0:0:0:
155,320,138579,2,0,P|165:283|153:252,1,50.3999984619141,4|4,0:3|0:3,0:0:0:0:
73,300,138729,101,4,1:2:0:0:
127,201,138879,5,4,1:2:0:0:
222,146,139029,101,4,1:3:0:0:
332,146,139179,5,4,1:2:0:0:
426,201,139329,101,4,1:3:0:0:
479,128,139479,5,4,1:2:0:0:
256,192,139554,12,2,145479,2:2:0:0:
