osu file format v14

[General]
AudioFilename: audio.mp3
AudioLeadIn: 0
PreviewTime: 110979
Countdown: 0
SampleSet: Soft
StackLeniency: 0.8
Mode: 0
LetterboxInBreaks: 0
WidescreenStoryboard: 1

[Editor]
DistanceSpacing: 1.2
BeatDivisor: 5
GridSize: 4
TimelineZoom: 2.600005

[Metadata]
Title:Shirayama Hime no Kami
TitleUnicode:白山比咩神
Artist:DWMw
ArtistUnicode:DWMω
Creator:Luscent
Version:DeviousPanda's Extravaganza
Source:
Tags:BMS of fighters 2013 Bof2013 abe3 abe yuta Hakusan 古伝新韻二十打ち Koden Shin'in Nijuu Uchi Shinin Ancient Remains Arranged 20 Beats Electronic Video Game Instrumental 404 AimNotFound Down YokesPai DeviousPanda
BeatmapID:2983174
BeatmapSetID:1367344

[Difficulty]
HPDrainRate:4.6
CircleSize:4.1
OverallDifficulty:8.6
ApproachRate:9.3
SliderMultiplier:1.7
SliderTickRate:1

[Events]
//Background and Video events
0,0,"srym.jpg",0,0
//Break Periods
//Storyboard Layer 0 (Background)
//Storyboard Layer 1 (Fail)
//Storyboard Layer 2 (Pass)
//Storyboard Layer 3 (Foreground)
//Storyboard Layer 4 (Overlay)
//Storyboard Sound Samples

[TimingPoints]
1479,375,4,2,1,30,1,0
2604,-133.333333333333,4,2,1,30,0,0
2979,-133.333333333333,4,2,1,30,0,0
13854,-105.263157894737,4,2,1,30,0,0
14229,-86.9565217391303,4,2,1,30,0,0
14979,-117.647058823529,4,2,1,50,0,0
26979,-66.6666666666667,4,3,1,65,0,0
31479,-66.6666666666667,4,3,1,70,0,0
32979,-66.6666666666667,4,3,1,85,0,1
35379,-64.5161290322581,4,3,1,85,0,1
35529,-62.5,4,3,1,85,0,1
35679,-60.6060606060606,4,3,1,85,0,1
35829,-58.8235294117647,4,3,1,85,0,1
35979,-83.3333333333333,4,3,1,65,0,0
65979,-71.4285714285714,4,3,1,65,0,0
71979,-66.6666666666667,4,3,1,65,0,0
77979,-62.5,4,3,1,65,0,0
80829,-62.5,4,3,1,70,0,0
83979,-83.3333333333333,4,3,1,75,0,0
84354,-66.6666666666667,4,3,1,75,0,0
84729,-71.4285714285714,4,3,1,75,0,0
85104,-58.8235294117647,4,3,1,75,0,0
87729,-52.6315789473684,4,3,1,75,0,0
89979,-71.4285714285714,4,3,1,75,0,0
93729,-52.6315789473684,4,3,1,75,0,0
94479,-52.6315789473684,4,3,1,85,0,0
94554,-62.5,4,3,1,85,0,0
95979,-55.5555555555556,4,3,1,75,0,0
104979,-55.5555555555556,4,3,1,70,0,0
109479,-55.5555555555556,4,3,1,70,0,1
109854,-55.5555555555556,4,3,1,80,0,1
110229,-55.5555555555556,4,3,1,90,0,1
110604,-55.5555555555556,4,3,1,100,0,0
110979,-50,4,3,1,85,0,1
121479,-50,4,3,1,70,0,1
121854,-50,4,3,1,80,0,1
122229,-50,4,3,1,90,0,1
122604,-50,4,3,1,100,0,1
122979,-50,4,3,1,85,0,1
131979,-50,4,3,1,90,0,0
136479,-50,4,3,1,70,0,1
136854,-50,4,3,1,80,0,1
137229,-50,4,3,1,90,0,1
137604,-50,4,3,1,100,0,0
137979,-50,4,3,1,80,0,1
138354,-50,4,3,1,90,0,1
138729,-50,4,3,1,100,0,1
138879,-45.4545454545455,4,3,1,100,0,1
139029,-41.6666666666667,4,3,1,100,0,1
139179,-38.4615384615385,4,3,1,100,0,1
139329,-35.7142857142857,4,3,1,100,0,1
139479,-1000,4,3,1,100,0,0
139554,-1000,4,3,3,90,0,0
140229,-1000,4,3,1,80,0,0
140979,-1000,4,3,3,70,0,0
141729,-1000,4,3,1,60,0,0
142479,-1000,4,3,3,50,0,0
143229,-1000,4,3,1,40,0,0
143979,-1000,4,3,3,30,0,0
144729,-1000,4,3,1,20,0,0
145479,-1000,4,2,2,55,0,0

[Colours]
Combo1 : 249,254,186
Combo2 : 248,211,171
Combo3 : 171,252,203
Combo4 : 242,56,36
Combo5 : 249,98,60
Combo6 : 255,255,255
Combo7 : 208,198,176
Combo8 : 175,221,254

[HitObjects]
256,192,1104,12,0,2604,0:0:0:0:
0,375,2979,86,0,P|25:362|127:329,1,127.500004863739,0|0,3:0|0:0,0:0:0:0:
248,351,3729,1,2,0:0:0:0:
4,261,4104,2,0,P|21:265|32:271,1,25.5000009727478
251,354,4479,102,0,P|306:313|298:241,1,127.500004863739,0|2,3:0|0:0,0:0:0:0:
264,181,5229,1,0,0:0:0:0:
354,108,5604,2,0,P|345:135|342:153,1,25.5000009727478
121,17,5979,6,0,P|138:66|149:152,1,127.500004863739,0|0,3:0|0:0,0:0:0:0:
225,244,6729,1,2,0:0:0:0:
60,151,7104,2,0,P|65:125|77:109,1,25.5000009727478
303,93,7479,102,0,P|339:123|340:204,1,127.500004863739,0|0,3:0|0:0,0:0:0:0:
175,297,8079,1,2,0:0:0:0:
208,337,8229,2,0,P|257:324|269:298,1,76.5000029182435,2|2,0:0|3:2,0:0:0:0:
210,174,8604,1,2,0:0:0:0:
354,299,8829,1,2,0:0:0:0:
354,299,8979,6,0,P|414:273|481:260,1,127.500004863739,2|0,3:2|0:0,0:0:0:0:
512,129,9579,1,0,0:0:0:0:
472,98,9729,2,0,P|429:115|416:159,1,76.5000029182435,2|0,0:0|0:0,0:0:0:0:
479,266,10104,1,0,0:0:0:0:
278,130,10329,101,0,0:0:0:0:
324,188,10479,2,0,P|328:137|344:47,1,127.500004863739,0|2,3:0|0:0,0:0:0:0:
247,237,11079,1,0,0:0:0:0:
471,13,11454,1,0,0:0:0:0:
482,55,11604,1,2,0:0:0:0:
273,133,11829,5,0,0:0:0:0:
234,145,11979,2,0,P|190:125|165:41,1,127.500004863739,0|0,3:0|0:0,0:0:0:0:
342,0,12579,1,0,0:0:0:0:
336,20,12729,1,2,0:0:0:0:
155,147,12954,101,0,0:0:0:0:
162,170,13104,1,0,0:0:0:0:
241,255,13329,5,0,0:0:0:0:
231,285,13479,2,0,P|184:291|142:307,1,76.5000029182435,0|0,3:0|0:0,0:0:0:0:
372,239,13854,102,0,P|334:210|274:184,1,96.8999974124909,0|0,3:0|0:0,0:0:0:0:
512,357,14229,6,0,P|506:310|469:217,1,117.30000223732,0|0,3:0|3:0,0:0:0:0:
69,158,14604,101,0,1:0:0:0:
383,13,14829,5,0,0:0:0:0:
439,66,14979,2,0,P|427:119|421:171,1,86.7000016536713,4|0,3:2|0:0,0:0:0:0:
280,99,15354,2,0,P|301:194|306:249,1,144.500002756119,0|0,1:0|3:0,0:0:0:0:
438,384,15954,1,0,0:0:0:0:
506,351,16104,1,0,1:0:0:0:
242,181,16479,37,4,3:0:0:0:
426,235,16704,1,4,3:0:0:0:
248,185,17079,101,0,3:0:0:0:
320,164,17229,1,0,3:0:0:0:
297,330,17454,5,0,1:0:0:0:
297,330,17529,1,0,1:0:0:0:
297,330,17604,2,0,P|299:280|312:233,1,86.7000016536713,0|2,1:0|1:2,0:0:0:0:
381,100,17979,102,0,P|353:51|310:44,1,86.7000016536713,4|0,3:2|0:0,0:0:0:0:
180,129,18354,2,0,P|151:177|167:218,1,86.7000016536713,0|0,1:0|0:0,0:0:0:0:
316,245,18729,2,0,P|354:224|415:213,1,86.7000016536713,0|0,3:0|0:0,0:0:0:0:
511,9,19104,6,0,P|505:30|494:50,1,28.9000005512238,0|0,1:0|0:0,0:0:0:0:
301,334,19479,101,4,3:0:0:0:
261,146,19704,1,4,3:0:0:0:
305,337,20079,5,0,3:0:0:0:
323,263,20229,1,0,3:0:0:0:
189,197,20454,101,0,1:0:0:0:
189,197,20529,1,0,1:0:0:0:
189,197,20604,2,0,P|131:220|116:249,1,86.7000016536713,0|2,1:0|1:2,0:0:0:0:
0,35,20979,6,0,P|60:46|102:126,1,144.500002756119,4|0,3:2|1:0,0:0:0:0:
260,221,21729,2,0,P|308:198|323:164,1,86.7000016536713,0|0,3:0|0:0,0:0:0:0:
117,244,22104,102,0,P|123:264|125:283,1,28.9000005512238,0|0,1:0|0:0,0:0:0:0:
287,0,22479,5,4,3:0:0:0:
246,149,22704,1,4,3:0:0:0:
291,6,23079,101,0,3:0:0:0:
308,80,23229,1,0,3:0:0:0:
172,180,23454,5,0,1:0:0:0:
172,180,23529,1,0,1:0:0:0:
172,180,23604,2,0,P|134:161|120:110,1,86.7000016536713,0|2,1:0|1:2,0:0:0:0:
369,139,23979,102,0,P|351:189|347:236,1,86.7000016536713,4|0,3:2|0:0,0:0:0:0:
185,85,24354,2,0,P|203:35|207:-12,1,86.7000016536713,0|0,1:0|0:0,0:0:0:0:
401,20,24729,6,0,P|436:47|429:102,1,86.7000016536713,0|0,3:0|3:0,0:0:0:0:
437,86,25029,1,0,3:0:0:0:
437,86,25104,1,0,1:0:0:0:
108,126,25479,2,0,P|73:153|80:208,1,86.7000016536713,4|4,3:0|3:0,0:0:0:0:
72,192,25779,1,0,3:0:0:0:
72,192,25854,1,0,1:0:0:0:
257,384,26079,101,0,3:0:0:0:
266,310,26229,1,0,3:0:0:0:
253,0,26454,5,0,1:0:0:0:
255,17,26529,1,0,1:0:0:0:
258,34,26604,1,0,1:0:0:0:
262,304,26829,101,0,1:0:0:0:
157,246,26979,21,4,0:2:0:0:
166,221,27054,1,0,0:0:0:0:
192,200,27129,1,0,0:0:0:0:
229,185,27204,1,0,0:0:0:0:
281,189,27279,1,0,0:0:0:0:
332,175,27354,69,0,1:0:0:0:
342,188,27429,2,0,P|328:227|320:264,1,51.0000019454957,0|0,1:0|0:0,0:0:0:0:
415,234,27579,2,0,P|401:273|393:310,1,51.0000019454957,0|0,1:0|0:0,0:0:0:0:
283,114,27729,37,4,0:2:0:0:
264,111,27804,1,0,0:0:0:0:
245,94,27879,1,0,0:0:0:0:
236,63,27954,1,0,0:0:0:0:
247,25,28029,1,0,0:0:0:0:
298,4,28104,69,0,1:0:0:0:
303,12,28179,2,0,P|338:22|365:38,1,51.0000019454957,0|0,1:0|0:0,0:0:0:0:
371,100,28329,2,0,P|406:110|433:126,1,51.0000019454957,0|0,1:0|0:0,0:0:0:0:
352,313,28479,37,4,0:2:0:0:
338,309,28554,1,0,0:0:0:0:
319,311,28629,1,0,0:0:0:0:
303,323,28704,1,0,0:0:0:0:
293,345,28779,1,0,0:0:0:0:
248,371,28854,69,0,1:0:0:0:
239,367,28929,2,0,P|223:318|214:301,1,51.0000019454957,0|0,1:0|0:0,0:0:0:0:
261,254,29079,2,0,P|245:205|236:188,1,51.0000019454957,0|0,1:0|0:0,0:0:0:0:
83,84,29229,37,4,0:2:0:0:
92,89,29304,1,0,0:0:0:0:
101,98,29379,1,0,0:0:0:0:
107,112,29454,1,0,0:0:0:0:
110,130,29529,1,0,0:0:0:0:
145,173,29604,69,0,1:0:0:0:
138,185,29679,2,0,P|101:195|82:202,1,51.0000019454957,0|0,1:0|0:0,0:0:0:0:
49,260,29829,2,0,P|12:270|-7:277,1,51.0000019454957,0|0,1:0|0:0,0:0:0:0:
110,337,29979,37,4,0:2:0:0:
143,364,30054,1,0,0:0:0:0:
185,367,30129,1,0,0:0:0:0:
224,347,30204,1,0,0:0:0:0:
250,311,30279,1,0,0:0:0:0:
254,266,30354,1,0,1:0:0:0:
230,229,30429,2,0,P|199:219|165:214,1,51.0000019454957,0|0,1:0|0:0,0:0:0:0:
68,135,30579,69,0,1:0:0:0:
68,135,30654,1,0,0:0:0:0:
68,135,30729,1,4,0:2:0:0:
21,123,30804,1,0,0:0:0:0:
0,77,30879,1,0,0:0:0:0:
10,23,30954,1,0,0:0:0:0:
62,0,31029,1,0,0:0:0:0:
112,8,31104,1,0,1:0:0:0:
143,44,31179,2,0,P|174:54|208:59,1,51.0000019454957,0|0,1:0|0:0,0:0:0:0:
340,18,31329,37,0,1:0:0:0:
340,18,31404,1,0,0:0:0:0:
340,18,31479,1,4,1:2:0:0:
349,45,31554,1,0,1:0:0:0:
355,84,31629,2,0,P|356:126|351:163,1,51.0000019454957,0|0,0:0|1:0,0:0:0:0:
170,148,31779,69,0,0:0:0:0:
152,198,31854,2,0,P|151:240|156:277,1,51.0000019454957,4|0,1:2|1:0,0:0:0:0:
258,377,32004,37,0,0:0:0:0:
258,377,32079,1,0,1:0:0:0:
258,377,32154,1,0,0:0:0:0:
258,377,32229,69,4,1:2:0:0:
265,358,32304,1,0,1:0:0:0:
248,330,32379,1,0,0:0:0:0:
271,301,32454,1,0,1:0:0:0:
246,268,32529,1,0,0:0:0:0:
276,229,32604,1,4,1:2:0:0:
245,184,32679,1,0,1:0:0:0:
283,148,32754,1,0,1:0:0:0:
245,94,32829,1,0,1:0:0:0:
286,37,32904,1,0,1:0:0:0:
220,0,32979,53,4,0:0:0:0:
213,6,33054,2,0,P|177:17|137:27,1,51.0000019454957
314,152,33204,5,4,0:3:0:0:
312,136,33279,1,4,0:3:0:0:
298,117,33354,2,0,P|262:106|222:96,1,51.0000019454957,4|0,0:2|0:0,0:0:0:0:
469,0,33504,101,0,0:0:0:0:
459,31,33579,1,4,0:3:0:0:
429,59,33654,2,0,P|393:70|353:80,1,51.0000019454957,4|4,0:3|0:2,0:0:0:0:
132,86,33804,5,0,0:0:0:0:
114,78,33879,1,0,0:0:0:0:
99,73,33954,1,4,0:3:0:0:
83,72,34029,1,4,0:3:0:0:
30,130,34104,102,0,P|39:175|42:205,1,51.0000019454957,4|0,1:2|1:0,0:0:0:0:
164,216,34254,2,0,P|155:261|152:291,1,51.0000019454957,0|0,1:0|1:0,0:0:0:0:
51,346,34404,5,0,1:0:0:0:
42,353,34479,2,0,P|23:311|39:282,1,51.0000019454957,4|0,0:0|0:0,0:0:0:0:
235,182,34629,101,0,0:0:0:0:
249,184,34704,1,4,0:3:0:0:
266,195,34779,1,4,0:3:0:0:
275,215,34854,2,0,P|248:252|215:253,1,51.0000019454957,4|0,0:2|0:0,0:0:0:0:
22,134,35004,5,0,0:0:0:0:
11,109,35079,1,4,0:3:0:0:
17,75,35154,1,4,0:3:0:0:
46,46,35229,102,0,P|91:50|108:78,1,51.0000019454957,4|0,1:2|0:0,0:0:0:0:
171,9,35379,6,0,P|199:44|192:78,1,52.7000004020691,4|0,1:3|0:0,0:0:0:0:
316,55,35529,102,0,P|311:100|279:118,1,54.4,4|0,1:3|0:0,0:0:0:0:
401,197,35679,6,0,P|365:225|331:216,1,56.1000005350113,4|0,1:2|0:0,0:0:0:0:
359,384,35829,102,0,P|313:379|293:347,1,57.8000011024475,4|0,1:3|0:0,0:0:0:0:
75,192,35979,102,0,P|171:202|298:221,1,203.999993774414,4|0,0:2|1:0,0:0:0:0:
512,98,36579,1,0,0:0:0:0:
478,30,36729,2,0,P|423:45|419:132,1,122.399996264649,0|0,0:3|0:0,0:0:0:0:
487,284,37104,2,0,P|479:219|459:150,1,122.399996264649,0|0,1:0|0:0,0:0:0:0:
289,10,37479,69,0,0:3:0:0:
289,10,37704,1,0,0:0:0:0:
223,50,37854,2,0,P|237:104|325:109,1,122.399996264649,0|0,1:0|0:0,0:0:0:0:
475,27,38229,2,0,P|416:37|344:68,1,122.399996264649
176,236,38604,37,0,1:0:0:0:
176,236,38829,1,0,0:0:0:0:
235,282,38979,2,0,P|293:267|363:257,1,122.399996264649
142,369,39354,2,0,P|97:324|122:263,1,122.399996264649,0|0,1:0|0:0,0:0:0:0:
305,308,39729,2,0,P|297:372|221:367,1,122.399996264649
222,130,40104,69,0,1:0:0:0:
222,130,40329,1,0,0:0:0:0:
164,180,40479,2,0,P|93:164|17:159,1,122.399996264649
355,225,40854,37,0,1:0:0:0:
355,225,41079,1,0,0:0:0:0:
295,273,41229,2,0,P|225:250|254:119,1,203.999993774414,0|0,0:0|1:0,0:0:0:0:
112,384,41829,69,0,0:0:0:0:
57,332,41979,2,0,P|63:278|140:252,1,122.399996264649,4|0,0:2|0:0,0:0:0:0:
317,366,42354,2,0,P|232:352|160:347,1,122.399996264649,0|0,1:0|0:0,0:0:0:0:
0,150,42729,37,0,0:0:0:0:
0,150,42954,1,0,0:0:0:0:
64,183,43104,2,0,P|133:174|202:160,1,122.399996264649,0|0,1:0|0:0,0:0:0:0:
301,64,43479,70,0,P|372:90|369:143,1,122.399996264649
277,261,43854,2,0,P|264:186|311:162,1,122.399996264649,0|0,1:0|0:0,0:0:0:0:
493,191,44229,2,0,P|435:199|362:213,1,122.399996264649
2,117,44604,37,0,1:0:0:0:
2,117,44829,1,0,0:0:0:0:
56,166,44979,1,0,0:0:0:0:
77,163,45054,1,0,0:0:0:0:
96,159,45129,1,0,0:0:0:0:
114,153,45204,1,0,0:0:0:0:
132,146,45279,1,0,0:0:0:0:
146,137,45354,1,0,1:0:0:0:
157,127,45429,1,0,0:0:0:0:
168,115,45504,1,0,0:0:0:0:
177,102,45579,1,0,0:0:0:0:
184,88,45654,1,0,0:0:0:0:
189,72,45729,85,0,0:0:0:0:
216,101,45804,1,0,0:0:0:0:
248,117,45879,1,0,0:0:0:0:
282,128,45954,1,0,0:0:0:0:
319,135,46029,1,0,0:0:0:0:
356,136,46104,1,0,1:0:0:0:
392,131,46179,1,0,0:0:0:0:
431,119,46254,1,0,0:0:0:0:
464,102,46329,1,0,0:0:0:0:
488,77,46404,1,0,0:0:0:0:
505,42,46479,6,0,P|431:44|399:55,1,81.5999975097657,4|0,0:2|0:0,0:0:0:0:
472,277,46704,1,0,0:0:0:0:
480,269,46779,1,0,0:0:0:0:
486,258,46854,2,0,P|420:222|386:216,1,81.5999975097657,4|0,0:2|0:0,0:0:0:0:
209,177,47079,5,0,0:0:0:0:
176,163,47154,1,0,0:0:0:0:
151,136,47229,1,4,0:1:0:0:
311,50,47379,1,4,0:0:0:0:
337,236,47529,1,4,0:0:0:0:
512,79,47679,70,0,P|470:87|450:98,1,40.7999987548829,4|0,1:1|0:0,0:0:0:0:
334,144,47829,2,0,P|353:149|373:151,1,40.7999987548829,4|0,1:3|0:0,0:0:0:0:
440,16,47979,38,0,P|420:137|407:251,1,203.999993774414,0|0,0:0|1:0,0:0:0:0:
129,367,48579,1,0,0:0:0:0:
79,313,48729,2,0,P|98:261|173:255,1,122.399996264649
314,304,49104,2,0,P|226:312|169:326,1,122.399996264649,0|0,1:0|0:0,0:0:0:0:
25,161,49479,69,0,0:0:0:0:
25,161,49704,1,0,0:0:0:0:
90,116,49854,2,0,P|89:70|8:56,1,122.399996264649,0|0,1:0|0:0,0:0:0:0:
100,199,50229,2,0,P|157:179|227:162,1,122.399996264649
475,193,50604,37,0,1:0:0:0:
475,193,50829,1,0,0:0:0:0:
512,263,50979,2,0,P|502:317|495:384,1,122.399996264649
397,297,51354,2,0,P|393:233|380:148,1,122.399996264649,0|0,1:0|0:0,0:0:0:0:
472,32,51729,69,0,0:0:0:0:
472,32,51804,2,0,P|430:61|385:57,1,81.5999975097657
292,190,52104,2,0,P|246:144|170:141,1,122.399996264649,0|0,1:0|0:0,0:0:0:0:
371,264,52479,38,0,P|376:185|385:125,1,122.399996264649
205,10,52854,2,0,P|200:89|191:149,1,122.399996264649,0|0,1:0|0:0,0:0:0:0:
147,191,53229,1,0,0:0:0:0:
373,267,53454,69,0,0:0:0:0:
312,312,53604,2,0,P|264:280|280:198,1,122.399996264649,0|0,1:0|0:0,0:0:0:0:
369,136,53979,37,0,0:0:0:0:
390,134,54054,1,0,0:0:0:0:
414,127,54129,1,0,0:0:0:0:
433,117,54204,1,0,0:0:0:0:
447,104,54279,1,0,0:0:0:0:
478,130,54354,70,0,P|463:186|454:260,1,122.399996264649,0|0,1:0|0:0,0:0:0:0:
399,301,54654,1,0,0:0:0:0:
414,311,54729,1,0,0:0:0:0:
510,42,54954,37,0,0:0:0:0:
449,0,55104,2,0,P|385:7|378:90,1,122.399996264649,0|0,1:0|0:0,0:0:0:0:
290,142,55479,69,0,0:0:0:0:
278,127,55554,1,0,0:0:0:0:
262,115,55629,1,0,0:0:0:0:
244,107,55704,1,0,0:0:0:0:
132,65,55854,38,0,P|177:47|211:16,1,81.5999975097657,0|0,1:0|0:0,0:0:0:0:
211,30,56079,1,0,0:0:0:0:
145,153,56229,69,0,0:0:0:0:
121,166,56304,1,0,0:0:0:0:
103,186,56379,1,0,0:0:0:0:
90,211,56454,1,0,0:0:0:0:
84,240,56529,1,0,0:0:0:0:
114,275,56604,37,0,1:0:0:0:
123,278,56679,2,0,P|170:267|195:256,1,40.7999987548829,0|0,1:0|0:0,0:0:0:0:
220,325,56829,2,0,P|239:320|262:317,1,40.7999987548829,0|0,1:0|0:0,0:0:0:0:
339,216,56979,69,0,0:0:0:0:
375,208,57054,1,0,0:0:0:0:
408,222,57129,1,0,0:0:0:0:
426,256,57204,1,0,0:0:0:0:
423,293,57279,1,0,0:0:0:0:
403,323,57354,2,0,P|391:358|389:371,2,40.7999987548829,0|0|0,1:0|1:0|1:0,0:0:0:0:
506,232,57579,37,0,1:0:0:0:
506,232,57654,1,0,1:0:0:0:
506,232,57729,1,0,0:0:0:0:
487,204,57804,1,0,0:0:0:0:
478,182,57879,1,0,0:0:0:0:
473,152,57954,1,0,0:0:0:0:
473,122,58029,1,0,0:0:0:0:
479,92,58104,69,0,1:0:0:0:
441,95,58179,1,0,1:0:0:0:
400,94,58254,1,0,1:0:0:0:
361,85,58329,1,0,1:0:0:0:
326,64,58404,1,0,1:0:0:0:
294,30,58479,37,4,0:2:0:0:
302,14,58554,1,0,0:0:0:0:
379,190,58704,1,0,0:0:0:0:
452,11,58854,69,4,0:2:0:0:
409,27,58929,1,0,0:0:0:0:
371,55,59004,1,0,0:0:0:0:
339,93,59079,1,0,0:0:0:0:
322,139,59154,1,0,0:0:0:0:
249,180,59229,37,4,0:2:0:0:
443,145,59379,1,4,0:0:0:0:
197,98,59529,1,4,0:2:0:0:
371,267,59679,69,4,1:3:0:0:
371,267,59829,1,4,1:3:0:0:
346,0,59979,2,0,P|327:136|320:238,1,203.999993774414,4|0,1:0|1:0,0:0:0:0:
53,289,60579,21,0,0:0:0:0:
68,312,60654,1,0,0:0:0:0:
81,317,60729,2,0,P|81:278|70:220,1,81.5999975097657,0|2,1:0|0:3,0:0:0:0:
37,173,60954,1,0,0:3:0:0:
38,133,61029,1,2,0:3:0:0:
53,118,61104,1,0,1:3:0:0:
71,114,61179,101,2,0:3:0:0:
169,207,61329,5,2,0:3:0:0:
16,351,61479,102,0,P|97:357|165:373,1,122.399996264649,6|0,1:2|0:0,0:0:0:0:
186,313,61779,1,0,0:0:0:0:
199,324,61854,1,0,1:0:0:0:
298,371,62079,5,0,0:0:0:0:
326,368,62154,1,0,0:0:0:0:
338,354,62229,2,0,P|331:296|259:280,1,122.399996264649,0|0,1:0|0:0,0:0:0:0:
135,372,62604,2,0,P|77:370|57:316,1,122.399996264649,0|0,1:0|0:0,0:0:0:0:
175,184,62979,102,0,P|180:161|184:125,4,40.7999987548829,0|0|0|0|0,1:0|0:0|0:0|0:0|0:0,0:0:0:0:
242,210,63354,2,0,P|178:225|100:252,1,122.399996264649,0|0,1:0|0:0,0:0:0:0:
52,223,63654,1,0,0:0:0:0:
48,204,63729,1,0,1:0:0:0:
258,9,63879,5,2,0:3:0:0:
221,9,63954,1,0,0:0:0:0:
200,21,64029,1,2,0:3:0:0:
195,42,64104,1,0,1:0:0:0:
202,57,64179,101,2,0:3:0:0:
72,128,64329,5,2,0:3:0:0:
4,16,64479,102,0,P|68:39|135:51,1,122.399996264649,4|0,1:2|0:0,0:0:0:0:
150,119,64779,1,0,0:0:0:0:
146,136,64854,1,0,1:0:0:0:
343,45,65079,5,0,0:0:0:0:
348,66,65154,1,0,0:0:0:0:
338,88,65229,2,0,P|305:98|285:107,1,40.7999987548829,0|0,1:0|0:0,0:0:0:0:
220,172,65379,101,0,1:0:0:0:
234,197,65454,1,0,1:0:0:0:
238,226,65529,1,0,1:0:0:0:
184,279,65604,6,0,P|122:262|49:252,1,122.399996264649,0|0,1:0|1:0,0:0:0:0:
396,139,65979,102,0,P|490:138|479:263,1,237.999992736817,0|0,1:0|1:0,0:0:0:0:
333,90,66579,1,0,0:0:0:0:
314,76,66654,1,0,0:0:0:0:
290,79,66729,2,0,P|257:106|263:184,1,95.1999970947267,0|2,1:0|0:3,0:0:0:0:
351,205,66954,5,0,0:0:0:0:
382,227,67029,1,2,0:3:0:0:
384,260,67104,1,0,1:0:0:0:
377,276,67179,101,2,0:3:0:0:
262,253,67329,5,2,0:3:0:0:
167,367,67479,102,0,P|254:347|321:338,1,142.79999564209,4|0,1:2|0:0,0:0:0:0:
386,351,67779,1,0,0:0:0:0:
397,366,67854,1,0,1:0:0:0:
424,372,67929,1,0,0:0:0:0:
460,360,68004,1,0,0:0:0:0:
479,321,68079,1,0,0:0:0:0:
466,271,68154,1,0,0:0:0:0:
494,203,68229,6,0,P|500:129|520:34,1,142.79999564209,0|0,1:0|0:0,0:0:0:0:
385,17,68604,2,0,P|379:91|359:186,1,142.79999564209,0|0,1:0|0:0,0:0:0:0:
257,257,68979,102,0,B|191:270|171:210|176:194|182:173|167:110|93:119,1,237.999992736817,0|0,1:0|1:0,0:0:0:0:
310,323,69579,1,0,0:0:0:0:
324,360,69654,1,0,0:0:0:0:
360,373,69729,2,0,P|413:358|420:294,1,95.1999970947267,0|2,1:0|0:3,0:0:0:0:
406,245,69954,5,0,0:0:0:0:
378,227,70029,1,2,0:3:0:0:
365,184,70104,1,0,1:0:0:0:
391,141,70179,101,2,0:3:0:0:
487,103,70329,5,2,0:3:0:0:
366,41,70479,102,0,P|302:56|236:50,1,95.1999970947267,4|0,1:2|0:0,0:0:0:0:
212,97,70704,1,0,0:0:0:0:
187,83,70779,1,0,0:0:0:0:
177,37,70854,1,0,1:0:0:0:
288,161,71079,5,0,0:0:0:0:
232,212,71229,1,0,1:0:0:0:
201,199,71304,1,0,0:0:0:0:
150,206,71379,1,0,1:0:0:0:
109,243,71454,1,0,1:0:0:0:
97,301,71529,1,0,1:0:0:0:
133,367,71604,102,0,P|196:350|290:337,1,142.79999564209,0|0,1:0|1:0,0:0:0:0:
451,180,71979,6,0,P|458:144|367:89,1,153.000005836487,0|0,1:0|0:0,0:0:0:0:
350,125,72279,1,0,0:0:0:0:
359,170,72354,1,0,1:0:0:0:
409,383,72579,101,0,0:0:0:0:
447,376,72654,1,0,0:0:0:0:
465,361,72729,2,0,P|478:277|491:245,1,102.000003890991,0|2,1:0|0:3,0:0:0:0:
458,182,72954,5,0,0:0:0:0:
452,137,73029,1,2,0:3:0:0:
420,93,73104,1,0,1:0:0:0:
425,85,73179,101,2,0:3:0:0:
512,26,73329,5,2,0:3:0:0:
356,176,73479,102,0,P|287:150|269:67,1,153.000005836487,4|0,1:2|0:0,0:0:0:0:
290,50,73779,1,0,0:0:0:0:
333,50,73854,1,0,1:0:0:0:
465,187,74079,5,0,0:0:0:0:
436,255,74229,1,0,1:0:0:0:
399,264,74304,1,0,0:0:0:0:
361,299,74379,1,0,0:0:0:0:
317,331,74454,1,0,0:0:0:0:
255,341,74529,1,0,0:0:0:0:
190,311,74604,102,0,P|187:280|178:238,3,51.0000019454957,0|0|0|0,1:0|0:0|0:0|0:0,0:0:0:0:
321,337,74979,6,0,P|329:254|350:153,1,153.000005836487,0|0,1:0|0:0,0:0:0:0:
96,18,75354,2,0,P|110:81|115:135,1,102.000003890991,0|0,1:0|0:0,0:0:0:0:
157,179,75579,1,0,0:0:0:0:
178,187,75654,1,0,0:0:0:0:
197,182,75729,2,0,P|230:152|217:66,1,102.000003890991,0|2,1:0|0:3,0:0:0:0:
317,40,75954,101,0,0:0:0:0:
340,11,76029,1,2,0:3:0:0:
392,7,76104,1,0,1:0:0:0:
438,33,76179,1,2,0:3:0:0:
454,87,76254,1,0,0:0:0:0:
440,144,76329,1,2,0:3:0:0:
388,175,76404,1,0,0:0:0:0:
432,234,76479,6,0,P|328:210|241:205,1,153.000005836487,4|0,1:2|0:0,0:0:0:0:
251,175,76779,1,0,0:0:0:0:
266,135,76854,1,0,1:0:0:0:
54,16,77079,101,0,0:0:0:0:
0,71,77229,1,0,1:0:0:0:
6,115,77304,1,0,0:0:0:0:
41,147,77379,1,0,0:0:0:0:
95,152,77454,1,0,0:0:0:0:
136,123,77529,1,0,0:0:0:0:
184,63,77604,6,0,P|168:141|160:242,1,153.000005836487,0|0,1:0|0:0,0:0:0:0:
136,235,77904,1,0,0:0:0:0:
184,302,77979,102,0,P|249:319|290:224,1,163.2,0|0,1:0|0:0,0:0:0:0:
262,186,78279,1,0,0:0:0:0:
262,186,78354,1,0,1:0:0:0:
391,40,78654,5,0,0:0:0:0:
400,60,78729,2,0,P|380:121|378:153,1,54.4,0|0,1:0|0:0,0:0:0:0:
300,65,78879,2,0,P|310:40|318:13,1,54.4,2|0,0:3|0:0,0:0:0:0:
471,149,79029,101,2,0:3:0:0:
479,170,79104,1,0,1:0:0:0:
476,201,79179,1,2,0:3:0:0:
446,227,79254,1,0,0:0:0:0:
399,230,79329,1,2,0:3:0:0:
360,196,79404,1,0,0:0:0:0:
297,249,79479,6,0,P|207:232|125:258,1,163.2,4|0,1:2|0:0,0:0:0:0:
98,233,79779,1,0,0:0:0:0:
102,185,79854,1,0,1:0:0:0:
0,319,80004,101,0,0:0:0:0:
0,319,80079,1,0,0:0:0:0:
0,319,80154,1,0,0:0:0:0:
26,344,80229,6,0,P|77:333|97:302,1,54.4,0|0,1:0|0:0,0:0:0:0:
100,239,80379,2,0,P|64:200|28:198,1,54.4,0|0,1:0|0:0,0:0:0:0:
12,120,80529,101,0,1:0:0:0:
2,91,80604,1,0,1:0:0:0:
19,50,80679,1,0,0:0:0:0:
63,31,80754,1,0,0:0:0:0:
110,41,80829,1,0,1:0:0:0:
137,98,80904,1,0,1:0:0:0:
194,49,80979,6,0,P|170:154|143:337,1,272,4|0,1:2|1:0,0:0:0:0:
421,38,81579,101,0,1:0:0:0:
371,43,81654,1,0,1:0:0:0:
347,76,81729,2,0,P|371:181|387:281,1,163.2,4|0,1:2|0:0,0:0:0:0:
316,309,82029,5,0,0:0:0:0:
275,319,82104,1,0,1:0:0:0:
235,293,82179,2,0,P|247:238|279:228,1,54.4,0|0,1:0|0:0,0:0:0:0:
461,274,82329,1,0,1:0:0:0:
492,262,82404,1,0,1:0:0:0:
504,234,82479,2,0,P|471:162|392:152,1,163.2,4|0,1:2|0:0,0:0:0:0:
236,125,82779,101,0,0:0:0:0:
206,99,82854,1,4,1:2:0:0:
212,53,82929,1,0,0:0:0:0:
457,280,83079,5,0,1:0:0:0:
469,317,83154,1,0,1:0:0:0:
441,354,83229,2,0,P|378:343|316:343,1,108.8,0|0,1:0|1:0,0:0:0:0:
492,195,83454,101,0,1:0:0:0:
505,186,83529,1,0,1:0:0:0:
512,173,83604,1,4,1:3:0:0:
510,160,83679,1,0,1:0:0:0:
502,150,83754,2,0,P|445:163|411:166,1,54.4,0|0,0:0|1:0,0:0:0:0:
347,158,83904,5,0,1:0:0:0:
377,226,83979,2,0,P|367:257|365:277,4,40.7999987548829,4|0|0|0|0,0:2|0:0|0:0|0:0|0:0,0:0:0:0:
338,161,84354,6,0,P|330:110|311:44,1,102.000003890991,0|0,1:0|0:0,0:0:0:0:
369,3,84579,1,0,0:0:0:0:
403,13,84654,1,0,0:0:0:0:
421,41,84729,2,0,P|462:35|485:28,4,47.5999985473633,4|0|0|0|0,0:3|0:0|0:0|0:0|0:0,0:0:0:0:
458,188,85104,70,0,P|383:164|304:155,1,115.600002204895,0|0,1:0|0:0,0:0:0:0:
275,183,85329,1,0,0:0:0:0:
230,164,85404,1,0,0:0:0:0:
219,118,85479,2,0,P|222:73|233:43,2,57.8000011024475,4|0|0,0:3|0:0|0:0,0:0:0:0:
154,184,85704,21,0,0:0:0:0:
142,201,85779,1,0,0:0:0:0:
122,208,85854,2,0,P|84:182|64:158,2,57.8000011024475,0|0|0,1:0|0:0|0:0,0:0:0:0:
129,284,86079,101,0,0:0:0:0:
135,295,86154,1,0,0:0:0:0:
138,309,86229,21,4,0:3:0:0:
214,371,86379,1,4,0:3:0:0:
39,296,86529,1,4,0:3:0:0:
271,264,86679,1,8,0:3:0:0:
18,384,86829,1,8,0:3:0:0:
143,106,86979,70,0,P|150:60|162:25,4,57.8000011024475,4|0|0|0|0,0:2|0:0|0:0|0:0|0:0,0:0:0:0:
44,27,87354,22,0,P|59:83|64:140,1,115.600002204895,0|0,1:0|0:0,0:0:0:0:
20,200,87579,1,0,0:0:0:0:
32,233,87654,1,0,0:0:0:0:
71,246,87729,2,0,P|126:231|155:208,4,64.599998274994,4|0|0|0|0,0:3|0:0|0:0|0:0|0:0,0:0:0:0:
15,323,88104,102,0,P|94:335|177:362,1,129.199996549988,0|0,1:0|0:0,0:0:0:0:
209,381,88329,1,0,0:0:0:0:
249,364,88404,1,0,0:0:0:0:
257,322,88479,2,0,P|263:273|286:205,2,64.599998274994,4|0|0,0:3|0:0|0:0,0:0:0:0:
324,365,88704,21,0,0:0:0:0:
342,383,88779,1,0,0:0:0:0:
368,381,88854,2,0,P|413:361|483:347,2,64.599998274994,0|0|0,1:0|0:0|0:0,0:0:0:0:
351,236,89079,69,0,0:0:0:0:
351,236,89154,1,0,0:0:0:0:
351,236,89229,1,4,0:3:0:0:
475,63,89379,1,4,0:3:0:0:
428,227,89529,1,4,0:3:0:0:
399,86,89679,1,8,0:3:0:0:
500,162,89829,1,8,0:3:0:0:
305,150,89979,22,0,P|273:141|242:122,4,47.5999985473633,4|0|0|0|0,0:2|0:0|0:0|0:0|0:0,0:0:0:0:
425,232,90354,101,0,1:0:0:0:
385,223,90429,1,0,0:0:0:0:
341,236,90504,1,0,0:0:0:0:
304,277,90579,1,0,0:0:0:0:
298,336,90654,1,0,0:0:0:0:
358,376,90729,22,0,P|390:367|421:348,4,47.5999985473633,4|0|0|0|0,0:3|0:0|0:0|0:0|0:0,0:0:0:0:
225,366,91104,69,4,1:2:0:0:
188,320,91179,1,0,0:0:0:0:
143,300,91254,1,0,0:0:0:0:
100,300,91329,1,0,0:0:0:0:
69,312,91404,1,0,0:0:0:0:
16,259,91479,22,0,P|25:227|44:196,4,47.5999985473633,4|0|0|0|0,0:2|0:0|0:0|0:0|0:0,0:0:0:0:
193,316,91854,101,0,1:0:0:0:
176,290,91929,1,0,0:0:0:0:
175,247,92004,1,0,0:0:0:0:
193,191,92079,1,0,0:0:0:0:
248,168,92154,1,0,0:0:0:0:
308,210,92229,22,0,P|299:242|280:273,4,47.5999985473633,4|0|0|0|0,0:3|0:0|0:0|0:0|0:0,0:0:0:0:
404,159,92604,69,4,1:2:0:0:
440,129,92679,1,0,0:0:0:0:
447,96,92754,1,0,0:0:0:0:
443,69,92829,1,0,0:0:0:0:
434,56,92904,1,0,0:0:0:0:
423,51,92979,22,0,P|378:60|360:71,4,47.5999985473633,4|0|0|0|0,0:2|0:0|0:0|0:0|0:0,0:0:0:0:
265,126,93354,101,0,1:0:0:0:
233,120,93429,1,0,0:0:0:0:
209,92,93504,1,0,0:0:0:0:
206,43,93579,1,0,0:0:0:0:
233,0,93654,1,0,0:0:0:0:
313,10,93729,22,0,P|297:78|273:230,1,193.799994824982,4|0,0:3|0:0,0:0:0:0:
206,244,94029,69,0,0:0:0:0:
206,244,94104,1,0,1:0:0:0:
160,274,94179,1,0,0:0:0:0:
114,264,94254,1,0,0:0:0:0:
95,240,94329,1,0,0:0:0:0:
94,217,94404,1,0,0:0:0:0:
130,151,94479,53,4,1:3:0:0:
145,143,94554,2,0,P|151:103|138:42,1,54.4
335,239,94704,5,4,0:3:0:0:
309,245,94779,1,4,0:3:0:0:
283,236,94854,2,0,P|277:196|290:135,1,54.4,4|0,1:2|0:0,0:0:0:0:
102,384,95004,101,0,0:0:0:0:
152,381,95079,1,4,0:3:0:0:
193,347,95154,1,4,0:3:0:0:
200,290,95229,1,4,1:2:0:0:
175,235,95304,1,0,0:0:0:0:
123,211,95379,1,0,0:0:0:0:
65,200,95454,1,4,0:3:0:0:
29,156,95529,1,4,0:3:0:0:
72,89,95604,5,0,1:2:0:0:
85,84,95679,1,0,1:0:0:0:
69,76,95754,1,0,1:0:0:0:
81,69,95829,1,0,1:0:0:0:
69,64,95904,1,0,1:0:0:0:
120,6,95979,86,0,P|91:137|64:348,1,305.999990661621,4|0,0:2|1:0,0:0:0:0:
437,265,96504,69,0,0:0:0:0:
468,285,96579,1,0,0:0:0:0:
471,325,96654,1,0,0:0:0:0:
384,351,96729,22,0,P|413:220|440:9,1,305.999990661621,4|0,0:3|1:0,0:0:0:0:
127,13,97254,101,0,0:0:0:0:
110,33,97329,1,0,0:0:0:0:
106,62,97404,1,0,0:0:0:0:
144,126,97479,22,0,P|210:123|219:33,1,122.399996264649,4|0,0:3|0:0,0:0:0:0:
376,61,97704,69,0,0:0:0:0:
401,72,97779,1,0,0:0:0:0:
444,55,97854,22,0,P|498:92|458:163,1,122.399996264649,0|0,1:0|0:0,0:0:0:0:
363,205,98079,101,0,0:0:0:0:
363,205,98154,1,0,0:0:0:0:
363,205,98229,2,0,P|352:136|337:103,1,61.1999981323243,4|0,0:3|0:0,0:0:0:0:
434,278,98379,2,0,P|445:209|460:176,1,61.1999981323243,4|0,0:3|0:0,0:0:0:0:
315,287,98529,2,0,P|270:232|241:211,1,61.1999981323243,4|0,0:3|0:0,0:0:0:0:
467,368,98679,2,0,P|511:313|540:292,1,61.1999981323243,8|0,0:3|0:0,0:0:0:0:
308,367,98829,2,0,P|242:342|206:338,1,61.1999981323243,8|0,0:3|0:0,0:0:0:0:
427,82,98979,22,0,P|405:191|386:400,1,305.999990661621,4|0,0:2|1:0,0:0:0:0:
33,318,99504,69,0,0:0:0:0:
8,289,99579,1,0,0:0:0:0:
16,249,99654,1,0,0:0:0:0:
85,216,99729,22,0,P|107:107|113:57,1,122.399996264649,4|0,1:3|0:0,0:0:0:0:
136,68,99954,1,0,0:0:0:0:
184,52,100029,1,0,0:0:0:0:
233,67,100104,1,0,1:0:0:0:
263,116,100179,1,0,0:0:0:0:
311,138,100254,1,0,0:0:0:0:
118,288,100404,101,0,0:0:0:0:
156,250,100479,2,0,P|221:233|284:229,1,122.399996264649,4|0,0:2|0:0,0:0:0:0:
443,350,100704,1,0,0:0:0:0:
432,321,100779,1,0,0:0:0:0:
396,301,100854,2,0,P|335:293|296:281,1,61.1999981323243,4|0,1:2|0:0,0:0:0:0:
317,143,101004,21,0,0:0:0:0:
333,100,101079,1,0,0:0:0:0:
372,79,101154,1,0,0:0:0:0:
415,83,101229,1,4,0:2:0:0:
445,112,101304,1,0,0:0:0:0:
454,143,101379,1,0,0:0:0:0:
448,169,101454,1,0,0:0:0:0:
434,181,101529,1,0,1:0:0:0:
420,183,101604,1,0,1:0:0:0:
411,181,101679,1,0,1:0:0:0:
407,176,101754,1,0,1:2:0:0:
237,71,101904,69,0,0:0:0:0:
198,51,101979,2,0,P|113:103|106:148,1,122.399996264649,4|0,0:2|0:0,0:0:0:0:
52,167,102204,1,0,0:0:0:0:
57,192,102279,1,0,0:0:0:0:
77,208,102354,2,0,P|131:198|154:169,1,61.1999981323243,0|0,1:0|0:0,0:0:0:0:
300,228,102504,21,0,0:0:0:0:
268,239,102579,1,0,0:0:0:0:
253,274,102654,1,0,0:0:0:0:
305,334,102729,102,0,P|208:299|92:289,1,183.599994396973,4|0,0:3|0:0,0:0:0:0:
56,311,103029,1,0,0:0:0:0:
56,311,103104,1,4,1:2:0:0:
13,295,103179,1,0,0:0:0:0:
4,244,103254,1,0,0:0:0:0:
31,199,103329,1,0,1:0:0:0:
79,173,103404,1,0,1:0:0:0:
104,121,103479,22,0,P|103:59|88:-9,1,122.399996264649,4|0,1:2|0:0,0:0:0:0:
168,175,103704,1,0,0:0:0:0:
190,151,103779,2,0,P|200:100|214:66,1,61.1999981323243,0|0,0:0|1:0,0:0:0:0:
24,103,103929,2,0,P|14:52|0:18,1,61.1999981323243
278,22,104079,69,0,0:0:0:0:
332,20,104154,1,0,0:0:0:0:
369,61,104229,21,4,1:2:0:0:
269,224,104379,1,4,1:2:0:0:
470,117,104529,1,4,1:2:0:0:
196,156,104679,1,4,1:2:0:0:
512,231,104829,1,4,1:2:0:0:
341,384,104979,69,4,1:2:0:0:
338,347,105054,1,0,0:0:0:0:
341,312,105129,1,0,0:0:0:0:
350,274,105204,1,0,1:0:0:0:
363,234,105279,1,0,0:0:0:0:
380,200,105354,1,0,1:0:0:0:
356,129,105429,37,0,1:0:0:0:
356,129,105579,1,0,1:0:0:0:
168,233,105729,69,4,1:2:0:0:
131,240,105804,1,0,0:0:0:0:
94,223,105879,1,0,0:0:0:0:
72,184,105954,1,0,1:0:0:0:
75,145,106029,1,0,0:0:0:0:
100,119,106104,1,0,1:0:0:0:
179,133,106179,37,0,1:0:0:0:
179,133,106329,1,0,1:0:0:0:
346,314,106479,69,4,1:2:0:0:
377,311,106554,1,0,1:0:0:0:
407,303,106629,1,0,0:0:0:0:
432,289,106704,1,0,0:0:0:0:
457,271,106779,1,0,0:0:0:0:
474,248,106854,1,0,1:0:0:0:
456,176,106929,37,0,1:0:0:0:
456,176,107079,1,0,1:0:0:0:
286,83,107229,69,4,1:2:0:0:
285,67,107304,1,0,1:0:0:0:
291,53,107379,1,0,0:0:0:0:
304,42,107454,1,0,0:0:0:0:
317,37,107529,1,0,0:0:0:0:
328,38,107604,1,0,1:0:0:0:
378,90,107679,37,0,1:0:0:0:
382,94,107829,1,0,1:0:0:0:
294,164,107979,69,4,1:2:0:0:
298,168,108054,1,0,1:0:0:0:
289,198,108129,1,0,0:0:0:0:
285,236,108204,1,0,1:0:0:0:
281,272,108279,1,0,0:0:0:0:
228,324,108354,38,0,P|237:368|238:401,1,61.1999981323243,0|0,1:0|0:0,0:0:0:0:
376,201,108504,2,0,P|367:245|366:278,1,61.1999981323243,0|0,1:0|0:0,0:0:0:0:
95,77,108654,69,0,1:0:0:0:
99,81,108729,21,4,0:0:0:0:
118,74,108804,1,4,0:0:0:0:
146,91,108879,1,4,0:0:0:0:
175,68,108954,1,4,0:0:0:0:
207,92,109029,1,4,0:0:0:0:
247,63,109104,1,12,0:0:0:0:
292,94,109179,1,12,0:0:0:0:
328,56,109254,1,12,0:0:0:0:
382,94,109329,1,12,0:0:0:0:
439,53,109404,1,12,0:0:0:0:
498,106,109479,53,12,1:3:0:0:
487,115,109554,2,0,P|468:164|468:207,1,61.1999981323243
247,59,109704,101,4,0:3:0:0:
278,73,109779,1,4,0:3:0:0:
295,95,109854,2,0,P|309:123|321:177,1,61.1999981323243,4|0,1:2|0:0,0:0:0:0:
509,255,110004,5,0,0:0:0:0:
467,247,110079,1,4,0:3:0:0:
426,259,110154,2,0,P|400:276|365:317,1,61.1999981323243,4|4,0:3|1:2,0:0:0:0:
189,228,110304,101,0,0:0:0:0:
217,222,110379,1,0,0:0:0:0:
244,227,110454,1,4,0:3:0:0:
270,239,110529,1,4,0:3:0:0:
285,257,110604,5,0,1:0:0:0:
246,307,110679,1,0,1:0:0:0:
185,325,110754,1,0,1:0:0:0:
116,325,110829,1,0,1:0:0:0:
50,297,110904,1,0,1:0:0:0:
64,376,110979,102,0,P|89:199|122:19,1,340,12|0,0:2|1:0,0:0:0:0:
7,91,111579,5,0,0:2:0:0:
32,114,111654,1,0,0:2:0:0:
50,145,111729,2,0,P|57:191|52:237,1,68,4|0,0:3|0:0,0:0:0:0:
240,41,111879,101,0,0:0:0:0:
225,34,111954,1,0,0:0:0:0:
245,30,112029,1,0,0:0:0:0:
231,20,112104,1,0,1:0:0:0:
171,232,112329,5,0,0:0:0:0:
175,253,112404,1,0,0:0:0:0:
186,269,112479,2,0,P|250:230|241:144,1,136,4|0,0:2|0:0,0:0:0:0:
121,54,112704,101,0,0:2:0:0:
71,42,112779,1,0,0:2:0:0:
33,2,112854,1,0,1:0:0:0:
320,82,113004,5,0,0:0:0:0:
316,96,113079,1,0,0:0:0:0:
56,153,113229,101,4,0:3:0:0:
58,165,113304,1,0,0:0:0:0:
60,178,113379,1,0,0:0:0:0:
62,191,113454,1,0,0:0:0:0:
64,204,113529,1,0,0:0:0:0:
67,217,113604,5,0,1:2:0:0:
104,250,113679,1,0,0:2:0:0:
165,255,113754,1,0,0:2:0:0:
225,227,113829,1,0,0:2:0:0:
253,163,113904,1,0,0:2:0:0:
233,233,113979,102,0,P|242:111|267:15,1,204,4|0,0:3|0:0,0:0:0:0:
334,13,114279,1,0,0:0:0:0:
370,45,114354,1,0,1:0:0:0:
137,108,114504,5,0,0:0:0:0:
120,98,114579,1,0,0:2:0:0:
137,91,114654,1,0,0:0:0:0:
122,80,114729,102,0,P|129:141|128:189,1,68,4|0,0:3|0:0,0:0:0:0:
323,296,114879,2,0,P|316:235|317:187,1,68
236,77,115029,5,0,0:0:0:0:
240,91,115104,2,0,P|225:218|223:282,1,136,0|0,1:0|0:0,0:0:0:0:
102,316,115329,101,0,0:0:0:0:
45,311,115404,1,0,0:0:0:0:
15,264,115479,1,4,0:2:0:0:
231,130,115704,5,0,0:0:0:0:
255,181,115779,1,0,0:0:0:0:
229,231,115854,1,0,1:0:0:0:
114,126,116004,101,0,0:0:0:0:
124,119,116079,2,0,P|132:76|137:33,1,68
35,184,116229,5,4,0:3:0:0:
25,177,116304,2,0,P|17:134|12:91,1,68
220,13,116454,101,0,0:0:0:0:
289,4,116529,1,0,0:0:0:0:
344,32,116604,1,4,1:2:0:0:
358,83,116679,1,0,0:0:0:0:
351,132,116754,1,0,0:0:0:0:
362,174,116829,1,0,0:0:0:0:
391,200,116904,1,0,0:0:0:0:
422,202,116979,6,0,P|434:117|471:-43,1,204,4|0,0:2|0:0,0:0:0:0:
385,0,117279,1,0,0:0:0:0:
343,25,117354,1,0,1:0:0:0:
495,252,117504,101,0,0:0:0:0:
510,259,117579,1,0,0:0:0:0:
494,264,117654,1,0,0:0:0:0:
505,271,117729,6,0,P|378:295|279:335,1,204,4|0,0:3|0:0,0:0:0:0:
253,273,118029,1,0,0:0:0:0:
267,223,118104,1,0,1:0:0:0:
396,6,118254,101,0,0:0:0:0:
441,12,118329,1,0,0:0:0:0:
460,41,118404,1,0,0:0:0:0:
464,124,118479,6,0,P|337:100|238:60,1,204,4|0,0:2|0:0,0:0:0:0:
201,108,118779,1,0,0:0:0:0:
201,108,118854,1,0,1:0:0:0:
174,61,118929,1,0,0:0:0:0:
115,44,119004,1,0,0:0:0:0:
60,71,119079,1,0,0:0:0:0:
41,126,119154,1,0,0:0:0:0:
55,185,119229,102,0,P|107:173|134:151,1,68,4|0,0:3|0:0,0:0:0:0:
357,142,119379,2,0,P|305:130|278:108,1,68,8|0,0:3|0:0,0:0:0:0:
166,273,119529,6,0,P|181:221|176:187,1,68,8|0,0:3|0:0,0:0:0:0:
330,2,119679,2,0,P|293:41|261:53,1,68,8|0,0:3|0:0,0:0:0:0:
297,252,119829,102,0,P|271:214|239:171,1,68,8|0,0:3|0:0,0:0:0:0:
15,13,119979,101,4,0:3:0:0:
30,39,120054,1,0,0:0:0:0:
49,75,120129,1,0,0:0:0:0:
66,116,120204,1,0,0:0:0:0:
78,152,120279,1,0,0:0:0:0:
156,166,120354,69,0,1:2:0:0:
146,182,120429,1,0,0:0:0:0:
134,205,120504,1,0,0:0:0:0:
123,231,120579,1,0,0:0:0:0:
116,253,120654,1,0,0:0:0:0:
43,279,120729,5,4,0:3:0:0:
52,293,120804,1,0,0:0:0:0:
60,310,120879,1,0,0:0:0:0:
67,327,120954,1,0,0:0:0:0:
72,342,121029,1,0,0:0:0:0:
78,358,121104,5,0,1:2:0:0:
119,383,121179,1,0,0:0:0:0:
170,382,121254,1,0,0:0:0:0:
210,342,121329,1,0,0:0:0:0:
215,285,121404,1,0,0:0:0:0:
188,226,121479,37,4,1:3:0:0:
173,232,121554,2,0,P|133:228|84:204,1,68
330,381,121704,101,4,0:3:0:0:
315,346,121779,1,4,0:3:0:0:
284,329,121854,2,0,P|244:333|195:357,1,68,4|0,1:2|0:3,0:0:0:0:
473,199,122004,5,0,0:0:0:0:
433,239,122079,1,4,0:3:0:0:
381,243,122154,2,0,P|348:219|317:174,1,68,4|4,0:3|1:2,0:0:0:0:
185,219,122304,101,0,0:3:0:0:
173,232,122379,1,0,0:0:0:0:
163,238,122454,1,4,0:3:0:0:
148,244,122529,1,4,0:3:0:0:
136,245,122604,5,0,1:0:0:0:
126,200,122679,1,0,1:2:0:0:
152,154,122754,1,0,1:0:0:0:
203,114,122829,1,0,1:0:0:0:
275,104,122904,1,0,1:0:0:0:
244,33,122979,102,0,P|215:204|198:400,1,340,12|0,1:2|1:0,0:0:0:0:
349,168,123579,1,0,0:0:0:0:
380,140,123654,1,0,0:0:0:0:
387,104,123729,2,0,P|376:62|352:20,1,68,4|0,0:3|0:0,0:0:0:0:
118,42,123879,5,0,0:0:0:0:
124,58,123954,1,0,0:0:0:0:
110,51,124029,1,0,0:0:0:0:
115,67,124104,1,0,1:0:0:0:
302,255,124329,101,0,0:0:0:0:
293,218,124404,1,0,0:0:0:0:
257,195,124479,2,0,P|176:200|100:249,1,136,4|0,0:2|0:0,0:0:0:0:
32,132,124704,5,0,0:0:0:0:
0,81,124779,1,0,0:0:0:0:
13,32,124854,1,0,1:0:0:0:
38,231,125004,101,0,0:0:0:0:
27,243,125079,1,0,0:0:0:0:
200,75,125229,6,0,P|243:94|298:101,1,68,4|0,0:3|0:0,0:0:0:0:
125,256,125379,1,0,0:0:0:0:
132,230,125454,2,0,P|175:211|230:204,1,68
358,15,125604,101,0,1:0:0:0:
404,35,125679,1,0,0:0:0:0:
428,88,125754,1,0,0:0:0:0:
428,148,125829,1,0,0:0:0:0:
385,209,125904,1,0,0:0:0:0:
436,145,125979,6,0,P|416:256|407:390,1,204,4|0,0:3|0:0,0:0:0:0:
341,384,126279,1,0,0:0:0:0:
292,356,126354,1,0,1:0:0:0:
505,252,126504,101,0,0:0:0:0:
491,256,126579,1,0,0:0:0:0:
512,261,126654,1,0,0:0:0:0:
499,267,126729,6,0,P|509:324|513:365,1,68,4|0,0:3|0:0,0:0:0:0:
306,258,126879,2,0,P|296:201|292:160,1,68
420,159,127029,101,0,0:0:0:0:
427,182,127104,2,0,P|410:273|405:356,1,136,0|0,1:0|0:0,0:0:0:0:
242,366,127329,5,0,0:0:0:0:
180,371,127404,1,0,0:0:0:0:
139,325,127479,1,4,0:2:0:0:
412,320,127704,101,0,1:0:0:0:
479,287,127779,1,0,1:0:0:0:
495,214,127854,1,0,1:0:0:0:
333,374,128079,5,0,0:0:0:0:
333,374,128154,1,0,0:0:0:0:
333,374,128229,1,4,0:2:0:0:
324,329,128304,1,0,0:0:0:0:
313,278,128379,1,0,0:0:0:0:
251,233,128454,101,0,0:0:0:0:
214,170,128529,1,0,0:0:0:0:
223,107,128604,1,0,1:0:0:0:
268,76,128679,1,0,1:0:0:0:
316,76,128754,1,0,1:0:0:0:
347,102,128829,1,0,1:0:0:0:
355,131,128904,1,0,1:0:0:0:
349,147,128979,6,0,P|195:109|91:45,1,272,4|0,0:2|0:0,0:0:0:0:
380,350,129354,101,0,1:0:0:0:
407,368,129429,1,0,0:0:0:0:
451,367,129504,1,0,0:0:0:0:
483,327,129579,1,0,0:0:0:0:
479,267,129654,1,0,0:0:0:0:
424,214,129729,6,0,P|270:252|202:295,1,204,0|0,0:2|0:0,0:0:0:0:
31,249,130029,101,0,0:0:0:0:
31,249,130104,1,4,1:2:0:0:
0,210,130179,1,0,0:0:0:0:
7,160,130254,1,0,0:0:0:0:
30,131,130329,1,0,0:0:0:0:
54,125,130404,1,0,0:0:0:0:
72,129,130479,6,0,P|111:229|121:292,1,136,4|0,0:2|0:0,0:0:0:0:
234,357,130704,101,0,0:0:0:0:
254,374,130779,1,0,0:0:0:0:
297,373,130854,1,0,0:0:0:0:
330,335,130929,1,0,0:0:0:0:
344,281,131004,1,0,0:0:0:0:
375,235,131079,1,0,0:0:0:0:
434,214,131154,1,0,0:0:0:0:
501,256,131229,5,4,0:2:0:0:
470,97,131379,1,4,0:2:0:0:
349,286,131529,1,4,0:3:0:0:
294,37,131679,1,4,0:2:0:0:
171,302,131829,1,4,0:3:0:0:
109,3,131979,21,12,1:2:0:0:
123,29,132054,1,0,0:0:0:0:
135,58,132129,1,0,0:0:0:0:
144,90,132204,1,0,1:0:0:0:
152,123,132279,1,0,0:0:0:0:
157,158,132354,1,0,1:0:0:0:
116,227,132429,37,0,1:0:0:0:
116,227,132579,1,0,1:0:0:0:
240,379,132729,69,4,1:2:0:0:
240,349,132804,1,0,0:0:0:0:
244,318,132879,1,0,0:0:0:0:
253,286,132954,1,0,1:0:0:0:
262,253,133029,1,0,0:0:0:0:
275,220,133104,1,0,1:0:0:0:
345,181,133179,37,0,1:0:0:0:
345,181,133329,1,0,1:0:0:0:
435,19,133479,69,4,1:2:0:0:
409,33,133554,1,0,1:0:0:0:
380,45,133629,1,0,0:0:0:0:
348,54,133704,1,0,0:0:0:0:
315,62,133779,1,0,0:0:0:0:
280,67,133854,1,0,1:0:0:0:
211,26,133929,37,0,1:0:0:0:
211,26,134079,1,0,1:0:0:0:
311,278,134229,69,4,1:2:0:0:
341,278,134304,1,0,1:0:0:0:
372,282,134379,1,0,0:0:0:0:
404,291,134454,1,0,0:0:0:0:
437,300,134529,1,0,0:0:0:0:
470,313,134604,1,0,1:0:0:0:
509,383,134679,37,0,1:0:0:0:
509,383,134829,1,0,1:0:0:0:
464,98,134979,69,4,1:2:0:0:
450,106,135054,2,0,P|399:94|371:76,1,68,0|0,1:0|0:0,0:0:0:0:
511,187,135204,2,0,P|460:199|432:217,1,68,0|0,1:0|0:0,0:0:0:0:
292,105,135354,38,0,P|276:54|278:21,1,68,0|0,1:0|0:0,0:0:0:0:
361,228,135504,2,0,P|345:278|347:311,1,68,0|0,1:0|0:0,0:0:0:0:
159,0,135654,69,0,1:0:0:0:
159,0,135729,21,4,0:0:0:0:
167,18,135804,1,4,0:0:0:0:
153,47,135879,1,4,0:0:0:0:
178,74,135954,1,4,0:0:0:0:
156,109,136029,1,4,0:0:0:0:
189,145,136104,1,12,0:0:0:0:
162,193,136179,1,12,0:0:0:0:
203,225,136254,1,12,0:0:0:0:
170,283,136329,1,12,0:0:0:0:
216,336,136404,1,12,0:0:0:0:
151,381,136479,53,12,1:3:0:0:
141,373,136554,2,0,P|95:360|48:357,1,68
302,177,136704,101,4,0:3:0:0:
290,200,136779,1,4,0:3:0:0:
273,216,136854,2,0,P|227:229|180:232,1,68,4|0,1:2|0:0,0:0:0:0:
432,384,137004,5,0,0:0:0:0:
423,344,137079,1,4,0:3:0:0:
393,315,137154,2,0,P|347:302|300:299,1,68,4|4,0:3|1:2,0:0:0:0:
68,250,137304,101,0,0:0:0:0:
56,238,137379,1,0,0:0:0:0:
47,223,137454,1,4,0:3:0:0:
43,208,137529,1,4,0:3:0:0:
42,193,137604,5,0,1:0:0:0:
83,153,137679,1,0,1:0:0:0:
137,148,137754,1,0,1:0:0:0:
194,162,137829,1,0,1:0:0:0:
238,205,137904,1,0,1:0:0:0:
305,235,137979,101,4,1:3:0:0:
316,240,138054,2,0,P|370:220|402:193,1,68
216,339,138204,5,4,0:3:0:0:
199,357,138279,1,4,0:3:0:0:
172,366,138354,2,0,P|118:346|86:319,1,68,4|0,1:2|0:0,0:0:0:0:
136,55,138504,101,0,0:0:0:0:
136,55,138579,1,4,0:3:0:0:
136,55,138654,1,4,0:3:0:0:
98,121,138729,6,0,P|123:148|166:164,1,68,4|0,1:2|0:0,0:0:0:0:
434,178,138879,102,0,P|400:168|359:173,1,74.8000022827149,4|0,1:2|0:0,0:0:0:0:
112,334,139029,6,0,P|147:320|184:290,1,81.5999975097657,4|0,1:3|0:0,0:0:0:0:
286,11,139179,102,0,P|265:46|256:97,1,88.3999959533693,4|0,1:2|0:0,0:0:0:0:
331,384,139329,6,0,P|327:340|307:291,1,95.1999970947267,4|0,1:3|0:0,0:0:0:0:
254,98,139479,102,0,P|263:188|266:233,2,136,4|2|2,1:2|2:0|2:2,2:0:0:0:
