osu file format v14

[General]
AudioFilename: audio.mp3
AudioLeadIn: 0
PreviewTime: 19744
Countdown: 0
SampleSet: Normal
StackLeniency: 0.7
Mode: 1
LetterboxInBreaks: 0
EpilepsyWarning: 1
WidescreenStoryboard: 1

[Editor]
DistanceSpacing: 1.3
BeatDivisor: 4
GridSize: 32
TimelineZoom: 1.9

[Metadata]
Title:Rays of Serenity
TitleUnicode:Rays of Serenity
Artist:DVRST, safetypleace & Nia.wave
ArtistUnicode:DVRST, safetypleace & Nia.wave
Creator:Tachibana_
Version:Ryxliee & Tachi's Muzukashii
Source:
Tags:phonk instrumental electronic SWAKE Ryxliee
BeatmapID:3850978
BeatmapSetID:1871357

[Difficulty]
HPDrainRate:6
CircleSize:0
OverallDifficulty:5
ApproachRate:9
SliderMultiplier:2.8
SliderTickRate:1

[Events]
//Background and Video events
0,0,"bangerbg.jpg",0,110
//Break Periods
//Storyboard Layer 0 (Background)
//Storyboard Layer 1 (Fail)
//Storyboard Layer 2 (Pass)
//Storyboard Layer 3 (Foreground)
//Storyboard Layer 4 (Overlay)
//Storyboard Sound Samples

[TimingPoints]
777,612.244897959184,4,1,0,26,1,0
777,-111.111111111111,4,1,0,26,0,0
10572,-111.111111111111,4,1,0,34,0,0
18072,-110.345138325674,4,1,0,34,0,0
18379,-108.839607128572,4,1,0,34,0,0
18532,-108.104529001501,4,1,0,34,0,0
18838,-106.663763066202,4,1,0,34,0,0
19603,-103.224446786091,4,1,0,34,0,0
19756,-102.563028729374,4,1,0,34,0,0
20062,-101.265299371485,4,1,0,34,0,0
20368,-100,4,1,0,68,0,1
38736,-100,4,1,0,42,0,0
39960,-100,4,1,0,82,0,1
57562,-101.910032874204,4,1,0,82,0,1
58021,-103.894451043611,4,1,0,82,0,1
58787,-107.384021748663,4,1,0,82,0,1
59246,-109.589654092272,4,1,0,82,0,1
59552,-111.111111111111,4,1,0,28,0,0
69348,-111.111111111111,4,1,0,34,0,0
76695,-111.111111111111,4,1,0,34,0,0
76848,-110.345138325674,4,1,0,34,0,0
77154,-108.844444444444,4,1,0,34,0,0
77307,-108.10930119631,4,1,0,34,0,0
77613,-106.668408902827,4,1,0,34,0,0
78379,-103.224446786091,4,1,0,34,0,0
78532,-102.563028729374,4,1,0,34,0,0
78838,-101.265299371485,4,1,0,34,0,0
79144,-100,4,1,0,68,0,1
96287,-100,4,1,0,42,0,0
98736,-100,4,1,0,82,0,1
116185,-101.265299371485,4,1,0,82,0,1
116338,-101.910032874204,4,1,0,82,0,1
116491,-102.563028729374,4,1,0,82,0,1
116797,-103.894451043611,4,1,0,82,0,1
117103,-105.260895727671,4,1,0,82,0,1
117409,-106.663763066202,4,1,0,82,0,1
117562,-107.379313368703,4,1,0,82,0,1
117715,-108.104529001501,4,1,0,82,0,1
118021,-109.584750313227,4,1,0,82,0,1
118328,-111.111111111111,4,1,0,42,0,0
123225,-111.111111111111,4,1,0,28,0,0
125674,-111.111111111111,4,1,0,20,0,0
126899,-111.111111111111,4,1,0,12,0,0
127817,-111.111111111111,4,1,0,6,0,0

[HitObjects]
256,192,777,5,8,1:0:0:0:
256,192,1236,1,0,1:0:0:0:
256,192,1695,1,0,1:0:0:0:
256,192,2001,1,8,1:0:0:0:
256,192,2460,1,0,1:0:0:0:
256,192,2919,1,0,1:0:0:0:
256,192,3225,1,8,1:0:0:0:
256,192,3379,1,8,1:0:0:0:
256,192,3685,1,0,1:0:0:0:
256,192,4144,1,0,1:0:0:0:
256,192,4450,1,8,1:0:0:0:
256,192,4909,1,0,1:0:0:0:
256,192,5368,1,0,1:0:0:0:
256,192,5674,1,8,1:0:0:0:
256,192,6134,1,0,1:0:0:0:
256,192,6593,1,0,1:0:0:0:
256,192,6899,1,8,1:0:0:0:
256,192,7358,1,0,1:0:0:0:
256,192,7817,1,0,1:0:0:0:
256,192,8123,1,8,1:0:0:0:
256,192,8277,1,8,1:0:0:0:
256,192,8583,1,0,1:0:0:0:
256,192,9042,1,0,1:0:0:0:
256,192,9348,1,8,1:0:0:0:
256,192,9807,1,0,1:0:0:0:
256,192,10266,1,0,1:0:0:0:
256,192,10572,1,8,1:0:0:0:
256,192,11032,1,0,1:0:0:0:
256,192,11185,1,8,1:0:0:0:
256,192,11491,1,0,1:0:0:0:
256,192,11797,1,8,1:0:0:0:
256,192,12256,1,0,1:0:0:0:
256,192,12409,1,8,1:0:0:0:
256,192,12715,1,8,1:0:0:0:
256,192,13021,1,8,1:0:0:0:
256,192,13174,1,0,1:0:0:0:
256,192,13481,1,0,1:0:0:0:
256,192,13634,1,8,1:0:0:0:
256,192,13940,1,0,1:0:0:0:
256,192,14246,1,8,1:0:0:0:
256,192,14705,1,0,1:0:0:0:
256,192,14858,1,8,1:0:0:0:
256,192,15164,1,0,1:0:0:0:
256,192,15470,1,8,1:0:0:0:
256,192,15930,1,0,1:0:0:0:
256,192,16083,1,8,1:0:0:0:
256,192,16389,1,0,1:0:0:0:
256,192,16695,1,8,1:0:0:0:
256,192,17154,1,0,1:0:0:0:
256,192,17307,1,8,1:0:0:0:
256,192,17613,1,0,1:0:0:0:
256,192,17919,1,8,1:0:0:0:
256,192,18072,1,0,1:0:0:0:
256,192,18379,1,0,1:0:0:0:
256,192,18532,1,8,1:0:0:0:
256,192,18838,1,0,1:0:0:0:
256,192,19603,1,0,1:0:0:0:
256,192,19756,1,8,1:0:0:0:
256,192,20062,1,0,1:0:0:0:
256,192,20368,1,12,1:0:0:0:
256,192,20521,1,0,1:0:0:0:
256,192,20674,1,0,1:0:0:0:
256,192,20981,1,8,1:0:0:0:
256,192,21134,1,0,1:0:0:0:
256,192,21287,1,8,1:0:0:0:
256,192,21440,1,8,1:0:0:0:
256,192,21593,1,0,1:0:0:0:
256,192,21899,1,8,1:0:0:0:
256,192,22205,1,8,1:0:0:0:
256,192,22358,1,0,1:0:0:0:
256,192,22511,1,8,1:0:0:0:
256,192,22588,1,8,1:0:0:0:
256,192,22664,1,8,1:0:0:0:
256,192,22817,1,0,1:0:0:0:
256,192,23123,1,8,1:0:0:0:
256,192,23277,1,0,1:0:0:0:
256,192,23430,1,8,1:0:0:0:
256,192,23583,1,8,1:0:0:0:
256,192,23736,1,8,1:0:0:0:
256,192,23889,1,0,1:0:0:0:
256,192,24042,1,8,1:0:0:0:
256,192,24348,1,0,1:0:0:0:
256,192,24654,1,0,1:0:0:0:
256,192,24960,1,8,1:0:0:0:
256,192,25113,1,0,1:0:0:0:
256,192,25266,1,8,1:0:0:0:
256,192,25419,1,8,1:0:0:0:
256,192,25572,1,0,1:0:0:0:
256,192,25879,1,8,1:0:0:0:
256,192,26032,1,0,1:0:0:0:
256,192,26185,1,8,1:0:0:0:
256,192,26338,1,8,1:0:0:0:
256,192,26491,1,0,1:0:0:0:
256,192,26797,1,8,1:0:0:0:
256,192,27103,1,0,1:0:0:0:
256,192,27256,1,0,1:0:0:0:
256,192,27409,1,8,1:0:0:0:
256,192,27562,1,8,1:0:0:0:
256,192,27715,1,0,1:0:0:0:
256,192,28021,1,0,1:0:0:0:
256,192,28174,1,8,1:0:0:0:
256,192,28328,1,0,1:0:0:0:
256,192,28481,1,0,1:0:0:0:
256,192,28634,1,8,1:0:0:0:
256,192,28940,1,8,1:0:0:0:
256,192,29093,1,0,1:0:0:0:
256,192,29246,1,8,1:0:0:0:
256,192,29322,1,8,1:0:0:0:
256,192,29399,1,8,1:0:0:0:
256,192,29552,1,0,1:0:0:0:
256,192,29705,1,8,1:0:0:0:
256,192,29858,1,0,1:0:0:0:
256,192,29935,1,0,1:0:0:0:
256,192,30011,1,0,1:0:0:0:
256,192,30164,1,8,1:0:0:0:
256,192,30470,1,0,1:0:0:0:
256,192,30777,1,8,1:0:0:0:
256,192,31083,1,8,1:0:0:0:
256,192,31236,1,0,1:0:0:0:
256,192,31389,1,0,1:0:0:0:
256,192,31542,1,0,1:0:0:0:
256,192,31695,1,8,1:0:0:0:
256,192,32001,1,8,1:0:0:0:
256,192,32154,1,0,1:0:0:0:
256,192,32307,1,8,1:0:0:0:
256,192,32384,1,8,1:0:0:0:
256,192,32460,1,8,1:0:0:0:
256,192,32613,1,0,1:0:0:0:
256,192,32919,1,0,1:0:0:0:
256,192,33072,1,8,1:0:0:0:
256,192,33225,1,0,1:0:0:0:
256,192,33379,1,0,1:0:0:0:
256,192,33532,1,8,1:0:0:0:
256,192,33685,1,0,1:0:0:0:
256,192,33838,1,8,1:0:0:0:
256,192,34144,1,0,1:0:0:0:
256,192,34450,1,8,1:0:0:0:
256,192,34603,1,8,1:0:0:0:
256,192,34756,1,0,1:0:0:0:
256,192,34909,1,8,1:0:0:0:
256,192,35062,1,0,1:0:0:0:
256,192,35368,1,8,1:0:0:0:
256,192,35674,1,8,1:0:0:0:
256,192,35828,1,8,1:0:0:0:
256,192,35981,1,0,1:0:0:0:
256,192,36134,1,8,1:0:0:0:
256,192,36287,1,0,1:0:0:0:
256,192,36593,1,8,1:0:0:0:
256,192,36899,1,8,1:0:0:0:
256,192,37052,1,0,1:0:0:0:
256,192,37129,1,0,1:0:0:0:
256,192,37205,1,0,1:0:0:0:
256,192,37358,1,8,1:0:0:0:
256,192,37511,1,0,1:0:0:0:
256,192,37664,1,0,1:0:0:0:
256,192,37817,1,8,1:0:0:0:
256,192,38123,1,0,1:0:0:0:
256,192,38277,1,0,1:0:0:0:
256,192,38430,1,8,1:0:0:0:
256,192,38583,1,0,1:0:0:0:
256,192,38736,1,8,1:0:0:0:
256,192,39042,1,0,1:0:0:0:
256,192,39195,1,8,1:0:0:0:
256,192,39654,1,8,1:0:0:0:
256,192,39960,1,4,1:0:0:0:
256,192,40113,1,0,1:0:0:0:
256,192,40266,1,8,1:0:0:0:
256,192,40572,1,0,1:0:0:0:
256,192,40725,1,0,1:0:0:0:
256,192,40879,1,8,1:0:0:0:
256,192,41185,1,0,1:0:0:0:
256,192,41338,1,0,1:0:0:0:
256,192,41491,1,8,1:0:0:0:
256,192,41644,1,8,1:0:0:0:
256,192,41797,1,0,1:0:0:0:
256,192,41950,1,8,1:0:0:0:
256,192,42027,1,8,1:0:0:0:
256,192,42103,1,8,1:0:0:0:
256,192,42409,1,0,1:0:0:0:
256,192,42562,1,8,1:0:0:0:
256,192,42715,1,0,1:0:0:0:
256,192,42868,1,8,1:0:0:0:
256,192,43021,1,0,1:0:0:0:
256,192,43328,1,8,1:0:0:0:
256,192,43634,1,0,1:0:0:0:
256,192,43787,1,0,1:0:0:0:
256,192,43940,1,8,1:0:0:0:
256,192,44016,1,8,1:0:0:0:
256,192,44093,1,8,1:0:0:0:
256,192,44246,1,8,1:0:0:0:
256,192,44399,1,0,1:0:0:0:
256,192,44552,1,8,1:0:0:0:
256,192,44858,1,0,1:0:0:0:
256,192,45011,1,0,1:0:0:0:
256,192,45164,1,8,1:0:0:0:
256,192,45317,1,8,1:0:0:0:
256,192,45470,1,0,1:0:0:0:
256,192,45623,1,0,1:0:0:0:
256,192,45777,1,8,1:0:0:0:
256,192,46083,1,0,1:0:0:0:
256,192,46236,1,0,1:0:0:0:
256,192,46389,1,8,1:0:0:0:
256,192,46695,1,0,1:0:0:0:
256,192,47001,1,8,1:0:0:0:
256,192,47307,1,0,1:0:0:0:
256,192,47460,1,8,1:0:0:0:
256,192,47613,1,0,1:0:0:0:
256,192,47766,1,8,1:0:0:0:
256,192,47919,1,0,1:0:0:0:
256,192,47996,1,0,1:0:0:0:
256,192,48072,1,0,1:0:0:0:
256,192,48225,1,8,1:0:0:0:
256,192,48532,1,8,1:0:0:0:
256,192,48685,1,0,1:0:0:0:
256,192,48838,1,0,1:0:0:0:
256,192,48991,1,8,1:0:0:0:
256,192,49144,1,0,1:0:0:0:
256,192,49297,1,0,1:0:0:0:
256,192,49450,1,8,1:0:0:0:
256,192,49756,1,8,1:0:0:0:
256,192,49909,1,0,1:0:0:0:
256,192,50062,1,0,1:0:0:0:
256,192,50215,1,8,1:0:0:0:
256,192,50368,1,0,1:0:0:0:
256,192,50674,1,8,1:0:0:0:
256,192,50828,1,0,1:0:0:0:
256,192,50981,1,8,1:0:0:0:
256,192,51287,1,0,1:0:0:0:
256,192,51440,1,8,1:0:0:0:
256,192,51593,1,0,1:0:0:0:
256,192,51746,1,0,1:0:0:0:
256,192,51899,1,8,1:0:0:0:
256,192,52205,1,0,1:0:0:0:
256,192,52511,1,8,1:0:0:0:
256,192,52817,1,0,1:0:0:0:
256,192,52894,1,0,1:0:0:0:
256,192,52970,1,0,1:0:0:0:
256,192,53123,1,8,1:0:0:0:
256,192,53430,1,8,1:0:0:0:
256,192,53583,1,0,1:0:0:0:
256,192,53736,1,0,1:0:0:0:
256,192,53889,1,8,1:0:0:0:
256,192,54042,1,0,1:0:0:0:
256,192,54195,1,0,1:0:0:0:
256,192,54348,1,8,1:0:0:0:
256,192,54654,1,8,1:0:0:0:
256,192,54807,1,8,1:0:0:0:
256,192,54960,1,0,1:0:0:0:
256,192,55266,1,0,1:0:0:0:
256,192,55419,1,0,1:0:0:0:
256,192,55572,1,8,1:0:0:0:
256,192,55879,1,0,1:0:0:0:
256,192,56032,1,0,1:0:0:0:
256,192,56185,1,8,1:0:0:0:
256,192,56338,1,8,1:0:0:0:
256,192,56491,1,0,1:0:0:0:
256,192,56644,1,8,1:0:0:0:
256,192,56720,1,8,1:0:0:0:
256,192,56797,1,8,1:0:0:0:
256,192,56950,1,8,1:0:0:0:
256,192,57103,1,0,1:0:0:0:
256,192,57562,1,8,1:0:0:0:
256,192,58021,1,8,1:0:0:0:
256,192,58787,1,8,1:0:0:0:
256,192,59246,1,8,1:0:0:0:
256,192,59552,1,4,1:0:0:0:
256,192,60011,1,0,1:0:0:0:
256,192,60470,1,8,1:0:0:0:
256,192,60777,1,0,1:0:0:0:
256,192,61236,1,0,1:0:0:0:
256,192,61389,1,8,1:0:0:0:
256,192,61695,1,0,1:0:0:0:
256,192,62001,1,8,1:0:0:0:
256,192,62460,1,0,1:0:0:0:
256,192,62919,1,0,1:0:0:0:
256,192,63225,1,8,1:0:0:0:
256,192,63685,1,0,1:0:0:0:
256,192,63838,1,8,1:0:0:0:
256,192,64144,1,0,1:0:0:0:
256,192,64450,1,8,1:0:0:0:
256,192,64909,1,0,1:0:0:0:
256,192,65368,1,8,1:0:0:0:
256,192,65674,1,0,1:0:0:0:
256,192,66134,1,0,1:0:0:0:
256,192,66287,1,8,1:0:0:0:
256,192,66593,1,0,1:0:0:0:
256,192,66899,1,8,1:0:0:0:
256,192,67358,1,0,1:0:0:0:
256,192,67817,1,0,1:0:0:0:
256,192,68123,1,8,1:0:0:0:
256,192,68583,1,0,1:0:0:0:
256,192,68736,1,8,1:0:0:0:
256,192,69042,1,0,1:0:0:0:
256,192,69348,1,8,1:0:0:0:
256,192,69807,1,0,1:0:0:0:
256,192,69960,1,8,1:0:0:0:
256,192,70266,1,8,1:0:0:0:
256,192,70572,1,0,1:0:0:0:
256,192,71032,1,0,1:0:0:0:
256,192,71185,1,8,1:0:0:0:
256,192,71491,1,0,1:0:0:0:
256,192,71797,1,8,1:0:0:0:
256,192,71950,1,0,1:0:0:0:
256,192,72256,1,0,1:0:0:0:
256,192,72409,1,8,1:0:0:0:
256,192,72715,1,0,1:0:0:0:
256,192,73021,1,8,1:0:0:0:
256,192,73481,1,0,1:0:0:0:
256,192,73634,1,8,1:0:0:0:
256,192,73940,1,0,1:0:0:0:
256,192,74246,1,8,1:0:0:0:
256,192,74705,1,0,1:0:0:0:
256,192,74858,1,8,1:0:0:0:
256,192,75164,1,8,1:0:0:0:
256,192,75470,1,0,1:0:0:0:
256,192,75930,1,0,1:0:0:0:
256,192,76083,1,8,1:0:0:0:
256,192,76389,1,0,1:0:0:0:
256,192,76695,1,8,1:0:0:0:
256,192,76848,1,0,1:0:0:0:
256,192,77154,1,0,1:0:0:0:
256,192,77307,1,8,1:0:0:0:
256,192,77613,1,0,1:0:0:0:
256,192,78379,1,8,1:0:0:0:
256,192,78532,1,0,1:0:0:0:
256,192,78838,1,0,1:0:0:0:
256,192,79144,1,12,1:0:0:0:
256,192,79297,1,0,1:0:0:0:
256,192,79450,1,0,1:0:0:0:
256,192,79756,1,0,1:0:0:0:
256,192,79909,1,0,1:0:0:0:
256,192,80062,1,8,1:0:0:0:
256,192,80215,1,8,1:0:0:0:
256,192,80368,1,0,1:0:0:0:
256,192,80674,1,8,1:0:0:0:
256,192,80981,1,8,1:0:0:0:
256,192,81134,1,0,1:0:0:0:
256,192,81287,1,8,1:0:0:0:
256,192,81363,1,8,1:0:0:0:
256,192,81440,1,8,1:0:0:0:
256,192,81593,1,0,1:0:0:0:
256,192,81899,1,8,1:0:0:0:
256,192,82052,1,0,1:0:0:0:
256,192,82205,1,8,1:0:0:0:
256,192,82358,1,8,1:0:0:0:
256,192,82511,1,0,1:0:0:0:
256,192,82664,1,0,1:0:0:0:
256,192,82817,1,8,1:0:0:0:
256,192,83123,1,0,1:0:0:0:
256,192,83430,1,8,1:0:0:0:
256,192,83736,1,8,1:0:0:0:
256,192,83889,1,0,1:0:0:0:
256,192,84042,1,8,1:0:0:0:
256,192,84195,1,8,1:0:0:0:
256,192,84348,1,0,1:0:0:0:
256,192,84654,1,8,1:0:0:0:
256,192,84807,1,8,1:0:0:0:
256,192,84960,1,0,1:0:0:0:
256,192,85113,1,0,1:0:0:0:
256,192,85266,1,8,1:0:0:0:
256,192,85572,1,0,1:0:0:0:
256,192,85879,1,8,1:0:0:0:
256,192,86032,1,0,1:0:0:0:
256,192,86185,1,8,1:0:0:0:
256,192,86338,1,8,1:0:0:0:
256,192,86491,1,0,1:0:0:0:
256,192,86797,1,0,1:0:0:0:
256,192,86950,1,8,1:0:0:0:
256,192,87103,1,0,1:0:0:0:
256,192,87256,1,0,1:0:0:0:
256,192,87409,1,8,1:0:0:0:
256,192,87715,1,8,1:0:0:0:
256,192,87868,1,0,1:0:0:0:
256,192,88021,1,8,1:0:0:0:
256,192,88098,1,8,1:0:0:0:
256,192,88174,1,8,1:0:0:0:
256,192,88328,1,0,1:0:0:0:
256,192,88481,1,8,1:0:0:0:
256,192,88634,1,0,1:0:0:0:
256,192,88710,1,0,1:0:0:0:
256,192,88787,1,0,1:0:0:0:
256,192,88940,1,8,1:0:0:0:
256,192,89246,1,0,1:0:0:0:
256,192,89552,1,8,1:0:0:0:
256,192,89858,1,0,1:0:0:0:
256,192,90011,1,0,1:0:0:0:
256,192,90164,1,8,1:0:0:0:
256,192,90317,1,8,1:0:0:0:
256,192,90470,1,0,1:0:0:0:
256,192,90777,1,8,1:0:0:0:
256,192,90930,1,0,1:0:0:0:
256,192,91083,1,8,1:0:0:0:
256,192,91159,1,8,1:0:0:0:
256,192,91236,1,8,1:0:0:0:
256,192,91389,1,0,1:0:0:0:
256,192,91695,1,8,1:0:0:0:
256,192,91848,1,8,1:0:0:0:
256,192,92001,1,0,1:0:0:0:
256,192,92154,1,0,1:0:0:0:
256,192,92307,1,8,1:0:0:0:
256,192,92460,1,0,1:0:0:0:
256,192,92613,1,8,1:0:0:0:
256,192,92919,1,0,1:0:0:0:
256,192,93225,1,8,1:0:0:0:
256,192,93379,1,0,1:0:0:0:
256,192,93532,1,8,1:0:0:0:
256,192,93685,1,8,1:0:0:0:
256,192,93838,1,0,1:0:0:0:
256,192,94144,1,8,1:0:0:0:
256,192,94450,1,8,1:0:0:0:
256,192,94603,1,0,1:0:0:0:
256,192,94756,1,8,1:0:0:0:
256,192,94909,1,8,1:0:0:0:
256,192,95062,1,0,1:0:0:0:
256,192,95368,1,8,1:0:0:0:
256,192,95674,1,8,1:0:0:0:
256,192,95828,1,0,1:0:0:0:
256,192,95904,1,0,1:0:0:0:
256,192,95981,1,0,1:0:0:0:
256,192,96134,1,8,1:0:0:0:
256,192,96287,1,0,1:0:0:0:
256,192,96746,1,8,1:0:0:0:
256,192,97205,1,8,1:0:0:0:
256,192,97511,1,0,1:0:0:0:
256,192,97970,1,8,1:0:0:0:
256,192,98430,1,8,1:0:0:0:
256,192,98736,1,4,1:0:0:0:
256,192,98889,1,0,1:0:0:0:
256,192,99042,1,8,1:0:0:0:
256,192,99348,1,0,1:0:0:0:
256,192,99501,1,0,1:0:0:0:
256,192,99654,1,8,1:0:0:0:
256,192,99960,1,0,1:0:0:0:
256,192,100113,1,0,1:0:0:0:
256,192,100266,1,8,1:0:0:0:
256,192,100419,1,8,1:0:0:0:
256,192,100572,1,0,1:0:0:0:
256,192,100725,1,8,1:0:0:0:
256,192,100802,1,8,1:0:0:0:
256,192,100879,1,8,1:0:0:0:
256,192,101185,1,0,1:0:0:0:
256,192,101338,1,8,1:0:0:0:
256,192,101491,1,0,1:0:0:0:
256,192,101644,1,8,1:0:0:0:
256,192,101797,1,0,1:0:0:0:
256,192,102103,1,8,1:0:0:0:
256,192,102409,1,0,1:0:0:0:
256,192,102562,1,0,1:0:0:0:
256,192,102715,1,8,1:0:0:0:
256,192,102792,1,8,1:0:0:0:
256,192,102868,1,8,1:0:0:0:
256,192,103021,1,8,1:0:0:0:
256,192,103174,1,0,1:0:0:0:
256,192,103328,1,8,1:0:0:0:
256,192,103634,1,0,1:0:0:0:
256,192,103787,1,0,1:0:0:0:
256,192,103940,1,8,1:0:0:0:
256,192,104093,1,8,1:0:0:0:
256,192,104246,1,0,1:0:0:0:
256,192,104399,1,0,1:0:0:0:
256,192,104552,1,8,1:0:0:0:
256,192,104858,1,0,1:0:0:0:
256,192,105011,1,0,1:0:0:0:
256,192,105164,1,8,1:0:0:0:
256,192,105470,1,0,1:0:0:0:
256,192,105777,1,8,1:0:0:0:
256,192,106083,1,0,1:0:0:0:
256,192,106236,1,8,1:0:0:0:
256,192,106389,1,0,1:0:0:0:
256,192,106542,1,8,1:0:0:0:
256,192,106695,1,0,1:0:0:0:
256,192,106771,1,0,1:0:0:0:
256,192,106848,1,0,1:0:0:0:
256,192,107001,1,8,1:0:0:0:
256,192,107307,1,8,1:0:0:0:
256,192,107460,1,0,1:0:0:0:
256,192,107613,1,0,1:0:0:0:
256,192,107766,1,8,1:0:0:0:
256,192,107919,1,0,1:0:0:0:
256,192,108072,1,0,1:0:0:0:
256,192,108225,1,8,1:0:0:0:
256,192,108532,1,8,1:0:0:0:
256,192,108685,1,0,1:0:0:0:
256,192,108838,1,0,1:0:0:0:
256,192,108991,1,8,1:0:0:0:
256,192,109144,1,0,1:0:0:0:
256,192,109450,1,8,1:0:0:0:
256,192,109603,1,0,1:0:0:0:
256,192,109756,1,8,1:0:0:0:
256,192,110062,1,0,1:0:0:0:
256,192,110215,1,8,1:0:0:0:
256,192,110368,1,0,1:0:0:0:
256,192,110521,1,0,1:0:0:0:
256,192,110674,1,8,1:0:0:0:
256,192,110981,1,0,1:0:0:0:
256,192,111287,1,8,1:0:0:0:
256,192,111593,1,0,1:0:0:0:
256,192,111669,1,0,1:0:0:0:
256,192,111746,1,0,1:0:0:0:
256,192,111899,1,8,1:0:0:0:
256,192,112205,1,8,1:0:0:0:
256,192,112358,1,0,1:0:0:0:
256,192,112511,1,0,1:0:0:0:
256,192,112664,1,8,1:0:0:0:
256,192,112817,1,0,1:0:0:0:
256,192,112970,1,0,1:0:0:0:
256,192,113123,1,8,1:0:0:0:
256,192,113430,1,8,1:0:0:0:
256,192,113583,1,8,1:0:0:0:
256,192,113736,1,0,1:0:0:0:
256,192,114042,1,0,1:0:0:0:
256,192,114195,1,0,1:0:0:0:
256,192,114348,1,8,1:0:0:0:
256,192,114654,1,0,1:0:0:0:
256,192,114807,1,0,1:0:0:0:
256,192,114960,1,8,1:0:0:0:
256,192,115113,1,0,1:0:0:0:
256,192,115266,1,0,1:0:0:0:
256,192,115419,1,8,1:0:0:0:
256,192,115496,1,8,1:0:0:0:
256,192,115572,1,8,1:0:0:0:
256,192,115725,1,8,1:0:0:0:
256,192,115879,1,0,1:0:0:0:
256,192,116185,1,0,1:0:0:0:
256,192,116338,1,8,1:0:0:0:
256,192,116491,1,0,1:0:0:0:
256,192,116797,1,8,1:0:0:0:
256,192,117103,1,0,1:0:0:0:
256,192,117409,1,0,1:0:0:0:
256,192,117562,1,8,1:0:0:0:
256,192,117715,1,0,1:0:0:0:
256,192,118021,1,8,1:0:0:0:
256,192,118328,1,4,1:0:0:0:
256,192,118787,1,8,1:0:0:0:
256,192,118940,1,0,1:0:0:0:
256,192,119246,1,8,1:0:0:0:
256,192,119552,1,0,1:0:0:0:
256,192,120011,1,8,1:0:0:0:
256,192,120164,1,0,1:0:0:0:
256,192,120470,1,8,1:0:0:0:
256,192,120777,1,0,1:0:0:0:
256,192,120930,1,8,1:0:0:0:
256,192,121236,1,8,1:0:0:0:
256,192,121389,1,0,1:0:0:0:
256,192,121695,1,8,1:0:0:0:
256,192,122001,1,0,1:0:0:0:
256,192,122460,1,8,1:0:0:0:
256,192,122613,1,0,1:0:0:0:
256,192,122919,1,8,1:0:0:0:
256,192,123225,1,0,1:0:0:0:
288,192,123685,1,8,1:0:0:0:
288,192,123838,1,0,1:0:0:0:
288,192,124144,1,8,1:0:0:0:
288,192,124450,1,0,1:0:0:0:
288,192,124909,1,8,1:0:0:0:
288,192,125062,1,0,1:0:0:0:
288,192,125368,1,8,1:0:0:0:
288,192,125674,1,0,1:0:0:0:
256,192,125828,1,8,1:0:0:0:
288,192,126134,1,8,1:0:0:0:
288,192,126287,1,0,1:0:0:0:
288,192,126593,1,8,1:0:0:0:
288,192,126899,1,0,1:0:0:0:
288,192,127358,1,0,1:0:0:0:
288,192,127511,1,8,1:0:0:0:
288,192,127817,1,0,1:0:0:0:
