osu file format v14

[General]
AudioFilename: audio.mp3
AudioLeadIn: 0
PreviewTime: 14666
Countdown: 0
SampleSet: Normal
StackLeniency: 0.7
Mode: 1
LetterboxInBreaks: 0
WidescreenStoryboard: 1

[Editor]
Bookmarks: 1113,14827,28541,42255,55970,69684,93684,97113,110827,124541,151970
DistanceSpacing: 2.3
BeatDivisor: 4
GridSize: 32
TimelineZoom: 1.5

[Metadata]
Title:Falling Stars
TitleUnicode:Falling Stars
Artist:DVRST, polnalyubvi
ArtistUnicode:DVRST, polnalyubvi
Creator:Tachibana_
Version:Futsuu
Source:
Tags:русский russian полналюбви polna lyubvi полна любви electronic female vocals vocalist instrumental phonk Марина Демещенко Marina Demeshchenko feat. ft. featuring
BeatmapID:4556187
BeatmapSetID:2160610

[Difficulty]
HPDrainRate:7
CircleSize:0
OverallDifficulty:4
ApproachRate:9
SliderMultiplier:1.4
SliderTickRate:1

[Events]
//Background and Video events
0,0,"bg.jpg",0,66
Video,1108,"output.mp4"
//Break Periods
//Storyboard Layer 0 (Background)
//Storyboard Layer 1 (Fail)
//Storyboard Layer 2 (Pass)
//Storyboard Layer 3 (Foreground)
//Storyboard Layer 4 (Overlay)
//Storyboard Sound Samples

[TimingPoints]
1118,428.571428571429,4,1,0,60,1,0
1118,-100,4,1,0,60,0,0
14832,-100,4,1,0,86,0,1
42255,-100,4,1,0,90,0,1
42260,428.571428571429,4,1,0,90,1,9
42270,428.571428571429,4,1,0,90,1,0
42270,-100,4,1,0,90,0,0
43970,-100,4,1,0,42,0,0
55541,-100,4,1,0,52,0,0
55755,-100,4,1,0,62,0,0
55970,-100,4,1,0,64,0,0
69684,-100,4,1,0,70,0,0
69689,428.571428571429,4,1,0,70,1,0
69689,-100,4,1,0,70,0,0
93684,-100,4,1,0,50,0,0
97117,-100,4,1,0,86,0,1
124541,-100,4,1,0,90,0,1
124546,428.571428571429,4,1,0,90,1,9
124556,428.571428571429,4,1,0,90,1,0
124556,-100,4,1,0,90,0,0
126255,-100,4,1,0,42,0,0
127970,-100,4,1,0,62,0,0
129684,-100,4,1,0,32,0,0
131398,-100,4,1,0,82,0,0
133113,-100,4,1,0,42,0,0
134827,-100,4,1,0,52,0,0
136541,-100,4,1,0,22,0,0
138255,-100,4,1,0,62,0,0
139970,-100,4,1,0,42,0,0
141684,-100,4,1,0,52,0,0
143398,-100,4,1,0,32,0,0
145113,-100,4,1,0,52,0,0
146827,-100,4,1,0,32,0,0
148541,-100,4,1,0,62,0,0
150255,-100,4,1,0,32,0,0
150684,-100,4,1,0,38,0,0
151113,-100,4,1,0,44,0,0
151541,-100,4,1,0,50,0,0
151755,-100,4,1,0,53,0,0
151970,-100,4,1,0,56,0,0

[HitObjects]
256,192,1118,5,8,1:0:0:0:
256,192,1760,1,8,1:0:0:0:
256,192,1975,1,0,1:0:0:0:
256,192,2403,1,8,1:0:0:0:
256,192,2832,1,0,1:0:0:0:
256,192,3475,1,8,1:0:0:0:
256,192,3689,1,8,1:0:0:0:
256,192,4546,1,8,1:0:0:0:
256,192,5189,1,8,1:0:0:0:
256,192,5403,1,0,1:0:0:0:
256,192,5832,1,8,1:0:0:0:
256,192,6260,1,0,1:0:0:0:
256,192,6903,1,0,1:0:0:0:
256,192,7118,1,8,1:0:0:0:
256,192,7546,1,8,1:0:0:0:
256,192,7760,1,8,1:0:0:0:
256,192,7975,1,0,1:0:0:0:
256,192,8618,1,8,1:0:0:0:
256,192,8832,1,0,1:0:0:0:
256,192,9260,1,8,1:0:0:0:
256,192,9689,1,0,1:0:0:0:
256,192,10332,1,8,1:0:0:0:
256,192,10546,1,8,1:0:0:0:
256,192,11403,1,8,1:0:0:0:
256,192,12046,1,8,1:0:0:0:
256,192,12260,1,0,1:0:0:0:
256,192,12689,1,8,1:0:0:0:
256,192,13118,1,0,1:0:0:0:
256,192,13760,1,0,1:0:0:0:
256,192,13975,1,8,1:0:0:0:
256,192,14403,1,8,1:0:0:0:
256,192,14618,1,8,1:0:0:0:
256,192,14832,1,4,1:0:0:0:
256,192,15260,1,8,1:0:0:0:
256,192,15475,1,0,1:0:0:0:
256,192,15689,1,8,1:0:0:0:
256,192,16118,1,0,1:0:0:0:
256,192,16546,1,8,1:0:0:0:
256,192,16760,1,0,1:0:0:0:
256,192,16975,1,0,1:0:0:0:
256,192,17189,1,8,1:0:0:0:
256,192,17403,1,8,1:0:0:0:
256,192,18260,1,8,1:0:0:0:
256,192,18689,1,0,1:0:0:0:
256,192,18903,1,8,1:0:0:0:
256,192,19118,1,0,1:0:0:0:
256,192,19546,1,8,1:0:0:0:
256,192,19975,1,0,1:0:0:0:
256,192,20618,1,0,1:0:0:0:
256,192,20832,1,8,1:0:0:0:
256,192,21260,1,8,1:0:0:0:
256,192,21475,1,8,1:0:0:0:
256,192,21689,1,0,1:0:0:0:
256,192,22118,1,0,1:0:0:0:
256,192,22332,1,0,1:0:0:0:
256,192,22546,1,8,1:0:0:0:
256,192,22975,1,0,1:0:0:0:
256,192,23403,1,8,1:0:0:0:
256,192,23618,1,8,1:0:0:0:
256,192,23832,1,0,1:0:0:0:
256,192,24046,1,8,1:0:0:0:
256,192,24260,1,8,1:0:0:0:
256,192,24903,1,8,1:0:0:0:
256,192,25118,1,0,1:0:0:0:
256,192,25439,1,0,1:0:0:0:
256,192,25760,1,0,1:0:0:0:
256,192,25975,1,8,1:0:0:0:
256,192,26296,1,8,1:0:0:0:
256,192,26618,1,8,1:0:0:0:
256,192,26832,1,0,1:0:0:0:
256,192,27153,1,0,1:0:0:0:
256,192,27475,1,0,1:0:0:0:
256,192,27689,1,8,1:0:0:0:
256,192,28118,1,8,1:0:0:0:
256,192,28332,1,8,1:0:0:0:
256,192,28546,1,4,1:0:0:0:
256,192,28975,1,8,1:0:0:0:
256,192,29189,1,8,1:0:0:0:
256,192,29403,1,0,1:0:0:0:
256,192,29832,1,8,1:0:0:0:
256,192,30260,1,0,1:0:0:0:
256,192,30475,1,8,1:0:0:0:
256,192,30689,1,0,1:0:0:0:
256,192,30903,1,8,1:0:0:0:
256,192,31118,1,0,1:0:0:0:
256,192,31975,1,8,1:0:0:0:
256,192,32403,1,8,1:0:0:0:
256,192,32618,1,0,1:0:0:0:
256,192,32832,1,8,1:0:0:0:
256,192,33260,1,0,1:0:0:0:
256,192,33689,1,8,1:0:0:0:
256,192,34332,1,8,1:0:0:0:
256,192,34546,1,0,1:0:0:0:
256,192,34975,1,8,1:0:0:0:
256,192,35189,1,8,1:0:0:0:
256,192,35403,1,0,1:0:0:0:
256,192,35832,1,8,1:0:0:0:
256,192,36046,1,0,1:0:0:0:
256,192,36260,1,8,1:0:0:0:
256,192,36689,1,0,1:0:0:0:
256,192,37118,1,8,1:0:0:0:
256,192,37332,1,8,1:0:0:0:
256,192,37546,1,0,1:0:0:0:
256,192,37760,1,8,1:0:0:0:
256,192,37975,1,8,1:0:0:0:
256,192,38618,1,8,1:0:0:0:
256,192,38832,1,0,1:0:0:0:
256,192,39153,1,8,1:0:0:0:
256,192,39475,1,8,1:0:0:0:
256,192,39689,1,0,1:0:0:0:
256,192,40010,1,8,1:0:0:0:
256,192,40332,1,8,1:0:0:0:
256,192,40546,1,0,1:0:0:0:
256,192,40975,1,0,1:0:0:0:
256,192,41403,1,0,1:0:0:0:
256,192,41832,1,0,1:0:0:0:
256,192,42270,1,12,1:0:0:0:
256,192,43984,1,8,1:0:0:0:
256,192,45270,1,0,1:0:0:0:
256,192,45698,1,8,1:0:0:0:
256,192,47412,1,0,1:0:0:0:
256,192,49127,1,8,1:0:0:0:
256,192,50841,1,0,1:0:0:0:
256,192,52127,1,0,1:0:0:0:
256,192,52555,1,8,1:0:0:0:
256,192,54270,1,0,1:0:0:0:
256,192,55555,5,0,1:0:0:0:
256,192,55770,1,0,1:0:0:0:
256,192,55984,1,12,1:0:0:0:
256,192,56841,1,0,1:0:0:0:
256,192,57698,1,8,1:0:0:0:
256,192,58127,1,0,1:0:0:0:
256,192,58555,1,0,1:0:0:0:
256,192,59412,1,8,1:0:0:0:
256,192,59841,1,8,1:0:0:0:
256,192,60270,1,8,1:0:0:0:
256,192,60698,1,8,1:0:0:0:
256,192,61127,1,0,1:0:0:0:
256,192,61984,1,0,1:0:0:0:
256,192,62412,1,0,1:0:0:0:
256,192,62627,1,0,1:0:0:0:
256,192,62841,1,8,1:0:0:0:
256,192,63698,1,0,1:0:0:0:
256,192,64555,1,8,1:0:0:0:
256,192,64984,1,8,1:0:0:0:
256,192,65412,1,8,1:0:0:0:
256,192,65841,1,8,1:0:0:0:
256,192,66270,1,0,1:0:0:0:
256,192,68841,1,8,1:0:0:0:
256,192,69270,1,8,1:0:0:0:
256,192,69484,1,8,1:0:0:0:
256,192,69689,1,4,1:0:0:0:
256,192,70117,1,0,1:0:0:0:
256,192,70331,1,8,1:0:0:0:
256,192,70546,1,0,1:0:0:0:
256,192,70974,1,8,1:0:0:0:
256,192,71403,1,8,1:0:0:0:
256,192,71831,1,0,1:0:0:0:
256,192,72260,1,8,1:0:0:0:
256,192,72474,1,0,1:0:0:0:
256,192,73117,1,8,1:0:0:0:
256,192,73546,1,0,1:0:0:0:
256,192,73760,1,0,1:0:0:0:
256,192,73974,1,8,1:0:0:0:
256,192,74403,1,8,1:0:0:0:
256,192,74831,1,0,1:0:0:0:
256,192,75689,1,8,1:0:0:0:
256,192,75903,1,0,1:0:0:0:
256,192,76331,1,0,1:0:0:0:
256,192,76546,1,12,1:0:0:0:
256,192,76974,1,0,1:0:0:0:
256,192,77189,1,8,1:0:0:0:
256,192,77403,1,0,1:0:0:0:
256,192,77831,1,8,1:0:0:0:
256,192,78260,1,0,1:0:0:0:
256,192,78689,1,8,1:0:0:0:
256,192,79117,1,8,1:0:0:0:
256,192,79331,1,0,1:0:0:0:
256,192,79760,1,8,1:0:0:0:
256,192,79974,1,0,1:0:0:0:
256,192,80189,1,0,1:0:0:0:
256,192,80617,1,8,1:0:0:0:
256,192,80831,1,0,1:0:0:0:
256,192,81260,1,8,1:0:0:0:
256,192,81689,1,8,1:0:0:0:
256,192,82117,1,0,1:0:0:0:
256,192,82546,1,8,1:0:0:0:
256,192,82760,1,0,1:0:0:0:
256,192,83189,1,8,1:0:0:0:
256,192,83403,1,4,1:0:0:0:
256,192,83617,1,8,1:0:0:0:
256,192,84046,1,0,1:0:0:0:
256,192,84260,1,8,1:0:0:0:
256,192,84689,1,0,1:0:0:0:
256,192,85117,1,8,1:0:0:0:
256,192,85546,1,0,1:0:0:0:
256,192,85974,1,8,1:0:0:0:
256,192,86189,1,0,1:0:0:0:
256,192,86831,1,8,1:0:0:0:
256,192,87260,1,8,1:0:0:0:
256,192,87474,1,8,1:0:0:0:
256,192,87689,1,0,1:0:0:0:
256,192,87903,1,8,1:0:0:0:
256,192,88117,1,8,1:0:0:0:
256,192,88546,1,0,1:0:0:0:
256,192,89403,1,8,1:0:0:0:
256,192,89617,1,0,1:0:0:0:
256,192,90046,1,0,1:0:0:0:
256,192,90260,1,12,1:0:0:0:
256,192,90474,1,0,1:0:0:0:
256,192,90903,1,0,1:0:0:0:
256,192,91117,1,8,1:0:0:0:
256,192,91546,1,0,1:0:0:0:
256,192,91974,1,8,1:0:0:0:
256,192,92189,1,8,1:0:0:0:
256,192,92403,1,0,1:0:0:0:
256,192,92831,1,8,1:0:0:0:
256,192,93046,1,0,1:0:0:0:
256,192,93474,1,8,1:0:0:0:
256,192,93689,1,0,1:0:0:0:
256,192,93903,1,0,1:0:0:0:
256,192,97117,1,12,1:0:0:0:
256,192,97546,1,0,1:0:0:0:
256,192,97760,1,0,1:0:0:0:
256,192,97974,1,8,1:0:0:0:
256,192,98403,1,0,1:0:0:0:
256,192,98831,1,8,1:0:0:0:
256,192,99046,1,0,1:0:0:0:
256,192,99260,1,8,1:0:0:0:
256,192,99474,1,0,1:0:0:0:
256,192,99689,1,8,1:0:0:0:
256,192,100117,1,0,1:0:0:0:
256,192,100546,1,8,1:0:0:0:
256,192,100974,1,0,1:0:0:0:
256,192,101189,1,8,1:0:0:0:
256,192,101403,1,0,1:0:0:0:
256,192,101831,1,8,1:0:0:0:
256,192,102260,1,0,1:0:0:0:
256,192,102903,1,0,1:0:0:0:
256,192,103117,1,8,1:0:0:0:
256,192,103546,1,8,1:0:0:0:
256,192,103760,1,8,1:0:0:0:
256,192,103974,1,0,1:0:0:0:
256,192,104403,1,8,1:0:0:0:
256,192,104617,1,0,1:0:0:0:
256,192,104831,1,8,1:0:0:0:
256,192,105260,1,0,1:0:0:0:
256,192,105689,1,8,1:0:0:0:
256,192,105903,1,8,1:0:0:0:
256,192,106117,1,0,1:0:0:0:
256,192,106331,1,8,1:0:0:0:
256,192,106546,1,8,1:0:0:0:
256,192,107189,1,8,1:0:0:0:
256,192,107403,1,0,1:0:0:0:
256,192,107724,1,0,1:0:0:0:
256,192,108046,1,8,1:0:0:0:
256,192,108260,1,0,1:0:0:0:
256,192,108581,1,0,1:0:0:0:
256,192,108903,1,8,1:0:0:0:
256,192,109117,1,0,1:0:0:0:
256,192,109439,1,8,1:0:0:0:
256,192,109760,1,0,1:0:0:0:
256,192,109974,1,8,1:0:0:0:
256,192,110403,1,8,1:0:0:0:
256,192,110617,1,8,1:0:0:0:
256,192,110831,1,4,1:0:0:0:
256,192,111260,1,8,1:0:0:0:
256,192,111474,1,0,1:0:0:0:
256,192,111689,1,8,1:0:0:0:
256,192,112117,1,0,1:0:0:0:
256,192,112546,1,8,1:0:0:0:
256,192,112760,1,8,1:0:0:0:
256,192,112974,1,8,1:0:0:0:
256,192,113189,1,8,1:0:0:0:
256,192,113403,1,0,1:0:0:0:
256,192,114260,1,0,1:0:0:0:
256,192,114689,1,8,1:0:0:0:
256,192,114903,1,8,1:0:0:0:
256,192,115117,1,0,1:0:0:0:
256,192,115546,1,8,1:0:0:0:
256,192,115974,1,0,1:0:0:0:
256,192,116617,1,8,1:0:0:0:
256,192,116831,1,0,1:0:0:0:
256,192,117260,1,8,1:0:0:0:
256,192,117474,1,8,1:0:0:0:
256,192,117689,1,0,1:0:0:0:
256,192,118117,1,8,1:0:0:0:
256,192,118331,1,0,1:0:0:0:
256,192,118546,1,8,1:0:0:0:
256,192,118974,1,0,1:0:0:0:
256,192,119403,1,8,1:0:0:0:
256,192,119617,1,8,1:0:0:0:
256,192,119831,1,0,1:0:0:0:
256,192,120046,1,8,1:0:0:0:
256,192,120260,1,8,1:0:0:0:
256,192,120903,1,8,1:0:0:0:
256,192,121117,1,0,1:0:0:0:
256,192,121439,1,8,1:0:0:0:
256,192,121760,1,8,1:0:0:0:
256,192,121974,1,0,1:0:0:0:
256,192,122296,1,8,1:0:0:0:
256,192,122617,1,0,1:0:0:0:
256,192,122831,1,8,1:0:0:0:
256,192,123260,1,8,1:0:0:0:
256,192,123689,1,8,1:0:0:0:
256,192,124117,1,8,1:0:0:0:
256,192,124331,1,8,1:0:0:0:
256,192,124556,1,4,1:0:0:0:
256,192,126270,1,0,1:0:0:0:
256,192,127984,1,8,1:0:0:0:
256,192,129698,1,0,1:0:0:0:
256,192,131413,1,8,1:0:0:0:
256,192,133127,1,0,1:0:0:0:
256,192,134413,1,0,1:0:0:0:
256,192,134841,1,8,1:0:0:0:
256,192,136556,1,0,1:0:0:0:
256,192,138270,1,8,1:0:0:0:
256,192,139984,1,0,1:0:0:0:
256,192,141698,1,8,1:0:0:0:
256,192,143413,1,0,1:0:0:0:
256,192,145127,1,8,1:0:0:0:
256,192,146841,1,0,1:0:0:0:
256,192,148127,1,0,1:0:0:0:
256,192,148556,1,8,1:0:0:0:
256,192,150270,1,0,1:0:0:0:
256,192,150484,12,0,151984,1:0:0:0:
