osu file format v14

[General]
AudioFilename: audio.mp3
AudioLeadIn: 0
PreviewTime:99264
Countdown: 0
SampleSet: Soft
StackLeniency: 0.7
Mode: 0
LetterboxInBreaks: 0
WidescreenStoryboard: 1
EpilepsyWarning: 1

[Editor]
Bookmarks: 40,11074,22108,33143,35902,44177,55212,66246,77281,88315,99350,110384,121419
DistanceSpacing: 1.2
BeatDivisor: 4
GridSize: 32
TimelineZoom: 1

[Metadata]
Title:SHE IS HYPERACTIVE
TitleUnicode:SHE IS HYPERACTIVE
Artist:DVRST
ArtistUnicode:DVRST
Creator:hehe
Version:INSANE
Source:
Tags:dnb drum and & 'n' bass phonk instrumental electronic english wonder egg priority
BeatmapID:4021622
BeatmapSetID:1938423

[Difficulty]
HPDrainRate:4
CircleSize:4
OverallDifficulty:8
ApproachRate:9
SliderMultiplier:1.4
SliderTickRate:1

[Events]
//Background and Video events
0,0,"PHOCK.jpg",0,0
Video,0,"output.mp4"
//Break Periods
//Storyboard Layer 0 (Background)
//Storyboard Layer 1 (Fail)
//Storyboard Layer 2 (Pass)
//Storyboard Layer 3 (Foreground)
//Storyboard Layer 4 (Overlay)
//Storyboard Sound Samples

[TimingPoints]
40,344.827586206897,4,2,1,50,1,0
40,-166.666666666667,4,2,1,50,0,0
2453,-166.666666666667,4,2,2,50,0,0
2798,-166.666666666667,4,2,1,50,0,0
5212,-166.666666666667,4,2,2,50,0,0
5557,-166.666666666667,4,2,1,50,0,0
7971,-166.666666666667,4,2,2,50,0,0
8315,-166.666666666667,4,2,1,50,0,0
9695,-100,4,2,1,50,0,0
10729,-100,4,2,2,50,0,0
10902,-166.666666666667,4,2,2,50,0,0
11074,-83.3333333333333,4,2,1,60,0,0
13488,-83.3333333333333,4,2,2,60,0,0
13833,-83.3333333333333,4,2,1,60,0,0
16246,-83.3333333333333,4,2,2,60,0,0
16591,-83.3333333333333,4,2,1,60,0,0
19005,-83.3333333333333,4,2,2,60,0,0
19350,-83.3333333333333,4,2,1,60,0,0
22108,-71.4285714285714,4,2,2,70,0,0
22798,-71.4285714285714,4,2,3,70,0,0
23488,-71.4285714285714,4,2,1,70,0,0
23833,-71.4285714285714,4,2,3,70,0,0
24867,-71.4285714285714,4,2,1,70,0,0
25212,-71.4285714285714,4,2,3,70,0,0
26246,-71.4285714285714,4,2,1,70,0,0
26591,-71.4285714285714,4,2,3,70,0,0
27626,-71.4285714285714,4,2,1,70,0,0
27971,-71.4285714285714,4,2,3,70,0,0
29005,-71.4285714285714,4,2,1,70,0,0
29350,-71.4285714285714,4,2,3,70,0,0
30384,-71.4285714285714,4,2,2,70,0,0
31074,-71.4285714285714,4,2,3,70,0,0
31764,-71.4285714285714,4,2,1,70,0,0
32108,-71.4285714285714,4,2,3,70,0,0
33143,-100,4,2,3,50,0,0
34350,-71.4285714285714,4,2,2,50,0,0
34522,-71.4285714285714,4,2,1,70,0,0
35902,-71.4285714285714,4,2,1,80,0,0
36246,-71.4285714285714,4,2,3,80,0,0
37281,-71.4285714285714,4,2,1,80,0,0
37626,-71.4285714285714,4,2,3,80,0,0
38660,-71.4285714285714,4,2,1,80,0,0
39005,-71.4285714285714,4,2,3,80,0,0
40040,-71.4285714285714,4,2,1,80,0,0
40384,-71.4285714285714,4,2,3,80,0,0
41419,-71.4285714285714,4,2,1,80,0,0
41764,-71.4285714285714,4,2,3,80,0,0
42798,-71.4285714285714,4,2,1,80,0,0
43143,-71.4285714285714,4,2,3,80,0,0
44177,-200,4,2,3,50,0,0
54522,-100,4,2,1,50,0,0
54695,-100,4,2,2,50,0,0
55212,-100,4,2,1,60,0,0
55902,-100,4,2,3,60,0,0
57971,-100,4,2,1,60,0,0
58660,-100,4,2,3,60,0,0
60729,-100,4,2,1,60,0,0
61419,-100,4,2,3,60,0,0
63488,-100,4,2,1,60,0,0
64177,-100,4,2,2,60,0,0
65557,-71.4285714285714,4,2,1,60,0,0
65729,-71.4285714285714,4,2,2,60,0,0
66246,-83.3333333333333,4,2,1,80,0,0
66591,-83.3333333333333,4,2,2,80,0,0
66936,-83.3333333333333,4,2,4,80,0,0
67626,-83.3333333333333,4,2,1,80,0,0
67971,-83.3333333333333,4,2,4,80,0,0
68660,-83.3333333333333,4,2,2,80,0,0
69005,-83.3333333333333,4,2,1,80,0,0
69350,-83.3333333333333,4,2,2,80,0,0
69695,-83.3333333333333,4,2,4,80,0,0
70384,-83.3333333333333,4,2,1,80,0,0
70729,-83.3333333333333,4,2,4,80,0,0
71764,-83.3333333333333,4,2,3,80,0,0
75902,-71.4285714285714,4,2,3,80,0,0
77281,-71.4285714285714,4,2,2,80,0,0
77971,-71.4285714285714,4,2,3,80,0,0
78660,-71.4285714285714,4,2,1,80,0,0
79005,-71.4285714285714,4,2,3,80,0,0
80040,-71.4285714285714,4,2,1,80,0,0
80384,-71.4285714285714,4,2,3,80,0,0
81419,-71.4285714285714,4,2,1,80,0,0
81764,-71.4285714285714,4,2,3,80,0,0
82798,-71.4285714285714,4,2,1,80,0,0
83143,-71.4285714285714,4,2,3,80,0,0
84177,-71.4285714285714,4,2,1,80,0,0
84522,-71.4285714285714,4,2,3,80,0,0
85557,-71.4285714285714,4,2,2,80,0,0
86246,-71.4285714285714,4,2,3,80,0,0
86936,-71.4285714285714,4,2,1,80,0,0
87281,-71.4285714285714,4,2,3,80,0,0
88315,-62.5,4,2,1,90,0,1
88660,-62.5,4,2,2,90,0,1
89005,-62.5,4,2,4,90,0,1
89350,-62.5,4,2,2,90,0,1
89695,-62.5,4,2,1,90,0,1
90040,-62.5,4,2,2,90,0,1
90384,-62.5,4,2,4,90,0,1
90729,-62.5,4,2,2,90,0,1
91074,-62.5,4,2,1,90,0,1
91419,-62.5,4,2,2,90,0,1
91764,-62.5,4,2,4,90,0,1
91936,-62.5,4,2,1,90,0,1
92108,-62.5,4,2,4,90,0,1
92453,-62.5,4,2,1,90,0,1
92798,-62.5,4,2,2,90,0,1
93143,-62.5,4,2,4,90,0,1
93833,-62.5,4,2,1,90,0,1
94177,-62.5,4,2,2,90,0,1
94522,-62.5,4,2,4,90,0,1
94867,-62.5,4,2,2,90,0,1
95212,-62.5,4,2,1,90,0,1
95557,-62.5,4,2,2,90,0,1
95902,-62.5,4,2,4,90,0,1
96246,-62.5,4,2,2,90,0,1
96591,-62.5,4,2,1,90,0,1
96936,-62.5,4,2,2,90,0,1
97281,-62.5,4,2,4,90,0,1
97453,-62.5,4,2,1,90,0,1
97625,-62.5,4,2,2,90,0,1
97971,-100,4,2,1,90,0,1
99350,-71.4285714285714,4,2,1,80,0,0
99695,-71.4285714285714,4,2,3,80,0,0
100729,-71.4285714285714,4,2,1,80,0,0
101074,-71.4285714285714,4,2,3,80,0,0
102108,-71.4285714285714,4,2,1,80,0,0
102453,-71.4285714285714,4,2,3,80,0,0
103488,-71.4285714285714,4,2,1,80,0,0
103833,-71.4285714285714,4,2,3,80,0,0
104867,-71.4285714285714,4,2,1,80,0,0
105212,-71.4285714285714,4,2,3,80,0,0
106246,-71.4285714285714,4,2,1,80,0,0
106591,-71.4285714285714,4,2,3,80,0,0
107626,-71.4285714285714,4,2,1,80,0,0
107971,-71.4285714285714,4,2,3,80,0,0
109005,-71.4285714285714,4,2,1,80,0,0
109350,-71.4285714285714,4,2,3,80,0,0
110384,-83.3333333333333,4,2,1,70,0,0
110729,-83.3333333333333,4,2,2,70,0,0
111764,-83.3333333333333,4,2,1,70,0,0
112108,-83.3333333333333,4,2,3,70,0,0
113143,-83.3333333333333,4,2,1,70,0,0
113488,-83.3333333333333,4,2,2,70,0,0
114522,-83.3333333333333,4,2,1,70,0,0
114867,-83.3333333333333,4,2,2,70,0,0
115902,-83.3333333333333,4,2,1,70,0,0
116246,-83.3333333333333,4,2,2,70,0,0
117281,-83.3333333333333,4,2,1,70,0,0
117626,-83.3333333333333,4,2,3,70,0,0
118660,-83.3333333333333,4,2,1,70,0,0
119005,-83.3333333333333,4,2,2,70,0,0
121419,524.9343832021,4,2,2,100,1,0

[Colours]
Combo1 : 81,57,255
Combo2 : 100,100,255
Combo3 : 255,212,45
Combo4 : 247,123,21
Combo5 : 152,140,163
Combo6 : 118,92,127
Combo7 : 227,227,227
Combo8 : 54,54,54

[HitObjects]
165,214,40,54,0,P|203:205|295:190,1,125.999996154785,2|0,2:2|0:0,0:0:0:0:
288,190,729,1,2,2:2:0:0:
357,247,1074,1,2,2:2:0:0:
438,184,1419,1,2,2:2:0:0:
503,264,1764,2,0,P|511:305|517:351,2,83.9999974365235,2|2|2,2:2|2:2|2:2,0:0:0:0:
403,384,2798,6,0,P|411:345|421:256,1,125.999996154785,2|0,2:2|0:0,0:0:0:0:
420,259,3488,1,2,2:2:0:0:
352,204,3833,1,2,2:2:0:0:
275,290,4177,1,2,2:2:0:0:
145,238,4522,2,0,P|112:244|64:213,2,83.9999974365235,2|2|2,2:2|2:2|2:2,0:0:0:0:
0,384,5557,102,0,P|30:350|113:328,1,125.999996154785,2|0,2:2|0:0,0:0:0:0:
105,327,6246,1,2,2:2:0:0:
186,306,6591,1,2,2:2:0:0:
280,325,6936,1,2,2:2:0:0:
372,212,7281,2,0,L|378:115,2,83.9999974365235,2|2|2,2:2|2:2|2:2,0:0:0:0:
277,8,8315,6,0,L|299:139,1,125.999996154785,2|0,2:2|0:0,0:0:0:0:
297,132,9005,1,2,2:2:0:0:
239,194,9350,1,2,2:2:0:0:
144,105,9695,102,0,L|64:93,1,70,2|0,2:2|0:0,0:0:0:0:
0,181,10040,2,0,L|80:169,1,70,2|0,2:2|0:0,0:0:0:0:
219,64,10384,2,0,P|236:114|217:209,1,140,2|2,2:2|2:2,0:0:0:0:
138,309,10902,1,0,0:0:0:0:
226,359,11074,70,0,P|218:302|205:244,1,83.9999974365235,6|0,3:2|0:0,0:0:0:0:
304,384,11419,2,0,P|345:376|386:370,1,83.9999974365235,0|0,3:3|0:0,0:0:0:0:
428,305,11764,1,2,3:2:0:0:
512,384,11936,1,0,0:0:0:0:
492,251,12108,2,0,P|426:259|367:190,1,125.999996154785,2|0,3:2|0:0,0:0:0:0:
380,225,12453,102,0,L|391:54,1,167.999994873047,2|2,3:2|3:2,0:0:0:0:
249,48,12971,1,0,0:0:0:0:
226,198,13143,2,0,P|276:182|323:170,1,83.9999974365235,2|0,3:2|0:0,0:0:0:0:
204,277,13488,1,2,3:2:0:0:
204,277,13660,1,0,0:0:0:0:
145,146,13833,6,0,P|139:192|130:246,1,83.9999974365235,4|0,3:2|0:0,0:0:0:0:
0,282,14177,2,0,P|46:288|100:297,1,83.9999974365235,0|0,3:3|0:0,0:0:0:0:
237,277,14522,1,2,3:2:0:0:
162,384,14695,2,0,P|153:321|182:281,1,83.9999974365235,0|2,0:0|3:2,0:0:0:0:
313,311,15040,101,0,0:0:0:0:
369,173,15212,2,0,P|407:212|369:334,2,167.999994873047,2|2|2,3:2|3:2|3:2,0:0:0:0:
271,227,16074,1,0,0:0:0:0:
215,170,16246,2,0,P|171:179|125:189,1,83.9999974365235,2|0,3:2|0:0,0:0:0:0:
70,132,16591,6,0,P|68:84|66:37,1,83.9999974365235,4|0,3:2|0:0,0:0:0:0:
0,247,16936,2,0,P|2:295|4:342,1,83.9999974365235,0|0,3:3|0:0,0:0:0:0:
73,214,17281,2,0,P|131:224|178:323,1,167.999994873047,2|2,3:2|3:2,0:0:0:0:
346,362,17798,1,0,0:0:0:0:
259,297,17971,102,0,P|313:287|354:282,1,83.9999974365235,2|0,3:2|0:0,0:0:0:0:
503,285,18315,1,2,3:2:0:0:
503,285,18488,1,0,0:0:0:0:
487,182,18660,2,0,P|433:172|392:167,1,83.9999974365235,2|0,3:2|0:0,0:0:0:0:
331,196,19005,1,2,3:2:0:0:
331,196,19177,1,0,0:0:0:0:
330,43,19350,6,0,P|381:26|453:113,1,167.999994873047,4|0,3:2|3:3,0:0:0:0:
283,108,19867,1,0,0:0:0:0:
216,52,20040,1,2,3:2:0:0:
156,174,20212,1,0,0:0:0:0:
48,81,20384,2,0,P|113:97|158:112,1,83.9999974365235,2|0,3:2|0:0,0:0:0:0:
311,160,20729,102,0,P|307:98|308:50,1,83.9999974365235,10|0,2:2|0:0,0:0:0:0:
307,76,20988,1,0,0:0:0:0:
307,76,21074,1,2,2:2:0:0:
165,221,21246,2,0,P|227:217|275:218,1,83.9999974365235,8|2,2:2|2:2,0:0:0:0:
249,218,21505,1,0,0:0:0:0:
249,218,21591,1,0,0:0:0:0:
390,177,21764,2,0,L|402:235,1,41.9999987182618,8|0,2:2|0:0,0:0:0:0:
477,246,21936,2,0,L|465:304,1,41.9999987182618
510,116,22108,22,0,P|431:105|306:87,1,195.999994018555,4|8,3:2|2:2,0:0:0:0:
179,125,22626,2,0,P|154:66|182:28,1,97.9999970092774,0|2,0:0|2:2,0:0:0:0:
255,139,22971,1,0,3:3:0:0:
159,205,23143,2,0,P|102:214|35:234,1,97.9999970092774,10|0,2:2|0:0,0:0:0:0:
218,365,23488,6,0,P|223:308|240:196,1,146.999995513916,6|0,3:2|0:0,0:0:0:0:
235,219,23833,1,10,2:2:0:0:
314,284,24005,1,0,0:0:0:0:
146,306,24177,2,0,P|118:290|121:224,1,97.9999970092774,2|0,2:2|3:3,0:0:0:0:
285,67,24522,2,0,P|294:143|303:193,1,97.9999970092774,8|0,2:2|0:0,0:0:0:0:
342,376,24867,102,0,P|377:329|517:329,1,195.999994018555,4|8,3:2|2:2,0:0:0:0:
408,140,25384,2,0,P|397:205|391:268,1,97.9999970092774,0|2,0:0|2:2,0:0:0:0:
434,352,25729,1,0,3:3:0:0:
271,329,25902,2,0,P|215:336|163:343,1,97.9999970092774,10|0,2:2|0:0,0:0:0:0:
112,148,26246,6,0,P|136:197|104:299,1,146.999995513916,6|0,3:2|0:0,0:0:0:0:
116,284,26591,1,10,2:2:0:0:
29,162,26764,2,0,L|41:49,1,97.9999970092774,0|2,3:3|2:2,0:0:0:0:
21,242,27108,1,0,3:3:0:0:
249,197,27281,2,0,P|276:153|249:100,1,97.9999970092774,8|0,2:2|0:0,0:0:0:0:
111,6,27626,102,0,P|99:72|219:133,1,195.999994018555,4|8,3:2|2:2,0:0:0:0:
326,11,28143,2,0,P|274:11|224:14,1,97.9999970092774,0|2,0:0|2:2,0:0:0:0:
375,79,28488,1,0,3:3:0:0:
269,184,28660,2,0,P|270:124|273:73,1,97.9999970092774,10|0,2:2|0:0,0:0:0:0:
512,125,29005,6,0,P|513:55|397:12,2,195.999994018555,6|10|2,3:2|2:2|2:2,0:0:0:0:
354,192,29867,2,0,P|415:180|474:175,1,97.9999970092774,0|8,3:3|2:2,0:0:0:0:
499,239,30212,1,0,0:0:0:0:
415,377,30384,102,0,P|361:366|215:351,1,195.999994018555,4|8,3:2|2:2,0:0:0:0:
481,334,30902,1,0,0:0:0:0:
383,263,31074,1,2,2:2:0:0:
286,384,31246,1,0,3:3:0:0:
232,239,31419,2,0,P|244:191|312:180,1,97.9999970092774,10|0,2:2|0:0,0:0:0:0:
197,317,31764,5,6,3:2:0:0:
343,292,31936,2,0,P|399:283|460:279,1,97.9999970092774,0|10,0:0|2:2,0:0:0:0:
294,353,32281,1,0,3:3:0:0:
144,249,32453,2,0,P|86:268|68:323,1,97.9999970092774,2|0,2:2|3:3,0:0:0:0:
254,249,32798,2,0,B|249:153|233:189|227:79,1,146.999995513916,8|0,2:2|0:0,0:0:0:0:
228,104,33143,6,0,P|167:109|141:42,2,140,2|2|10,2:2|2:2|2:2,0:0:0:0:
271,34,34005,1,0,0:0:0:0:
271,34,34177,2,0,L|352:44,1,70,2|2,2:2|2:2,0:0:0:0:
416,9,34522,69,4,3:2:0:0:
439,14,34608,1,0,0:0:0:0:
459,28,34694,1,0,0:0:0:0:
472,49,34780,1,0,0:0:0:0:
477,73,34866,1,0,0:0:0:0:
473,97,34953,1,0,0:0:0:0:
460,117,35040,2,0,L|390:128,1,48.9999985046387,4|0,3:2|0:0,0:0:0:0:
347,49,35212,2,0,L|340:97,3,48.9999985046387,2|0|0|0,2:2|0:0|0:0|0:0,0:0:0:0:
274,134,35557,2,0,L|283:206,3,48.9999985046387,4|0|0|0,3:2|0:0|0:0|0:0,0:0:0:0:
212,83,35902,6,0,P|141:96|82:113,1,97.9999970092774,6|2,3:2|2:2,0:0:0:0:
0,35,36246,2,0,P|58:15|104:57,1,97.9999970092774,10|2,2:2|2:2,0:0:0:0:
72,177,36591,1,10,2:2:0:0:
72,177,36764,1,0,3:3:0:0:
227,179,36936,2,0,P|215:122|211:74,1,97.9999970092774,10|2,2:2|2:2,0:0:0:0:
4,242,37281,6,0,L|165:204,1,146.999995513916,6|0,3:2|0:0,0:0:0:0:
147,208,37626,1,8,2:2:0:0:
281,263,37798,2,0,P|322:234|323:179,1,97.9999970092774,2|10,3:2|2:2,0:0:0:0:
185,130,38143,1,0,3:3:0:0:
202,281,38315,2,0,P|218:336|229:388,1,97.9999970092774,10|0,2:2|0:0,0:0:0:0:
5,324,38660,102,0,P|72:312|112:357,1,97.9999970092774,6|2,3:2|2:2,0:0:0:0:
260,218,39005,2,0,P|324:225|386:232,1,97.9999970092774,10|2,2:2|2:2,0:0:0:0:
208,146,39350,1,10,2:2:0:0:
208,146,39522,1,0,3:3:0:0:
104,244,39695,2,0,P|98:196|89:131,1,97.9999970092774,10|2,2:2|2:2,0:0:0:0:
326,292,40040,6,0,P|354:226|318:135,1,146.999995513916,6|0,3:2|0:0,0:0:0:0:
335,155,40384,1,8,2:2:0:0:
241,283,40557,1,0,0:0:0:0:
408,362,40729,1,10,2:2:0:0:
408,362,40902,1,0,3:3:0:0:
403,233,41074,2,0,P|335:237|276:240,1,97.9999970092774,8|0,2:2|0:0,0:0:0:0:
505,377,41419,102,0,P|508:305|517:246,1,97.9999970092774,6|2,3:2|2:2,0:0:0:0:
380,154,41764,2,0,P|437:150|470:191,1,97.9999970092774,10|2,2:2|2:2,0:0:0:0:
323,303,42108,1,10,2:2:0:0:
323,303,42281,1,0,3:3:0:0:
163,294,42453,2,0,P|102:300|57:308,1,97.9999970092774,10|2,2:2|2:2,0:0:0:0:
163,106,42798,6,0,B|183:202|202:150|226:260,1,146.999995513916,6|0,3:2|0:0,0:0:0:0:
221,239,43143,1,8,2:2:0:0:
216,44,43315,2,0,P|276:53|325:62,1,97.9999970092774,2|10,3:2|2:2,0:0:0:0:
344,135,43660,1,0,0:0:0:0:
512,0,43833,2,0,P|508:58|380:53,1,195.999994018555,8|2,2:2|2:2,0:0:0:0:
71,92,44867,6,0,P|83:127|92:169,2,70,2|2|2,2:2|2:2|2:2,0:0:0:0:
128,38,45902,1,2,2:2:0:0:
194,157,46246,2,0,P|180:192|170:302,1,140,2|2,2:2|2:2,0:0:0:0:
400,261,47626,6,0,P|427:247|467:229,2,70,2|2|2,2:2|2:2|2:2,0:0:0:0:
293,328,48660,1,2,2:2:0:0:
135,384,49005,2,0,P|87:372|-14:345,1,140,2|2,2:2|2:2,0:0:0:0:
48,160,50384,102,0,P|40:197|50:233,2,70,2|2|2,2:2|2:2|2:2,0:0:0:0:
131,243,51419,1,2,2:2:0:0:
266,289,51764,2,0,P|294:259|394:233,1,140,2|2,2:2|2:2,0:0:0:0:
497,278,52798,5,0,0:0:0:0:
497,278,53143,2,0,P|495:239|492:192,1,70,2|2,2:2|2:2,0:0:0:0:
512,137,53660,1,8,2:2:0:0:
439,98,53833,101,2,2:2:0:0:
439,98,54005,1,8,2:2:0:0:
483,4,54177,1,2,2:2:0:0:
483,4,54350,1,8,2:2:0:0:
301,24,54522,6,0,P|314:64|346:89,1,70,10|8,2:2|2:2,0:0:0:0:
333,82,54781,1,8,2:2:0:0:
333,82,54867,1,8,2:2:0:0:
412,59,55040,1,8,2:2:0:0:
474,157,55212,54,0,P|439:168|402:182,1,70,6|0,3:2|0:0,0:0:0:0:
330,237,55557,2,0,P|329:193|327:158,1,70,0|2,0:0|2:2,0:0:0:0:
395,294,55902,1,8,2:2:0:0:
322,352,56074,1,0,0:0:0:0:
238,313,56246,1,2,2:2:0:0:
236,220,56419,1,0,0:0:0:0:
153,151,56591,102,0,P|157:202|156:239,1,70,2|0,2:2|3:3,0:0:0:0:
293,165,56936,2,0,P|298:128|277:92,1,70,0|2,3:3|2:2,0:0:0:0:
93,89,57281,2,0,P|44:94|4:94,2,70,10|0|2,2:2|0:0|2:2,0:0:0:0:
128,16,57798,1,0,0:0:0:0:
312,8,57971,6,0,P|258:13|226:95,1,140,6|0,3:2|0:0,0:0:0:0:
250,155,58488,1,2,2:2:0:0:
214,227,58660,2,0,P|215:269|216:303,1,70,8|0,2:2|0:0,0:0:0:0:
74,217,59005,2,0,P|73:175|72:141,1,70,2|0,2:2|0:0,0:0:0:0:
1,310,59350,102,0,P|48:298|146:290,1,140,2|0,2:2|3:3,0:0:0:0:
279,259,59867,1,2,2:2:0:0:
202,224,60040,1,8,2:2:0:0:
242,334,60212,1,0,3:3:0:0:
357,247,60384,2,0,P|384:274|389:325,1,70,2|0,2:2|0:0,0:0:0:0:
506,378,60729,6,0,P|480:344|492:242,1,140,6|0,3:2|0:0,0:0:0:0:
381,320,61246,1,2,2:2:0:0:
304,287,61419,2,0,P|264:274|214:262,1,70,8|0,2:2|0:0,0:0:0:0:
371,237,61764,2,0,P|387:199|402:168,1,70,2|0,2:2|0:0,0:0:0:0:
351,103,62108,101,2,2:2:0:0:
286,153,62281,1,0,3:3:0:0:
286,153,62453,2,0,P|231:155|195:160,1,70,0|2,3:3|2:2,0:0:0:0:
155,98,62798,1,10,2:2:0:0:
155,98,62884,1,0,0:0:0:0:
155,98,62971,1,0,0:0:0:0:
96,156,63143,2,0,P|83:195|88:272,1,105,2|0,2:2|0:0,0:0:0:0:
84,258,63488,6,0,L|238:285,1,140,4|0,3:2|0:0,0:0:0:0:
222,282,64005,1,0,0:0:0:0:
285,349,64177,2,0,P|352:348|379:265,1,140,8|0,3:2|0:0,0:0:0:0:
355,178,64695,1,8,2:2:0:0:
428,215,64867,102,0,P|474:223|514:231,1,70,0|8,3:3|2:2,0:0:0:0:
354,59,65212,2,0,P|320:88|318:117,1,70,0|8,3:3|2:2,0:0:0:0:
300,237,65557,5,8,2:2:0:0:
225,198,65729,1,8,2:2:0:0:
225,198,65815,1,8,2:2:0:0:
225,198,65902,1,8,2:2:0:0:
189,273,66074,1,8,2:2:0:0:
25,232,66246,6,0,P|16:186|8:140,1,83.9999974365235,6|0,3:2|0:0,0:0:0:0:
147,72,66591,2,0,P|101:81|55:89,1,83.9999974365235,2|0,3:2|0:0,0:0:0:0:
219,123,66936,2,0,P|228:169|236:215,1,83.9999974365235,2|0,3:2|0:0,0:0:0:0:
97,283,67281,2,0,P|143:274|189:266,1,83.9999974365235,2|0,3:2|0:0,0:0:0:0:
288,366,67626,6,0,P|330:307|278:206,1,167.999994873047,6|2,3:2|3:2,0:0:0:0:
319,79,68143,1,0,0:0:0:0:
434,151,68315,2,0,P|374:153|327:152,1,83.9999974365235,2|0,3:2|0:0,0:0:0:0:
169,159,68660,1,2,3:2:0:0:
169,159,68833,1,0,0:0:0:0:
224,97,69005,102,0,P|219:46|176:20,1,83.9999974365235,6|0,3:2|0:0,0:0:0:0:
294,170,69350,2,0,P|299:119|342:93,1,83.9999974365235,2|0,3:2|0:0,0:0:0:0:
215,255,69695,2,0,P|210:204|167:178,1,83.9999974365235,2|0,3:2|0:0,0:0:0:0:
285,328,70040,2,0,P|290:277|333:251,1,83.9999974365235,2|0,3:2|0:0,0:0:0:0:
219,381,70384,6,0,L|45:361,1,167.999994873047,6|2,3:2|3:2,0:0:0:0:
4,293,70902,1,0,0:0:0:0:
162,172,71074,2,0,P|169:221|180:309,2,125.999996154785,2|0|0,3:2|3:3|3:3,0:0:0:0:
21,213,71764,5,10,3:2:0:0:
245,171,72108,1,8,2:2:0:0:
371,247,72453,1,10,2:2:0:0:
476,211,72798,1,10,2:2:0:0:
476,211,72971,1,0,3:3:0:0:
461,134,73143,5,10,3:2:0:0:
271,213,73488,1,10,2:2:0:0:
169,76,73833,1,10,2:2:0:0:
68,140,74177,1,8,2:2:0:0:
68,140,74350,1,8,2:2:0:0:
91,57,74522,54,0,P|32:49|1:46,1,83.9999974365235,8|8,3:2|2:2,0:0:0:0:
231,111,74867,2,0,P|172:119|141:122,1,83.9999974365235,8|8,2:2|2:2,0:0:0:0:
282,26,75212,1,8,2:2:0:0:
359,72,75384,1,8,2:2:0:0:
363,163,75556,1,8,2:2:0:0:
290,216,75729,1,8,2:2:0:0:
205,183,75902,102,0,P|183:236|211:290,1,97.9999970092774,8|0,3:2|0:0,0:0:0:0:
369,364,76246,2,0,P|390:310|362:256,1,97.9999970092774,8|0,3:2|0:0,0:0:0:0:
196,355,76591,2,0,P|249:376|303:348,1,97.9999970092774,8|0,3:2|0:0,0:0:0:0:
377,191,76935,2,0,P|324:170|270:198,1,97.9999970092774,8|0,3:2|0:0,0:0:0:0:
113,372,77281,22,0,P|102:296|82:172,1,195.999994018555,4|8,3:2|2:2,0:0:0:0:
191,28,77798,2,0,P|217:92|187:140,1,97.9999970092774,0|2,0:0|2:2,0:0:0:0:
113,7,78143,1,0,3:3:0:0:
6,101,78315,2,0,P|74:104|117:110,1,97.9999970092774,10|0,2:2|0:0,0:0:0:0:
301,133,78660,6,0,P|230:130|162:199,1,146.999995513916,6|0,3:2|0:0,0:0:0:0:
172,175,79005,1,10,2:2:0:0:
150,323,79177,1,0,0:0:0:0:
97,256,79350,2,0,P|40:247|-22:242,1,97.9999970092774,2|0,2:2|3:3,0:0:0:0:
271,308,79695,1,8,2:2:0:0:
271,308,79867,1,0,0:0:0:0:
301,133,80040,102,0,P|367:93|487:107,1,195.999994018555,4|8,3:2|2:2,0:0:0:0:
237,0,80557,2,0,P|234:55|229:100,1,97.9999970092774,0|2,0:0|2:2,0:0:0:0:
343,201,80902,1,0,3:3:0:0:
166,252,81074,2,0,P|132:197|150:151,1,97.9999970092774,10|0,2:2|0:0,0:0:0:0:
240,368,81419,6,0,P|243:304|250:199,1,146.999995513916,6|0,3:2|0:0,0:0:0:0:
248,221,81764,1,10,2:2:0:0:
408,286,81936,2,0,P|455:275|477:222,1,97.9999970092774,0|2,3:3|2:2,0:0:0:0:
375,96,82281,1,0,3:3:0:0:
334,247,82453,2,0,P|326:199|319:151,1,97.9999970092774,8|0,2:2|0:0,0:0:0:0:
292,12,82798,102,0,P|383:8|494:-1,1,195.999994018555,4|8,3:2|2:2,0:0:0:0:
244,138,83315,2,0,P|232:79|217:38,1,97.9999970092774,0|2,0:0|2:2,0:0:0:0:
414,50,83660,1,0,3:3:0:0:
397,208,83833,2,0,L|280:195,1,97.9999970092774,10|0,2:2|0:0,0:0:0:0:
463,292,84177,6,0,P|486:234|436:129,1,146.999995513916,6|0,3:2|0:0,0:0:0:0:
463,155,84522,1,10,2:2:0:0:
331,72,84695,1,0,0:0:0:0:
201,170,84867,2,0,P|284:147|312:141,1,97.9999970092774,2|0,2:2|3:3,0:0:0:0:
139,40,85212,1,8,2:2:0:0:
139,40,85384,1,0,0:0:0:0:
22,251,85557,102,0,P|0:152|60:81,1,195.999994018555,4|8,3:2|2:2,0:0:0:0:
124,133,86074,1,0,0:0:0:0:
274,76,86246,1,2,2:2:0:0:
156,20,86419,1,0,3:3:0:0:
306,155,86591,1,10,2:2:0:0:
144,264,86764,1,0,0:0:0:0:
190,367,86936,6,0,B|210:280|223:319|243:216,1,146.999995513916,6|0,3:2|0:0,0:0:0:0:
240,229,87281,1,10,2:2:0:0:
309,306,87453,2,0,L|424:295,1,97.9999970092774,0|2,3:3|2:2,0:0:0:0:
512,288,87798,1,0,3:3:0:0:
512,288,87971,2,0,L|499:354,3,48.9999985046387,8|0|0|0,2:2|0:0|0:0|0:0,0:0:0:0:
448,231,88315,54,0,P|440:178|426:113,1,112,4|0,3:2|0:0,0:0:0:0:
359,77,88660,1,10,3:2:0:0:
505,11,88833,1,0,0:0:0:0:
366,188,89005,2,0,P|288:179|277:52,1,224,2|10,3:2|3:2,0:0:0:0:
474,140,89522,1,0,0:0:0:0:
391,4,89695,102,0,P|396:67|401:136,1,112,4|0,3:2|0:0,0:0:0:0:
239,108,90040,1,10,3:2:0:0:
187,227,90212,1,0,0:0:0:0:
4,122,90384,2,0,B|100:114|61:153|186:151,1,168,2|0,3:2|0:0,0:0:0:0:
167,150,90729,2,0,P|150:84|140:28,1,112,10|0,3:2|0:0,0:0:0:0:
349,119,91074,6,0,P|357:186|298:225,1,112,4|0,3:2|0:0,0:0:0:0:
188,307,91419,1,10,3:2:0:0:
91,221,91591,1,0,0:0:0:0:
256,137,91764,2,0,P|251:202|248:257,1,112,2|8,3:2|2:2,0:0:0:0:
183,383,92108,2,0,P|281:364|386:345,1,168,10|0,3:2|0:0,0:0:0:0:
348,351,92453,102,0,P|342:288|397:254,1,112,6|0,3:2|0:0,0:0:0:0:
512,286,92798,1,10,3:2:0:0:
424,384,92971,1,0,0:0:0:0:
337,153,93143,2,0,P|416:165|436:277,2,168,2|0|0,3:2|3:3|3:3,0:0:0:0:
152,252,93833,6,0,P|223:243|272:237,1,112,4|0,3:2|0:0,0:0:0:0:
88,189,94177,1,10,3:2:0:0:
3,317,94350,1,0,0:0:0:0:
222,373,94522,2,0,P|318:364|330:240,1,224,2|10,3:2|3:2,0:0:0:0:
153,331,95040,1,0,0:0:0:0:
221,221,95212,102,0,P|216:152|211:103,1,112,4|0,3:2|0:0,0:0:0:0:
239,11,95557,1,10,3:2:0:0:
124,116,95729,1,0,0:0:0:0:
23,9,95902,2,0,P|87:-7|173:56,1,168,2|0,3:2|0:0,0:0:0:0:
168,45,96246,2,0,L|292:37,1,112,10|0,3:2|0:0,0:0:0:0:
492,52,96591,6,0,P|449:4|387:8,1,112,4|0,3:2|0:0,0:0:0:0:
302,122,96936,1,10,3:2:0:0:
356,202,97108,1,0,0:0:0:0:
447,114,97281,2,0,P|442:179|438:260,1,112,2|8,3:2|2:2,0:0:0:0:
307,364,97626,2,0,B|295:268|270:312|254:192,1,168,10|0,3:2|0:0,0:0:0:0:
255,205,97971,102,0,L|206:201,4,35,8|0|0|0|0,2:2|0:0|0:0|0:0|0:0,0:0:0:0:
152,253,98488,1,8,2:2:0:0:
152,253,98574,1,0,0:0:0:0:
152,253,98660,2,0,P|130:208|157:121,1,140,0|8,0:0|2:2,0:0:0:0:
229,151,99177,1,0,0:0:0:0:
290,97,99350,54,0,P|285:48|281:-1,1,97.9999970092774,6|2,3:2|2:2,0:0:0:0:
449,165,99695,2,0,P|394:153|354:145,1,97.9999970092774,10|2,2:2|2:2,0:0:0:0:
507,104,100040,1,10,2:2:0:0:
507,104,100212,1,0,3:3:0:0:
455,2,100384,2,0,P|407:17|393:73,1,97.9999970092774,10|2,2:2|2:2,0:0:0:0:
255,98,100729,6,0,P|256:168|254:266,1,146.999995513916,6|0,3:2|0:0,0:0:0:0:
254,244,101074,1,8,2:2:0:0:
386,199,101246,1,2,2:2:0:0:
458,339,101419,1,10,2:2:0:0:
458,339,101591,1,0,3:3:0:0:
349,379,101764,2,0,P|328:330|359:268,1,97.9999970092774,8|0,2:2|0:0,0:0:0:0:
500,177,102108,102,0,P|503:236|506:276,1,97.9999970092774,6|2,3:2|2:2,0:0:0:0:
414,70,102453,2,0,P|345:69|303:114,1,97.9999970092774,10|2,2:2|2:2,0:0:0:0:
255,217,102798,1,10,2:2:0:0:
255,217,102971,1,0,3:3:0:0:
156,163,103143,2,0,L|37:191,1,97.9999970092774,10|2,2:2|2:2,0:0:0:0:
10,14,103488,6,0,P|71:7|122:94,1,146.999995513916,6|0,3:2|0:0,0:0:0:0:
122,67,103833,1,8,2:2:0:0:
259,127,104005,2,0,P|255:71|252:22,1,97.9999970092774,2|10,3:2|2:2,0:0:0:0:
194,171,104350,1,0,3:3:0:0:
370,109,104522,2,0,P|375:165|344:196,1,97.9999970092774,10|0,2:2|0:0,0:0:0:0:
261,339,104867,102,0,P|254:281|247:236,1,97.9999970092774,6|2,3:2|2:2,0:0:0:0:
446,313,105212,2,0,P|438:368|372:380,1,97.9999970092774,10|2,2:2|2:2,0:0:0:0:
315,197,105557,1,10,2:2:0:0:
315,197,105729,1,0,3:3:0:0:
171,154,105902,2,0,P|168:222|165:269,1,97.9999970092774,10|2,2:2|2:2,0:0:0:0:
6,353,106246,6,0,P|14:289|109:258,1,146.999995513916,6|0,3:2|0:0,0:0:0:0:
81,252,106591,1,8,2:2:0:0:
191,361,106764,1,2,2:2:0:0:
254,303,106936,1,10,2:2:0:0:
254,303,107108,1,0,3:3:0:0:
385,339,107281,2,0,P|447:334|507:333,1,97.9999970092774,8|0,2:2|0:0,0:0:0:0:
372,189,107626,102,0,P|331:230|341:277,1,97.9999970092774,6|2,3:2|2:2,0:0:0:0:
192,384,107971,2,0,P|182:335|168:285,1,97.9999970092774,10|2,2:2|2:2,0:0:0:0:
266,203,108315,1,10,2:2:0:0:
266,203,108488,1,0,3:3:0:0:
181,95,108660,2,0,P|219:62|296:71,1,97.9999970092774,10|2,2:2|2:2,0:0:0:0:
189,178,109005,6,0,P|115:170|24:165,1,146.999995513916,6|0,3:2|0:0,0:0:0:0:
42,165,109350,1,8,2:2:0:0:
0,9,109522,2,0,P|12:69|67:86,1,97.9999970092774,2|10,3:2|2:2,0:0:0:0:
189,23,109867,1,0,3:3:0:0:
245,78,110040,2,0,L|355:61,1,97.9999970092774,10|0,2:2|0:0,0:0:0:0:
158,261,110384,86,0,P|124:208|195:118,1,167.999994873047,4|8,3:2|2:2,0:0:0:0:
295,242,110902,1,0,0:0:0:0:
344,115,111074,2,0,P|355:162|362:200,1,83.9999974365235,0|0,0:0|3:3,0:0:0:0:
383,277,111419,1,8,2:2:0:0:
383,277,111591,1,0,0:0:0:0:
271,372,111764,102,0,P|280:315|285:271,1,83.9999974365235,4|0,3:2|0:0,0:0:0:0:
117,341,112108,2,0,P|168:323|214:316,1,83.9999974365235,8|0,2:2|0:0,0:0:0:0:
246,221,112453,2,0,P|181:236|141:139,1,167.999994873047,2|8,2:2|2:2,0:0:0:0:
270,115,112971,1,0,0:0:0:0:
214,13,113143,6,0,B|117:23|165:41|49:50,1,167.999994873047,4|8,3:2|2:2,0:0:0:0:
274,70,113660,1,0,0:0:0:0:
344,124,113833,2,0,P|353:52|360:9,1,83.9999974365235,0|0,0:0|3:3,0:0:0:0:
388,199,114177,1,8,2:2:0:0:
388,199,114350,1,0,0:0:0:0:
504,113,114522,102,0,P|453:108|405:147,1,83.9999974365235,4|0,3:2|0:0,0:0:0:0:
229,217,114867,1,8,2:2:0:0:
229,217,115040,2,0,P|223:163|217:118,1,83.9999974365235,0|0,3:3|0:0,0:0:0:0:
296,254,115384,1,0,3:3:0:0:
187,347,115557,1,8,2:2:0:0:
271,366,115729,1,0,0:0:0:0:
168,272,115902,6,0,P|109:286|-1:311,1,167.999994873047,4|8,3:2|2:2,0:0:0:0:
116,92,116419,1,0,0:0:0:0:
197,112,116591,2,0,P|201:153|181:189,1,83.9999974365235,0|0,0:0|3:3,0:0:0:0:
90,251,116936,1,8,2:2:0:0:
90,251,117108,1,0,0:0:0:0:
227,353,117281,102,0,P|172:357|111:367,1,83.9999974365235,4|0,3:2|0:0,0:0:0:0:
341,273,117626,2,0,P|382:298|394:343,1,83.9999974365235,8|0,2:2|0:0,0:0:0:0:
258,270,117971,2,0,L|263:92,1,167.999994873047,2|8,2:2|2:2,0:0:0:0:
355,31,118488,1,0,0:0:0:0:
420,207,118660,5,4,3:2:0:0:
262,102,118833,1,0,0:0:0:0:
388,127,119005,1,8,2:2:0:0:
351,260,119177,1,0,0:0:0:0:
212,170,119350,2,0,P|160:180|117:191,1,83.9999974365235,0|0,0:0|3:3,0:0:0:0:
242,372,119695,2,0,P|287:353|299:310,1,83.9999974365235,8|0,2:2|0:0,0:0:0:0:
304,103,120040,101,0,3:3:0:0:
304,103,120212,2,0,P|314:153|323:191,1,83.9999974365235,8|0,2:2|0:0,0:0:0:0:
251,246,120557,1,0,3:3:0:0:
177,196,120729,1,8,2:2:0:0:
92,285,120902,1,0,3:3:0:0:
14,162,121074,1,8,2:2:0:0:
14,162,121246,2,0,P|77:152|131:147,1,83.9999974365235,8|0,2:2|3:3,0:0:0:0:
