osu file format v14

[General]
AudioFilename: audio.mp3
AudioLeadIn: 0
PreviewTime:99264
Countdown: 0
SampleSet: Soft
StackLeniency: 0.7
Mode: 0
LetterboxInBreaks: 0
WidescreenStoryboard: 1
EpilepsyWarning: 1

[Editor]
Bookmarks: 40,11074,22108,33143,35902,44177,55212,66246,77281,88315,99350,110384,121419
DistanceSpacing: 1.3
BeatDivisor: 4
GridSize: 32
TimelineZoom: 1

[Metadata]
Title:SHE IS HYPERACTIVE
TitleUnicode:SHE IS HYPERACTIVE
Artist:DVRST
ArtistUnicode:DVRST
Creator:hehe
Version:HARD
Source:
Tags:dnb drum and & 'n' bass phonk instrumental electronic english wonder egg priority
BeatmapID:4021621
BeatmapSetID:1938423

[Difficulty]
HPDrainRate:4
CircleSize:4
OverallDifficulty:6
ApproachRate:8
SliderMultiplier:1.2
SliderTickRate:1

[Events]
//Background and Video events
0,0,"PHOCK.jpg",0,0
Video,0,"output.mp4"
//Break Periods
2,44377,53083
//Storyboard Layer 0 (Background)
//Storyboard Layer 1 (Fail)
//Storyboard Layer 2 (Pass)
//Storyboard Layer 3 (Foreground)
//Storyboard Layer 4 (Overlay)
//Storyboard Sound Samples

[TimingPoints]
40,344.827586206897,4,2,1,50,1,0
40,-125,4,2,1,50,0,0
2453,-125,4,2,2,50,0,0
2798,-125,4,2,1,50,0,0
5212,-125,4,2,2,50,0,0
5557,-125,4,2,1,50,0,0
7971,-125,4,2,2,50,0,0
8315,-125,4,2,1,50,0,0
9695,-125,4,2,1,50,0,0
10729,-125,4,2,2,50,0,0
10902,-125,4,2,2,50,0,0
11074,-100,4,2,1,60,0,0
13488,-100,4,2,2,60,0,0
13833,-100,4,2,1,60,0,0
16246,-100,4,2,2,60,0,0
16591,-100,4,2,1,60,0,0
19005,-100,4,2,2,60,0,0
19350,-100,4,2,1,60,0,0
20557,-100,4,2,1,60,0,0
20729,-100,4,2,1,60,0,0
22108,-100,4,2,2,70,0,0
22798,-100,4,2,3,70,0,0
23488,-100,4,2,1,70,0,0
23833,-100,4,2,3,70,0,0
24867,-100,4,2,1,70,0,0
25212,-100,4,2,3,70,0,0
26246,-100,4,2,1,70,0,0
26591,-100,4,2,3,70,0,0
27626,-100,4,2,1,70,0,0
27971,-100,4,2,3,70,0,0
29005,-100,4,2,1,70,0,0
29350,-100,4,2,3,70,0,0
30384,-100,4,2,2,70,0,0
31074,-100,4,2,3,70,0,0
31764,-100,4,2,1,70,0,0
32108,-100,4,2,3,70,0,0
33143,-100,4,2,3,50,0,0
34350,-100,4,2,2,50,0,0
34522,-100,4,2,1,70,0,0
35557,-100,4,2,1,70,0,0
35902,-100,4,2,1,80,0,0
36246,-100,4,2,3,80,0,0
37281,-100,4,2,1,80,0,0
37626,-100,4,2,3,80,0,0
38660,-100,4,2,1,80,0,0
39005,-100,4,2,3,80,0,0
40040,-100,4,2,1,80,0,0
40384,-100,4,2,3,80,0,0
41419,-100,4,2,1,80,0,0
41764,-100,4,2,3,80,0,0
42798,-100,4,2,1,80,0,0
43143,-100,4,2,3,80,0,0
43833,-100,4,2,3,80,0,0
44177,-125,4,2,3,50,0,0
54522,-100,4,2,1,50,0,0
54695,-100,4,2,2,50,0,0
55212,-100,4,2,1,60,0,0
55902,-100,4,2,3,60,0,0
57971,-100,4,2,1,60,0,0
58660,-100,4,2,3,60,0,0
60729,-100,4,2,1,60,0,0
61419,-100,4,2,3,60,0,0
63488,-100,4,2,1,60,0,0
64177,-100,4,2,2,60,0,0
65557,-100,4,2,1,60,0,0
65729,-100,4,2,2,60,0,0
66246,-100,4,2,1,80,0,0
66591,-100,4,2,2,80,0,0
66936,-100,4,2,4,80,0,0
67626,-100,4,2,1,80,0,0
67971,-100,4,2,4,80,0,0
68660,-100,4,2,2,80,0,0
69005,-100,4,2,1,80,0,0
69350,-100,4,2,2,80,0,0
69695,-100,4,2,4,80,0,0
70384,-100,4,2,1,80,0,0
70729,-100,4,2,4,80,0,0
71764,-100,4,2,3,80,0,0
74522,-100,4,2,3,80,0,0
74867,-100,4,2,3,80,0,0
75212,-100,4,2,3,80,0,0
75557,-100,4,2,3,80,0,0
75902,-100,4,2,3,80,0,0
76246,-100,4,2,3,80,0,0
76591,-100,4,2,3,80,0,0
76936,-100,4,2,3,80,0,0
77281,-83.3333333333333,4,2,2,80,0,0
77971,-83.3333333333333,4,2,3,80,0,0
78660,-83.3333333333333,4,2,1,80,0,0
79005,-83.3333333333333,4,2,3,80,0,0
80040,-83.3333333333333,4,2,1,80,0,0
80384,-83.3333333333333,4,2,3,80,0,0
81419,-83.3333333333333,4,2,1,80,0,0
81764,-83.3333333333333,4,2,3,80,0,0
82798,-83.3333333333333,4,2,1,80,0,0
83143,-83.3333333333333,4,2,3,80,0,0
84177,-83.3333333333333,4,2,1,80,0,0
84522,-83.3333333333333,4,2,3,80,0,0
85557,-83.3333333333333,4,2,2,80,0,0
86246,-83.3333333333333,4,2,3,80,0,0
86936,-83.3333333333333,4,2,1,80,0,0
87281,-83.3333333333333,4,2,3,80,0,0
87453,-83.3333333333333,4,2,3,80,0,0
87971,-83.3333333333333,4,2,3,80,0,0
88315,-83.3333333333333,4,2,1,90,0,1
88660,-83.3333333333333,4,2,2,90,0,1
89005,-83.3333333333333,4,2,4,90,0,1
89350,-83.3333333333333,4,2,2,90,0,1
89695,-83.3333333333333,4,2,1,90,0,1
90040,-83.3333333333333,4,2,2,90,0,1
90384,-83.3333333333333,4,2,4,90,0,1
90729,-83.3333333333333,4,2,2,90,0,1
91074,-83.3333333333333,4,2,1,90,0,1
91419,-83.3333333333333,4,2,2,90,0,1
91764,-83.3333333333333,4,2,4,90,0,1
91936,-83.3333333333333,4,2,1,90,0,1
92108,-83.3333333333333,4,2,4,90,0,1
92453,-83.3333333333333,4,2,1,90,0,1
92798,-83.3333333333333,4,2,2,90,0,1
93143,-83.3333333333333,4,2,4,90,0,1
93833,-83.3333333333333,4,2,1,90,0,1
94177,-83.3333333333333,4,2,2,90,0,1
94522,-83.3333333333333,4,2,4,90,0,1
94867,-83.3333333333333,4,2,2,90,0,1
95212,-83.3333333333333,4,2,1,90,0,1
95557,-83.3333333333333,4,2,2,90,0,1
95902,-83.3333333333333,4,2,4,90,0,1
96246,-83.3333333333333,4,2,2,90,0,1
96591,-83.3333333333333,4,2,1,90,0,1
96936,-83.3333333333333,4,2,2,90,0,1
97281,-83.3333333333333,4,2,4,90,0,1
97453,-83.3333333333333,4,2,1,90,0,1
97625,-83.3333333333333,4,2,2,90,0,1
97971,-83.3333333333333,4,2,1,90,0,1
99350,-100,4,2,1,80,0,0
99695,-100,4,2,3,80,0,0
100729,-100,4,2,1,80,0,0
101074,-100,4,2,3,80,0,0
102108,-100,4,2,1,80,0,0
102453,-100,4,2,3,80,0,0
103488,-100,4,2,1,80,0,0
103833,-100,4,2,3,80,0,0
104867,-100,4,2,1,80,0,0
105212,-100,4,2,3,80,0,0
106246,-100,4,2,1,80,0,0
106591,-100,4,2,3,80,0,0
107626,-100,4,2,1,80,0,0
107971,-100,4,2,3,80,0,0
109005,-100,4,2,1,80,0,0
109350,-100,4,2,3,80,0,0
110384,-100,4,2,1,70,0,0
110729,-100,4,2,2,70,0,0
111764,-100,4,2,1,70,0,0
112108,-100,4,2,3,70,0,0
113143,-100,4,2,1,70,0,0
113488,-100,4,2,2,70,0,0
114522,-100,4,2,1,70,0,0
114867,-100,4,2,2,70,0,0
115902,-100,4,2,1,70,0,0
116246,-100,4,2,2,70,0,0
117281,-100,4,2,1,70,0,0
117626,-100,4,2,3,70,0,0
118660,-100,4,2,1,70,0,0
119005,-100,4,2,2,70,0,0
121419,524.9343832021,4,2,2,100,1,0

[Colours]
Combo1 : 81,57,255
Combo2 : 100,100,255
Combo3 : 255,212,45
Combo4 : 247,123,21
Combo5 : 152,140,163
Combo6 : 118,92,127
Combo7 : 227,227,227
Combo8 : 54,54,54

[HitObjects]
163,112,40,54,0,P|178:159|199:260,1,144,2|0,2:2|0:0,0:0:0:0:
198,328,729,2,0,P|128:317|89:315,2,96,2|2|2,2:2|2:2|2:2,0:0:0:0:
337,262,1764,1,2,2:2:0:0:
462,349,2108,1,2,2:2:0:0:
504,201,2453,2,0,L|440:206,1,48,2|0,2:2|0:0,0:0:0:0:
400,150,2798,6,0,B|314:137|350:125|253:112,1,144,2|0,2:2|0:0,0:0:0:0:
189,141,3488,2,0,L|172:37,2,96,2|2|2,2:2|2:2|2:2,0:0:0:0:
128,282,4522,1,2,2:2:0:0:
3,191,4867,1,2,2:2:0:0:
85,61,5212,2,0,L|106:117,1,48,2|0,2:2|0:0,0:0:0:0:
178,114,5557,102,0,P|205:82|302:77,1,144,2|0,2:2|0:0,0:0:0:0:
354,21,6246,2,0,P|396:14|467:2,2,96,2|2|2,2:2|2:2|2:2,0:0:0:0:
304,166,7281,1,2,2:2:0:0:
423,262,7626,1,2,2:2:0:0:
290,339,7971,2,0,L|283:282,1,48,2|0,2:2|0:0,0:0:0:0:
219,250,8315,6,0,P|172:263|76:291,1,144,2|0,2:2|0:0,0:0:0:0:
3,296,9005,2,0,P|8:259|14:231,1,48,2|0,2:2|0:0,0:0:0:0:
55,154,9350,2,0,P|67:192|74:216,1,48,2|0,2:2|0:0,0:0:0:0:
129,247,9695,1,2,2:2:0:0:
207,247,9867,1,0,0:0:0:0:
266,197,10039,1,2,2:2:0:0:
279,120,10212,1,0,0:0:0:0:
235,57,10384,1,2,2:2:0:0:
379,6,10729,2,0,L|388:63,1,48,2|0,2:2|0:0,0:0:0:0:
456,88,11074,54,0,P|443:147|435:217,1,120,6|0,3:2|3:3,0:0:0:0:
438,284,11591,1,0,0:0:0:0:
375,330,11764,2,0,P|326:335|293:341,1,60,2|0,3:2|0:0,0:0:0:0:
471,384,12108,2,0,P|498:349|491:308,1,60,2|0,3:2|0:0,0:0:0:0:
470,255,12453,102,0,P|415:246|337:217,1,120,2|2,3:2|3:2,0:0:0:0:
335,148,12971,1,0,0:0:0:0:
259,166,13143,2,0,P|201:166|177:226,1,120,2|2,3:2|3:2,0:0:0:0:
231,270,13660,1,0,0:0:0:0:
175,325,13833,6,0,L|105:336,1,60,4|0,3:2|0:0,0:0:0:0:
0,375,14177,2,0,L|70:386,1,60,0|0,3:3|0:0,0:0:0:0:
59,284,14522,2,0,P|55:242|57:155,1,120,2|2,3:2|3:2,0:0:0:0:
126,129,15040,1,0,0:0:0:0:
99,56,15212,101,2,3:2:0:0:
251,22,15557,1,2,3:2:0:0:
291,172,15902,1,2,3:2:0:0:
139,206,16246,2,0,L|133:276,1,60,2|0,3:2|0:0,0:0:0:0:
70,310,16591,6,0,P|103:353|186:352,1,120,4|0,3:2|3:3,0:0:0:0:
221,307,17108,1,0,0:0:0:0:
294,333,17281,2,0,P|339:338|363:343,1,60,2|0,3:2|0:0,0:0:0:0:
477,375,17626,2,0,P|426:383|400:387,1,60,2|0,3:2|0:0,0:0:0:0:
412,291,17971,102,0,P|419:242|433:161,1,120,2|2,3:2|3:2,0:0:0:0:
384,109,18488,1,0,0:0:0:0:
433,48,18660,2,0,P|381:17|314:27,1,120,2|2,3:2|3:2,0:0:0:0:
246,9,19177,1,0,0:0:0:0:
263,139,19350,6,0,P|272:93|278:52,1,60,4|0,3:2|0:0,0:0:0:0:
191,178,19695,2,0,P|145:169|104:163,1,60,0|0,3:3|0:0,0:0:0:0:
239,244,20040,2,0,P|230:290|224:331,1,60,2|0,3:2|0:0,0:0:0:0:
311,205,20385,2,0,P|357:214|398:220,1,60,2|0,3:2|0:0,0:0:0:0:
420,275,20729,102,0,P|478:259|500:191,2,120,10|2|2,2:2|2:2|2:2,0:0:0:0:
364,329,21591,1,0,0:0:0:0:
364,329,21764,2,0,P|313:322|287:322,1,60,8|0,2:2|0:0,0:0:0:0:
252,263,22108,22,0,P|192:277|113:285,1,120,4|8,3:2|2:2,0:0:0:0:
77,338,22626,2,0,P|46:313|19:300,1,60,0|2,0:0|2:2,0:0:0:0:
2,229,22971,1,0,3:3:0:0:
67,187,23143,2,0,P|105:195|126:235,1,60,10|0,2:2|0:0,0:0:0:0:
25,119,23488,6,0,P|21:78|8:-3,1,120,6|10,3:2|2:2,0:0:0:0:
96,45,24005,1,0,0:0:0:0:
165,9,24177,2,0,P|213:21|234:24,1,60,2|0,2:2|3:3,0:0:0:0:
283,75,24522,2,0,P|313:70|342:62,1,60,8|0,2:2|0:0,0:0:0:0:
220,123,24867,102,0,P|210:155|239:237,1,120,4|8,3:2|2:2,0:0:0:0:
312,216,25384,2,0,L|384:198,1,60,0|2,0:0|2:2,0:0:0:0:
309,294,25729,1,0,3:3:0:0:
238,329,25902,2,0,L|167:318,1,60,10|0,2:2|0:0,0:0:0:0:
101,307,26246,5,6,3:2:0:0:
235,227,26591,1,10,2:2:0:0:
164,87,26936,1,2,2:2:0:0:
30,167,27281,2,0,L|21:227,1,60,8|0,2:2|0:0,0:0:0:0:
78,279,27626,102,0,L|208:251,1,120,4|8,3:2|2:2,0:0:0:0:
257,301,28143,1,0,0:0:0:0:
325,264,28315,2,0,P|342:227|328:197,1,60,2|0,2:2|3:3,0:0:0:0:
254,126,28660,2,0,P|261:165|268:195,1,60,10|0,2:2|0:0,0:0:0:0:
404,167,29005,6,0,P|414:123|432:39,2,120,6|10|2,3:2|2:2|2:2,0:0:0:0:
465,215,29867,1,0,3:3:0:0:
427,283,30040,2,0,P|381:283|361:287,1,60,8|0,2:2|0:0,0:0:0:0:
487,355,30384,102,0,P|429:359|349:376,1,120,4|8,3:2|2:2,0:0:0:0:
291,372,30902,1,0,0:0:0:0:
229,327,31074,1,2,2:2:0:0:
208,254,31247,1,0,3:3:0:0:
235,182,31419,2,0,P|231:119|229:99,1,60,10|0,2:2|0:0,0:0:0:0:
220,49,31764,5,6,3:2:0:0:
220,49,31936,1,0,0:0:0:0:
148,18,32108,2,0,P|122:42|117:75,1,60,10|0,2:2|3:3,0:0:0:0:
45,110,32453,2,0,P|41:70|35:26,1,60,2|0,2:2|3:3,0:0:0:0:
111,150,32798,2,0,P|106:188|99:225,1,60,8|0,2:2|0:0,0:0:0:0:
106,287,33143,6,0,P|27:290|0:315,2,120,2|2|10,2:2|2:2|2:2,0:0:0:0:
183,338,34005,1,0,0:0:0:0:
183,338,34177,2,0,L|252:325,1,60,2|2,2:2|2:2,0:0:0:0:
311,363,34522,70,0,P|368:353|387:287,1,120,4|0,3:2|0:0,0:0:0:0:
337,241,35040,1,4,3:2:0:0:
337,241,35212,2,0,L|266:230,1,60,2|0,2:2|0:0,0:0:0:0:
377,132,35557,2,0,P|398:164|393:199,1,60,4|0,3:2|0:0,0:0:0:0:
460,233,35902,6,0,L|476:308,1,60,6|2,3:2|2:2,0:0:0:0:
361,367,36246,2,0,P|401:355|428:349,1,60,10|2,2:2|2:2,0:0:0:0:
297,313,36591,2,0,P|258:308|244:281,1,60,10|0,2:2|3:3,0:0:0:0:
172,301,36936,1,10,2:2:0:0:
172,301,37108,1,2,2:2:0:0:
107,345,37281,6,0,P|84:315|59:230,1,120,6|8,3:2|2:2,0:0:0:0:
7,179,37798,2,0,P|6:141|3:110,1,60,2|10,3:2|2:2,0:0:0:0:
90,57,38143,2,0,P|85:89|81:123,2,60,0|10|0,3:3|2:2|0:0,0:0:0:0:
36,0,38660,102,0,P|7:19|2:54,1,60,6|2,3:2|2:2,0:0:0:0:
171,45,39005,2,0,L|246:25,1,60,10|2,2:2|2:2,0:0:0:0:
282,138,39350,2,0,P|286:100|291:73,1,60,10|0,2:2|3:3,0:0:0:0:
207,169,39695,1,10,2:2:0:0:
207,169,39867,1,2,2:2:0:0:
222,245,40040,6,0,P|271:248|349:273,1,120,6|8,3:2|2:2,0:0:0:0:
416,265,40557,2,0,P|416:309|418:340,1,60,0|10,0:0|2:2,0:0:0:0:
493,324,40902,2,0,P|494:354|493:384,2,60,0|8|0,3:3|2:2|0:0,0:0:0:0:
512,228,41419,102,0,P|468:199|441:211,1,60,6|2,3:2|2:2,0:0:0:0:
337,170,41764,2,0,P|385:162|403:159,1,60,10|2,2:2|2:2,0:0:0:0:
494,98,42108,2,0,P|453:96|424:92,1,60,10|0,2:2|3:3,0:0:0:0:
389,29,42453,1,10,2:2:0:0:
389,29,42626,1,2,2:2:0:0:
314,6,42798,6,0,P|277:41|275:117,1,120,6|8,3:2|2:2,0:0:0:0:
232,174,43315,1,2,3:2:0:0:
285,230,43488,1,10,2:2:0:0:
233,288,43660,1,0,0:0:0:0:
285,345,43833,2,0,P|235:334|161:359,1,120,8|2,2:2|2:2,0:0:0:0:
256,192,53833,12,8,54867,2:2:0:0:
247,207,55212,86,0,P|198:202|104:202,1,120,6|0,3:2|0:0,0:0:0:0:
52,224,55729,1,2,2:2:0:0:
52,224,55902,2,0,P|20:183|32:111,1,120,8|2,2:2|2:2,0:0:0:0:
157,33,56591,2,0,P|169:65|175:92,1,60,2|0,2:2|3:3,0:0:0:0:
250,108,56936,1,0,3:3:0:0:
250,108,57108,1,2,2:2:0:0:
291,174,57281,2,0,P|334:162|421:185,1,120,10|2,2:2|2:2,0:0:0:0:
502,52,57971,102,0,B|431:35|447:52|356:30,1,120,6|0,3:2|0:0,0:0:0:0:
312,70,58488,1,2,2:2:0:0:
312,70,58660,2,0,P|243:72|216:137,1,120,8|2,2:2|2:2,0:0:0:0:
252,262,59350,2,0,P|245:305|236:389,1,120,2|0,2:2|3:3,0:0:0:0:
161,358,59867,1,2,2:2:0:0:
161,358,60040,2,0,P|106:359|79:362,1,60,8|0,2:2|3:3,0:0:0:0:
24,374,60384,1,2,2:2:0:0:
1,219,60729,6,0,P|58:229|135:234,1,120,6|0,3:2|0:0,0:0:0:0:
193,260,61246,1,2,2:2:0:0:
193,260,61419,2,0,P|255:256|288:192,1,120,8|2,2:2|2:2,0:0:0:0:
257,58,62108,2,0,L|190:69,1,60,2|0,2:2|3:3,0:0:0:0:
135,20,62453,1,0,3:3:0:0:
135,20,62626,1,2,2:2:0:0:
68,59,62798,2,0,L|51:189,1,120,10|2,2:2|2:2,0:0:0:0:
4,327,63488,102,0,P|61:336|111:305,1,120,4|0,3:2|0:0,0:0:0:0:
162,157,64177,2,0,P|219:147|269:178,1,120,8|0,3:2|0:0,0:0:0:0:
261,257,64695,1,8,2:2:0:0:
337,271,64867,2,0,L|408:257,1,60,0|8,3:3|2:2,0:0:0:0:
323,351,65212,2,0,L|394:337,1,60,0|8,3:3|2:2,0:0:0:0:
453,371,65557,1,8,2:2:0:0:
506,314,65729,1,8,2:2:0:0:
506,314,65815,1,8,2:2:0:0:
506,314,65902,2,0,P|492:265|485:233,1,60,8|8,2:2|2:2,0:0:0:0:
442,194,66246,22,0,P|451:138|468:64,2,120,6|2|2,3:2|3:2|3:2,0:0:0:0:
374,233,67108,1,0,0:0:0:0:
315,181,67281,2,0,L|247:185,1,60,2|0,3:2|0:0,0:0:0:0:
203,243,67626,6,0,P|141:235|74:273,1,120,6|2,3:2|3:2,0:0:0:0:
25,212,68143,1,0,0:0:0:0:
73,150,68315,2,0,P|52:106|42:80,1,60,2|0,3:2|0:0,0:0:0:0:
120,0,68660,2,0,L|114:72,1,60,2|0,3:2|0:0,0:0:0:0:
159,122,69005,101,6,3:2:0:0:
232,145,69177,1,0,0:0:0:0:
305,121,69350,1,2,3:2:0:0:
349,58,69522,1,0,0:0:0:0:
421,90,69695,2,0,P|430:132|434:152,1,60,2|0,3:2|0:0,0:0:0:0:
512,37,70040,2,0,P|501:78|497:108,1,60,2|0,3:2|0:0,0:0:0:0:
487,206,70384,6,0,P|439:187|361:198,1,120,6|2,3:2|3:2,0:0:0:0:
296,171,70902,1,0,0:0:0:0:
244,229,71074,2,0,P|256:262|268:315,2,90,2|0|0,3:2|3:3|3:3,0:0:0:0:
178,186,71764,5,10,3:2:0:0:
24,209,72108,1,8,2:2:0:0:
81,64,72453,2,0,P|142:68|215:84,1,120,10|10,2:2|2:2,0:0:0:0:
260,29,72971,1,0,3:3:0:0:
260,29,73143,5,10,3:2:0:0:
406,83,73488,1,10,2:2:0:0:
307,204,73833,2,0,P|316:260|324:338,1,120,10|8,2:2|2:2,0:0:0:0:
260,370,74350,1,8,2:2:0:0:
206,313,74522,54,0,P|164:322|131:332,1,60,8|8,3:2|2:2,0:0:0:0:
143,248,74867,2,0,P|101:239|68:229,1,60,8|8,2:2|2:2,0:0:0:0:
216,159,75212,2,0,P|174:168|141:178,1,60,8|8,2:2|2:2,0:0:0:0:
153,94,75557,2,0,P|111:85|78:75,1,60,8|8,2:2|2:2,0:0:0:0:
29,36,75902,101,8,3:2:0:0:
75,184,76246,1,8,3:2:0:0:
225,143,76591,1,8,3:2:0:0:
271,291,76935,1,8,3:2:0:0:
99,366,77281,22,0,P|96:315|155:236,1,143.999995605469,4|8,3:2|2:2,0:0:0:0:
158,162,77798,1,0,0:0:0:0:
236,172,77971,2,0,P|244:218|251:259,1,71.9999978027344,2|0,2:2|3:3,0:0:0:0:
294,121,78315,2,0,P|296:75|308:3,1,107.999996704102,10|0,2:2|0:0,0:0:0:0:
305,13,78660,6,0,L|158:40,1,143.999995605469,6|10,3:2|2:2,0:0:0:0:
91,6,79177,1,0,0:0:0:0:
20,42,79350,2,0,P|9:80|26:125,1,71.9999978027344,2|0,2:2|3:3,0:0:0:0:
148,175,79695,2,0,L|153:90,1,71.9999978027344,8|0,2:2|0:0,0:0:0:0:
71,168,80040,101,4,3:2:0:0:
45,240,80212,1,0,0:0:0:0:
77,310,80384,1,8,2:2:0:0:
150,337,80557,1,0,0:0:0:0:
220,306,80729,2,0,P|267:308|299:314,1,71.9999978027344,2|0,2:2|3:3,0:0:0:0:
360,361,81074,1,10,2:2:0:0:
360,361,81246,1,0,0:0:0:0:
426,317,81419,6,0,P|426:271|428:229,1,71.9999978027344,6|0,3:2|0:0,0:0:0:0:
491,198,81764,1,10,2:2:0:0:
436,140,81936,2,0,P|375:143|321:211,1,143.999995605469,0|0,3:3|3:3,0:0:0:0:
243,202,82453,2,0,L|235:122,1,71.9999978027344,8|0,2:2|0:0,0:0:0:0:
186,67,82798,102,0,P|130:63|99:62,1,71.9999978027344,4|0,3:2|0:0,0:0:0:0:
241,8,83143,2,0,P|269:32|322:38,1,71.9999978027344,8|0,2:2|0:0,0:0:0:0:
374,5,83488,1,2,2:2:0:0:
374,5,83660,1,0,3:3:0:0:
431,60,83833,2,0,P|422:103|420:135,1,71.9999978027344,10|0,2:2|0:0,0:0:0:0:
356,177,84177,6,0,P|367:234|472:248,2,143.999995605469,6|10|2,3:2|2:2|2:2,0:0:0:0:
292,128,85040,1,0,3:3:0:0:
250,195,85212,2,0,L|166:209,1,71.9999978027344,8|0,2:2|0:0,0:0:0:0:
167,285,85557,102,0,P|142:215|111:142,1,143.999995605469,4|8,3:2|2:2,0:0:0:0:
39,125,86074,1,0,0:0:0:0:
84,60,86246,2,0,P|54:12|62:-25,1,71.9999978027344,2|0,2:2|3:3,0:0:0:0:
161,79,86591,2,0,P|199:83|243:92,1,71.9999978027344,10|0,2:2|0:0,0:0:0:0:
294,40,86936,6,0,P|319:96|291:180,1,143.999995605469,6|10,3:2|2:2,0:0:0:0:
212,239,87453,2,0,L|221:153,1,71.9999978027344,0|2,3:3|2:2,0:0:0:0:
261,301,87798,1,0,3:3:0:0:
330,261,87971,2,0,P|338:308|340:342,1,71.9999978027344,8|0,2:2|0:0,0:0:0:0:
406,374,88315,54,0,P|455:356|520:352,1,107.999996704102,4|0,3:2|0:0,0:0:0:0:
510,351,88660,2,0,P|506:304|506:272,1,71.9999978027344,10|0,3:2|0:0,0:0:0:0:
480,204,89005,2,0,L|334:194,1,143.999995605469,2|10,3:2|3:2,0:0:0:0:
282,136,89522,1,0,0:0:0:0:
271,247,89695,102,0,P|216:248|167:301,1,107.999996704102,4|0,3:2|0:0,0:0:0:0:
176,280,90040,2,0,P|182:344|184:374,1,71.9999978027344,10|0,3:2|0:0,0:0:0:0:
90,384,90384,2,0,L|99:221,1,143.999995605469,2|10,3:2|3:2,0:0:0:0:
159,189,90902,1,0,0:0:0:0:
117,121,91074,6,0,P|57:120|8:157,1,107.999996704102,4|0,3:2|0:0,0:0:0:0:
17,144,91419,2,0,P|24:90|27:62,1,71.9999978027344,10|0,3:2|0:0,0:0:0:0:
72,9,91764,2,0,P|113:15|218:14,1,143.999995605469,2|10,3:2|3:2,0:0:0:0:
282,56,92281,1,0,0:0:0:0:
235,120,92453,102,0,P|233:172|232:206,1,71.9999978027344,6|0,3:2|0:0,0:0:0:0:
293,306,92798,2,0,P|295:254|296:220,1,71.9999978027344,10|0,3:2|0:0,0:0:0:0:
368,201,93143,2,0,P|423:192|491:190,2,107.999996704102,2|0|0,3:2|3:3|3:3,0:0:0:0:
348,124,93833,6,0,P|345:73|408:37,1,107.999996704102,4|0,3:2|0:0,0:0:0:0:
385,38,94177,2,0,P|433:42|467:46,1,71.9999978027344,10|0,3:2|0:0,0:0:0:0:
492,116,94522,2,0,P|487:154|486:271,1,143.999995605469,2|10,3:2|3:2,0:0:0:0:
503,337,95040,1,0,0:0:0:0:
430,368,95212,102,0,P|373:380|314:351,1,107.999996704102,4|0,3:2|0:0,0:0:0:0:
327,362,95557,2,0,P|334:314|340:275,1,71.9999978027344,10|0,3:2|0:0,0:0:0:0:
258,318,95902,2,0,P|219:328|91:356,1,143.999995605469,2|10,3:2|3:2,0:0:0:0:
42,376,96419,1,0,0:0:0:0:
10,303,96591,6,0,P|12:253|33:234,1,71.9999978027344,4|0,3:2|0:0,0:0:0:0:
100,214,96936,2,0,L|83:135,1,71.9999978027344,10|0,3:2|0:0,0:0:0:0:
178,250,97281,1,2,3:2:0:0:
178,250,97453,1,8,2:2:0:0:
233,192,97626,2,0,P|283:198|381:213,1,143.999995605469,10|8,3:2|2:2,0:0:0:0:
256,192,98057,12,8,99005,2:2:0:0:
361,69,99350,38,0,L|379:3,1,60,6|2,3:2|2:2,0:0:0:0:
372,162,99695,2,0,P|405:150|420:118,1,60,10|2,2:2|2:2,0:0:0:0:
310,217,100040,2,0,P|273:213|240:214,1,60,10|0,2:2|3:3,0:0:0:0:
366,285,100384,1,10,2:2:0:0:
366,285,100557,1,2,2:2:0:0:
311,340,100729,6,0,P|264:348|176:359,1,120,6|8,3:2|2:2,0:0:0:0:
138,300,101246,2,0,P|143:250|147:227,1,60,2|10,2:2|2:2,0:0:0:0:
71,371,101591,2,0,P|65:331|61:302,2,60,0|8|0,3:3|2:2|0:0,0:0:0:0:
4,254,102108,102,0,P|27:225|66:220,1,60,6|2,3:2|2:2,0:0:0:0:
98,158,102453,2,0,L|170:167,1,60,10|2,2:2|2:2,0:0:0:0:
213,219,102798,2,0,P|205:252|201:281,1,60,10|0,2:2|3:3,0:0:0:0:
284,183,103143,1,10,2:2:0:0:
284,183,103315,1,2,2:2:0:0:
343,239,103488,6,0,P|400:217|466:218,1,120,6|8,3:2|2:2,0:0:0:0:
502,151,104005,2,0,L|498:83,1,60,2|10,3:2|2:2,0:0:0:0:
439,32,104350,2,0,P|488:15|518:7,2,60,0|10|0,3:3|2:2|0:0,0:0:0:0:
383,90,104867,102,0,P|340:72|329:42,1,60,6|2,3:2|2:2,0:0:0:0:
255,65,105212,2,0,L|259:-3,1,60,10|2,2:2|2:2,0:0:0:0:
186,108,105557,2,0,P|191:151|195:188,1,60,10|0,2:2|3:3,0:0:0:0:
264,200,105902,1,10,2:2:0:0:
264,200,106074,1,2,2:2:0:0:
211,257,106246,6,0,P|201:313|244:374,1,120,6|8,3:2|2:2,0:0:0:0:
301,329,106764,2,0,P|343:325|386:324,1,60,2|10,2:2|2:2,0:0:0:0:
480,384,107108,2,0,P|437:380|412:381,2,60,0|8|0,3:3|2:2|0:0,0:0:0:0:
502,308,107626,102,0,P|494:268|489:233,1,60,6|2,3:2|2:2,0:0:0:0:
425,205,107971,2,0,P|435:168|465:149,1,60,10|2,2:2|2:2,0:0:0:0:
367,260,108315,2,0,L|294:274,1,60,10|0,2:2|3:3,0:0:0:0:
242,228,108660,1,10,2:2:0:0:
242,228,108833,1,2,2:2:0:0:
187,283,109005,6,0,P|143:269|56:273,1,120,6|8,3:2|2:2,0:0:0:0:
21,208,109522,1,2,3:2:0:0:
75,152,109695,1,10,2:2:0:0:
26,91,109867,1,0,3:3:0:0:
84,38,110040,2,0,L|190:58,1,90,10|0,2:2|0:0,0:0:0:0:
172,54,110384,86,0,P|197:95|286:99,1,120,4|8,3:2|2:2,0:0:0:0:
325,59,110902,1,0,0:0:0:0:
325,59,111074,2,0,P|320:14|318:-21,2,60,0|0|8,0:0|3:3|2:2,0:0:0:0:
389,103,111591,1,0,0:0:0:0:
441,44,111764,102,0,P|468:79|477:175,1,120,4|8,3:2|2:2,0:0:0:0:
420,200,112281,1,0,0:0:0:0:
420,200,112453,2,0,P|366:203|337:203,1,60,2|0,2:2|3:3,0:0:0:0:
463,276,112798,2,0,P|433:276|403:279,1,60,8|0,2:2|0:0,0:0:0:0:
353,339,113143,6,0,P|298:354|220:338,1,120,4|8,3:2|2:2,0:0:0:0:
185,285,113660,1,0,0:0:0:0:
185,285,113833,2,0,L|172:216,2,60,0|0|8,0:0|3:3|2:2,0:0:0:0:
140,349,114350,1,0,0:0:0:0:
66,374,114522,102,0,P|11:346|15:270,1,120,4|8,3:2|2:2,0:0:0:0:
71,254,115040,2,0,L|146:242,1,60,0|0,3:3|0:0,0:0:0:0:
174,180,115384,1,0,3:3:0:0:
174,180,115557,2,0,L|247:191,1,60,8|0,2:2|0:0,0:0:0:0:
291,241,115902,6,0,P|326:201|310:122,1,120,4|8,3:2|2:2,0:0:0:0:
246,41,116419,1,0,0:0:0:0:
246,41,116591,2,0,L|259:114,2,60,0|0|8,0:0|3:3|2:2,0:0:0:0:
178,1,117108,1,0,0:0:0:0:
120,52,117281,102,0,P|75:45|0:88,1,120,4|8,3:2|2:2,0:0:0:0:
26,152,117798,1,0,0:0:0:0:
26,152,117971,2,0,P|51:195|61:217,1,60,2|0,2:2|3:3,0:0:0:0:
132,213,118315,2,0,L|126:281,1,60,8|0,2:2|0:0,0:0:0:0:
208,173,118660,6,0,L|233:298,1,120,4|8,3:2|2:2,0:0:0:0:
311,276,119177,1,0,0:0:0:0:
311,276,119350,2,0,P|319:236|328:208,2,60,0|0|8,0:0|3:3|2:2,0:0:0:0:
364,333,119867,1,0,0:0:0:0:
431,293,120040,102,0,P|430:245|455:160,1,120,0|0,3:3|0:0,0:0:0:0:
506,123,120557,1,0,3:3:0:0:
382,27,120902,1,0,3:3:0:0:
382,27,121074,2,0,L|252:35,1,120,8|0,2:2|3:3,0:0:0:0:
