osu file format v14

[General]
AudioFilename: audio.mp3
AudioLeadIn: 0
PreviewTime: 99264
Countdown: 0
SampleSet: Soft
StackLeniency: 0.7
Mode: 0
LetterboxInBreaks: 0
EpilepsyWarning: 1
WidescreenStoryboard: 1

[Editor]
Bookmarks: 40,11074,22108,33143,35902,44177,55212,66246,77281,88315,99350,110384,121419
DistanceSpacing: 1.2
BeatDivisor: 4
GridSize: 32
TimelineZoom: 1

[Metadata]
Title:SHE IS HYPERACTIVE
TitleUnicode:SHE IS HYPERACTIVE
Artist:DVRST
ArtistUnicode:DVRST
Creator:hehe
Version:EXTRA
Source:
Tags:dnb drum and & 'n' bass phonk instrumental electronic english wonder egg priority
BeatmapID:4019651
BeatmapSetID:1938423

[Difficulty]
HPDrainRate:5
CircleSize:4
OverallDifficulty:8.4
ApproachRate:9.2
SliderMultiplier:1.4
SliderTickRate:1

[Events]
//Background and Video events
0,0,"PHOCK.jpg",0,0
Video,0,"output.mp4"
//Break Periods
//Storyboard Layer 0 (Background)
//Storyboard Layer 1 (Fail)
//Storyboard Layer 2 (Pass)
//Storyboard Layer 3 (Foreground)
//Storyboard Layer 4 (Overlay)
//Storyboard Sound Samples

[TimingPoints]
40,344.827586206897,4,2,1,50,1,0
40,-166.666666666667,4,2,1,50,0,0
2453,-166.666666666667,4,2,2,50,0,0
2798,-166.666666666667,4,2,1,50,0,0
5212,-166.666666666667,4,2,2,50,0,0
5557,-166.666666666667,4,2,1,50,0,0
7971,-166.666666666667,4,2,2,50,0,0
8315,-166.666666666667,4,2,1,50,0,0
9695,-100,4,2,1,50,0,0
10729,-100,4,2,2,50,0,0
10902,-166.666666666667,4,2,2,50,0,0
11074,-83.3333333333333,4,2,1,60,0,0
13488,-83.3333333333333,4,2,2,60,0,0
13833,-83.3333333333333,4,2,1,60,0,0
16246,-83.3333333333333,4,2,2,60,0,0
16591,-83.3333333333333,4,2,1,60,0,0
19005,-83.3333333333333,4,2,2,60,0,0
19350,-83.3333333333333,4,2,1,60,0,0
20557,-166.666666666667,4,2,1,60,0,0
20729,-71.4285714285714,4,2,1,60,0,0
22108,-62.5,4,2,2,70,0,0
22798,-62.5,4,2,3,70,0,0
23488,-62.5,4,2,1,70,0,0
23833,-62.5,4,2,3,70,0,0
24867,-62.5,4,2,1,70,0,0
25212,-62.5,4,2,3,70,0,0
26246,-62.5,4,2,1,70,0,0
26591,-62.5,4,2,3,70,0,0
27626,-62.5,4,2,1,70,0,0
27971,-62.5,4,2,3,70,0,0
29005,-62.5,4,2,1,70,0,0
29350,-62.5,4,2,3,70,0,0
30384,-62.5,4,2,2,70,0,0
31074,-62.5,4,2,3,70,0,0
31764,-62.5,4,2,1,70,0,0
32108,-62.5,4,2,3,70,0,0
33143,-62.5,4,2,3,50,0,0
34350,-62.5,4,2,2,50,0,0
34522,-71.4285714285714,4,2,1,70,0,0
35557,-62.5,4,2,1,70,0,0
35902,-62.5,4,2,1,80,0,0
36246,-62.5,4,2,3,80,0,0
37281,-62.5,4,2,1,80,0,0
37626,-62.5,4,2,3,80,0,0
38660,-62.5,4,2,1,80,0,0
39005,-62.5,4,2,3,80,0,0
40040,-62.5,4,2,1,80,0,0
40384,-62.5,4,2,3,80,0,0
41419,-62.5,4,2,1,80,0,0
41764,-62.5,4,2,3,80,0,0
42798,-62.5,4,2,1,80,0,0
43143,-62.5,4,2,3,80,0,0
43833,-200,4,2,3,80,0,0
44177,-200,4,2,3,50,0,0
54522,-200,4,2,1,50,0,0
54695,-200,4,2,2,50,0,0
55212,-100,4,2,1,60,0,0
55902,-100,4,2,3,60,0,0
57971,-100,4,2,1,60,0,0
58660,-100,4,2,3,60,0,0
60729,-100,4,2,1,60,0,0
61419,-100,4,2,3,60,0,0
63488,-83.3333333333333,4,2,1,60,0,0
64177,-83.3333333333333,4,2,2,60,0,0
65557,-83.3333333333333,4,2,1,60,0,0
65729,-83.3333333333333,4,2,2,60,0,0
66246,-62.5,4,2,1,80,0,0
66591,-62.5,4,2,2,80,0,0
66936,-62.5,4,2,4,80,0,0
67626,-62.5,4,2,1,80,0,0
67971,-62.5,4,2,4,80,0,0
68660,-62.5,4,2,2,80,0,0
69005,-62.5,4,2,1,80,0,0
69350,-62.5,4,2,2,80,0,0
69695,-62.5,4,2,4,80,0,0
70384,-62.5,4,2,1,80,0,0
70729,-62.5,4,2,4,80,0,0
71764,-71.4285714285714,4,2,3,80,0,0
74522,-41.6666666666667,4,2,3,80,0,0
74867,-50,4,2,3,80,0,0
75212,-58.8235294117647,4,2,3,80,0,0
75557,-66.6666666666667,4,2,3,80,0,0
75902,-62.5,4,2,3,80,0,0
77281,-50,4,2,2,80,0,0
77971,-50,4,2,3,80,0,0
78660,-50,4,2,1,80,0,0
79005,-50,4,2,3,80,0,0
80040,-50,4,2,1,80,0,0
80384,-50,4,2,3,80,0,0
81419,-50,4,2,1,80,0,0
81764,-50,4,2,3,80,0,0
82798,-50,4,2,1,80,0,0
83143,-50,4,2,3,80,0,0
84177,-50,4,2,1,80,0,0
84522,-50,4,2,3,80,0,0
85557,-50,4,2,2,80,0,0
86246,-50,4,2,3,80,0,0
86936,-71.4285714285714,4,2,1,80,0,0
87281,-71.4285714285714,4,2,3,80,0,0
88315,-250,4,2,1,90,0,1
88660,-250,4,2,2,90,0,1
89005,-250,4,2,4,90,0,1
89350,-250,4,2,2,90,0,1
89695,-250,4,2,1,90,0,1
90040,-250,4,2,2,90,0,1
90384,-250,4,2,4,90,0,1
90729,-250,4,2,2,90,0,1
91074,-250,4,2,1,90,0,1
91419,-250,4,2,2,90,0,1
91764,-66.6666666666667,4,2,4,90,0,1
91936,-66.6666666666667,4,2,1,90,0,1
92108,-66.6666666666667,4,2,4,90,0,1
92453,-66.6666666666667,4,2,1,90,0,1
92798,-66.6666666666667,4,2,2,90,0,1
93143,-66.6666666666667,4,2,4,90,0,1
93833,-250,4,2,1,90,0,1
94177,-250,4,2,2,90,0,1
94522,-250,4,2,4,90,0,1
94867,-250,4,2,2,90,0,1
95212,-250,4,2,1,90,0,1
95557,-250,4,2,2,90,0,1
95902,-250,4,2,4,90,0,1
96246,-250,4,2,2,90,0,1
96591,-250,4,2,1,90,0,1
96936,-250,4,2,2,90,0,1
97281,-66.6666666666667,4,2,4,90,0,1
97453,-66.6666666666667,4,2,1,90,0,1
97625,-66.6666666666667,4,2,2,90,0,1
97971,-66.6666666666667,4,2,1,90,0,1
99350,-62.5,4,2,1,80,0,0
99695,-62.5,4,2,3,80,0,0
100729,-62.5,4,2,1,80,0,0
101074,-62.5,4,2,3,80,0,0
102108,-62.5,4,2,1,80,0,0
102453,-62.5,4,2,3,80,0,0
103488,-62.5,4,2,1,80,0,0
103833,-62.5,4,2,3,80,0,0
104867,-62.5,4,2,1,80,0,0
105212,-62.5,4,2,3,80,0,0
106246,-62.5,4,2,1,80,0,0
106591,-62.5,4,2,3,80,0,0
107626,-62.5,4,2,1,80,0,0
107971,-62.5,4,2,3,80,0,0
109005,-62.5,4,2,1,80,0,0
109350,-62.5,4,2,3,80,0,0
110384,-83.3333333333333,4,2,1,70,0,0
110729,-83.3333333333333,4,2,2,70,0,0
111764,-83.3333333333333,4,2,1,70,0,0
112108,-83.3333333333333,4,2,3,70,0,0
113143,-83.3333333333333,4,2,1,70,0,0
113488,-83.3333333333333,4,2,2,70,0,0
114522,-83.3333333333333,4,2,1,70,0,0
114867,-83.3333333333333,4,2,2,70,0,0
115902,-83.3333333333333,4,2,1,70,0,0
116246,-83.3333333333333,4,2,2,70,0,0
117281,-83.3333333333333,4,2,1,70,0,0
117626,-83.3333333333333,4,2,3,70,0,0
118660,-83.3333333333333,4,2,1,70,0,0
119005,-83.3333333333333,4,2,2,70,0,0
121419,524.9343832021,4,2,2,100,1,0

[Colours]
Combo1 : 81,57,255
Combo2 : 100,100,255
Combo3 : 255,212,45
Combo4 : 247,123,21
Combo5 : 152,140,163
Combo6 : 118,92,127
Combo7 : 227,227,227
Combo8 : 54,54,54

[HitObjects]
114,141,40,54,0,P|188:140|219:177,1,125.999996154785,2|0,2:2|0:0,0:0:0:0:
218,176,729,1,2,2:2:0:0:
283,235,1074,1,2,2:2:0:0:
222,311,1419,1,2,2:2:0:0:
319,379,1764,5,2,2:2:0:0:
319,379,2108,1,2,2:2:0:0:
319,379,2453,2,0,L|310:331,1,41.9999987182618,2|0,2:2|0:0,0:0:0:0:
467,318,2798,102,0,P|471:262|481:182,1,125.999996154785,2|0,2:2|0:0,0:0:0:0:
479,192,3488,1,2,2:2:0:0:
425,142,3833,1,2,2:2:0:0:
361,211,4177,1,2,2:2:0:0:
236,172,4522,5,2,2:2:0:0:
236,172,4867,1,2,2:2:0:0:
236,172,5212,2,0,L|181:162,1,41.9999987182618,2|0,2:2|0:0,0:0:0:0:
13,240,5557,102,0,P|54:220|137:208,1,125.999996154785,2|0,2:2|0:0,0:0:0:0:
132,207,6246,1,2,2:2:0:0:
100,136,6591,1,2,2:2:0:0:
179,66,6936,1,2,2:2:0:0:
319,135,7281,5,2,2:2:0:0:
319,135,7626,1,2,2:2:0:0:
319,135,7971,2,0,L|264:141,1,41.9999987182618,2|0,2:2|0:0,0:0:0:0:
357,7,8315,102,0,P|411:7|461:64,1,125.999996154785,2|0,2:2|0:0,0:0:0:0:
458,56,9005,1,2,2:2:0:0:
426,131,9350,1,2,2:2:0:0:
506,193,9695,6,0,P|498:230|494:280,1,70,2|0,2:2|0:0,0:0:0:0:
349,149,10040,2,0,P|341:112|337:62,1,70,2|0,2:2|0:0,0:0:0:0:
301,211,10384,2,0,L|158:192,1,140,2|2,2:2|2:2,0:0:0:0:
379,227,10902,1,0,0:0:0:0:
153,210,11074,54,0,P|126:160|167:54,1,167.999994873047,6|0,3:2|3:3,0:0:0:0:
329,146,11591,1,0,0:0:0:0:
235,81,11764,1,2,3:2:0:0:
272,16,11936,1,0,0:0:0:0:
263,187,12108,2,0,P|272:238|282:320,1,125.999996154785,2|0,3:2|0:0,0:0:0:0:
281,311,12453,102,0,P|349:323|401:238,1,167.999994873047,2|2,3:2|3:2,0:0:0:0:
227,372,12971,1,0,0:0:0:0:
129,273,13143,1,2,3:2:0:0:
71,333,13315,1,0,0:0:0:0:
9,287,13488,2,0,P|1:239|-8:193,1,83.9999974365235,2|0,3:2|0:0,0:0:0:0:
190,325,13833,5,4,3:2:0:0:
224,177,14005,1,0,0:0:0:0:
94,118,14177,1,0,3:3:0:0:
164,236,14350,1,0,0:0:0:0:
164,236,14522,101,2,3:2:0:0:
246,100,14695,2,0,P|291:110|351:121,1,83.9999974365235,0|2,0:0|3:2,0:0:0:0:
177,51,15040,1,0,0:0:0:0:
347,193,15212,6,0,P|392:165|503:127,2,167.999994873047,2|2|2,3:2|3:2|3:2,0:0:0:0:
258,102,16073,1,0,0:0:0:0:
258,102,16246,2,0,L|267:10,1,83.9999974365235,2|0,3:2|0:0,0:0:0:0:
187,139,16591,101,4,3:2:0:0:
306,219,16764,1,0,0:0:0:0:
219,282,16936,2,0,P|225:332|230:379,1,83.9999974365235,0|0,3:3|0:0,0:0:0:0:
0,327,17281,2,0,P|90:318|165:376,1,167.999994873047,2|2,3:2|3:2,0:0:0:0:
339,283,17798,1,0,0:0:0:0:
314,96,17971,6,0,P|299:154|281:235,1,125.999996154785,2|0,3:2|0:0,0:0:0:0:
284,218,18315,1,2,3:2:0:0:
284,218,18402,1,0,0:0:0:0:
0,92,18660,2,0,B|46:105|86:81|80:74|113:49|163:65,1,167.999994873047,2|2,3:2|3:2,0:0:0:0:
211,212,19177,1,0,0:0:0:0:
345,107,19350,102,0,L|516:81,1,167.999994873047,4|0,3:2|3:3,0:0:0:0:
280,62,19867,1,0,0:0:0:0:
336,191,20040,1,2,3:2:0:0:
257,259,20212,1,0,0:0:0:0:
313,322,20384,1,2,3:2:0:0:
313,322,20557,1,0,0:0:0:0:
245,366,20729,6,0,L|147:381,1,97.9999970092774,10|0,2:2|0:0,0:0:0:0:
148,380,20988,1,0,0:0:0:0:
148,380,21074,1,2,2:2:0:0:
81,333,21246,101,8,2:2:0:0:
147,196,21419,2,0,L|214:209,1,48.9999985046387,2|0,2:2|0:0,0:0:0:0:
407,253,21591,5,0,0:0:0:0:
448,228,21677,1,0,0:0:0:0:
469,185,21763,1,8,2:2:0:0:
462,137,21849,1,0,0:0:0:0:
430,102,21935,1,0,0:0:0:0:
383,91,22022,1,0,0:0:0:0:
338,108,22108,5,4,3:2:0:0:
221,295,22281,1,0,0:0:0:0:
385,176,22453,1,8,2:2:0:0:
316,31,22626,1,0,0:0:0:0:
302,181,22798,5,2,2:2:0:0:
302,181,22971,1,0,3:3:0:0:
162,160,23143,2,0,P|103:154|41:151,1,112,10|0,2:2|0:0,0:0:0:0:
276,255,23488,102,0,B|259:122|245:174|231:27,1,224,6|10,3:2|2:2,0:0:0:0:
355,272,24005,1,0,0:0:0:0:
212,343,24177,5,2,2:2:0:0:
304,181,24350,1,0,3:3:0:0:
198,88,24522,1,8,2:2:0:0:
276,255,24695,1,0,0:0:0:0:
361,126,24867,102,0,P|361:67|366:6,1,112,4|0,3:2|0:0,0:0:0:0:
165,44,25212,2,0,L|177:111,1,56,8|0,2:2|0:0,0:0:0:0:
121,225,25384,1,0,0:0:0:0:
195,269,25557,5,2,2:2:0:0:
195,269,25729,1,0,3:3:0:0:
17,358,25902,2,0,P|80:330|145:341,1,112,10|0,2:2|0:0,0:0:0:0:
189,373,26160,1,0,0:0:0:0:
189,373,26246,102,0,L|371:335,1,168,6|0,3:2|0:0,0:0:0:0:
353,338,26591,1,10,2:2:0:0:
492,383,26764,2,0,P|500:320|510:269,1,112,0|2,3:3|2:2,0:0:0:0:
320,181,27108,5,0,3:3:0:0:
388,217,27281,2,0,L|405:317,1,56,8|0,2:2|0:0,0:0:0:0:
500,90,27453,1,0,0:0:0:0:
283,46,27626,101,4,3:2:0:0:
455,157,27798,1,0,0:0:0:0:
250,252,27971,1,8,2:2:0:0:
341,103,28143,1,0,0:0:0:0:
371,181,28315,5,2,2:2:0:0:
371,181,28488,1,0,3:3:0:0:
202,185,28660,2,0,P|199:120|204:60,1,112,10|0,2:2|0:0,0:0:0:0:
0,5,29005,102,0,P|7:78|14:247,2,224,6|10|2,3:2|2:2|2:2,0:0:0:0:
89,251,29867,1,0,3:3:0:0:
273,144,30040,1,8,2:2:0:0:
290,225,30212,1,0,0:0:0:0:
152,302,30384,6,0,P|138:233|154:167,1,112,4|0,3:2|0:0,0:0:0:0:
358,271,30729,2,0,L|367:342,1,56,8|0,2:2|0:0,0:0:0:0:
408,213,30902,1,0,0:0:0:0:
512,322,31074,101,2,2:2:0:0:
311,381,31246,1,0,3:3:0:0:
263,197,31419,1,10,2:2:0:0:
358,271,31591,1,0,0:0:0:0:
282,273,31764,6,0,P|289:169|301:64,1,168,6|0,3:2|0:0,0:0:0:0:
295,105,32108,1,10,2:2:0:0:
212,11,32281,2,0,P|203:72|221:138,1,112,0|2,3:3|2:2,0:0:0:0:
374,188,32626,101,0,3:3:0:0:
166,278,32798,2,0,L|152:343,1,56,8|0,2:2|0:0,0:0:0:0:
95,229,32971,1,0,0:0:0:0:
0,339,33143,21,2,2:2:0:0:
71,307,33315,1,0,0:0:0:0:
134,354,33488,5,2,2:2:0:0:
205,322,33660,1,0,0:0:0:0:
268,369,33833,101,10,2:2:0:0:
339,337,34005,1,0,0:0:0:0:
402,384,34178,5,2,2:2:0:0:
473,352,34350,2,0,L|481:292,1,56,2|0,2:2|0:0,0:0:0:0:
153,248,34522,53,4,3:2:0:0:
146,233,34608,1,0,0:0:0:0:
143,217,34694,1,0,0:0:0:0:
145,200,34780,1,0,0:0:0:0:
151,185,34866,1,0,0:0:0:0:
160,172,34953,1,0,0:0:0:0:
173,162,35040,2,0,L|235:176,1,48.9999985046387,4|0,3:2|0:0,0:0:0:0:
335,0,35212,101,2,2:2:0:0:
363,21,35298,1,0,0:0:0:0:
375,56,35384,1,0,0:0:0:0:
363,90,35470,1,0,0:0:0:0:
334,111,35557,2,0,L|261:125,1,56,4|0,3:2|0:0,0:0:0:0:
25,161,35729,1,0,0:0:0:0:
25,161,35815,1,0,0:0:0:0:
25,161,35902,21,6,3:2:0:0:
97,98,36074,1,2,2:2:0:0:
228,230,36246,1,10,2:2:0:0:
346,70,36419,1,2,2:2:0:0:
163,7,36591,6,0,P|168:44|174:126,1,112,10|0,2:2|3:3,0:0:0:0:
155,276,36936,2,0,L|84:268,1,56,10|0,2:2|0:0,0:0:0:0:
197,339,37108,1,2,2:2:0:0:
415,305,37281,102,0,P|450:247|376:148,1,168,6|0,3:2|0:0,0:0:0:0:
411,161,37626,1,8,2:2:0:0:
507,23,37798,2,0,P|495:106|491:152,1,112,2|10,3:2|2:2,0:0:0:0:
313,76,38143,5,0,3:3:0:0:
256,133,38315,2,0,L|265:202,1,56,10|0,2:2|0:0,0:0:0:0:
67,62,38488,1,0,0:0:0:0:
137,23,38660,101,6,3:2:0:0:
61,182,38833,1,2,2:2:0:0:
235,248,39005,1,10,2:2:0:0:
118,126,39177,1,2,2:2:0:0:
16,274,39350,6,0,P|75:262|146:253,1,112,10|0,2:2|3:3,0:0:0:0:
344,270,39695,2,0,L|349:329,1,56,10|0,2:2|0:0,0:0:0:0:
410,224,39867,1,2,2:2:0:0:
370,80,40040,102,0,P|288:78|252:203,1,224,6|8,3:2|2:2,0:0:0:0:
256,61,40557,1,0,0:0:0:0:
316,243,40729,1,10,2:2:0:0:
149,350,40902,1,0,3:3:0:0:
247,268,41074,2,0,L|376:298,1,112,8|0,2:2|0:0,0:0:0:0:
356,293,41333,1,0,0:0:0:0:
356,293,41419,5,6,3:2:0:0:
485,183,41591,1,2,2:2:0:0:
280,75,41764,1,10,2:2:0:0:
413,223,41936,1,2,2:2:0:0:
512,0,42108,102,0,P|506:59|507:113,1,112,10|0,2:2|3:3,0:0:0:0:
350,26,42453,2,0,P|357:60|361:91,1,56,10|0,2:2|0:0,0:0:0:0:
431,117,42626,1,2,2:2:0:0:
254,207,42798,6,0,B|147:186|185:226|67:204,1,168,6|0,3:2|0:0,0:0:0:0:
87,207,43143,1,8,2:2:0:0:
302,142,43315,2,0,B|370:128|346:154|421:140,1,112,2|10,3:2|2:2,0:0:0:0:
264,15,43660,101,0,0:0:0:0:
244,88,43833,2,0,B|196:78|213:96|161:86,1,70,8|2,2:2|2:2,0:0:0:0:
27,265,44867,21,2,2:2:0:0:
27,265,45212,1,2,2:2:0:0:
27,265,45557,1,2,2:2:0:0:
254,311,45902,5,2,2:2:0:0:
254,311,46246,2,0,P|250:258|246:160,1,140,2|2,2:2|2:2,0:0:0:0:
476,103,47626,101,2,2:2:0:0:
476,103,47971,1,2,2:2:0:0:
476,103,48315,1,2,2:2:0:0:
259,198,48660,5,2,2:2:0:0:
259,198,49005,2,0,P|261:157|261:51,1,140,2|2,2:2|2:2,0:0:0:0:
57,14,50384,101,2,2:2:0:0:
57,14,50729,1,2,2:2:0:0:
57,14,51074,1,2,2:2:0:0:
130,209,51419,5,2,2:2:0:0:
130,209,51764,2,0,P|188:198|226:266,1,140,2|2,2:2|2:2,0:0:0:0:
121,363,52798,102,0,P|118:341|116:323,1,35
62,276,53143,1,2,2:2:0:0:
303,122,53488,5,2,2:2:0:0:
277,195,53660,1,8,2:2:0:0:
335,254,53833,101,2,2:2:0:0:
335,254,54005,1,8,2:2:0:0:
205,338,54177,1,2,2:2:0:0:
205,338,54350,1,8,2:2:0:0:
275,379,54522,5,10,2:2:0:0:
393,353,54695,1,8,2:2:0:0:
393,353,54781,1,8,2:2:0:0:
393,353,54867,1,8,2:2:0:0:
511,327,55040,1,8,2:2:0:0:
331,286,55212,54,0,P|338:220|352:136,1,140,6|0,3:2|0:0,0:0:0:0:
323,77,55729,1,2,2:2:0:0:
323,77,55902,1,8,2:2:0:0:
228,47,56074,1,0,0:0:0:0:
152,145,56246,1,2,2:2:0:0:
32,47,56419,1,0,0:0:0:0:
32,47,56591,102,0,L|42:111,1,35,2|0,2:2|0:0,0:0:0:0:
102,6,56764,1,0,3:3:0:0:
184,125,56936,2,0,P|174:189|170:260,1,105,0|0,3:3|0:0,0:0:0:0:
170,229,57281,2,0,L|95:221,1,70,10|0,2:2|0:0,0:0:0:0:
274,374,57626,1,2,2:2:0:0:
274,374,57971,6,0,P|328:361|419:348,1,140,6|0,3:2|0:0,0:0:0:0:
503,370,58488,1,2,2:2:0:0:
503,370,58660,1,8,2:2:0:0:
485,279,58833,1,0,0:0:0:0:
372,259,59005,1,2,2:2:0:0:
461,134,59177,1,0,0:0:0:0:
461,134,59350,102,0,L|465:210,1,70,2|0,2:2|0:0,0:0:0:0:
306,197,59695,1,0,3:3:0:0:
237,242,59867,2,0,P|230:190|229:97,1,140,2|0,2:2|3:3,0:0:0:0:
290,301,60384,1,2,2:2:0:0:
290,301,60729,6,0,P|237:284|147:333,1,140,6|0,3:2|0:0,0:0:0:0:
20,320,61246,1,2,2:2:0:0:
20,320,61419,1,8,2:2:0:0:
77,380,61591,1,0,0:0:0:0:
173,331,61764,1,2,2:2:0:0:
154,175,61936,1,0,0:0:0:0:
154,175,62108,101,2,2:2:0:0:
125,248,62281,2,0,L|60:261,1,35,0|0,3:3|0:0,0:0:0:0:
218,123,62453,2,0,L|371:145,1,140,0|10,3:3|2:2,0:0:0:0:
356,142,62884,1,0,0:0:0:0:
356,142,62971,1,0,0:0:0:0:
512,177,63143,1,2,2:2:0:0:
512,177,63488,6,0,P|432:204|322:248,1,167.999994873047,4|0,3:2|0:0,0:0:0:0:
184,336,64005,1,0,0:0:0:0:
258,325,64177,102,0,P|273:263|289:176,1,125.999996154785,8|0,3:2|0:0,0:0:0:0:
284,201,64522,1,0,0:0:0:0:
229,146,64695,1,8,2:2:0:0:
282,84,64867,5,0,3:3:0:0:
282,84,65040,1,8,2:2:0:0:
443,132,65212,1,0,3:3:0:0:
443,132,65384,1,8,2:2:0:0:
305,4,65557,101,8,2:2:0:0:
203,47,65729,1,8,2:2:0:0:
203,47,65815,1,8,2:2:0:0:
203,47,65902,1,8,2:2:0:0:
101,90,66074,1,8,2:2:0:0:
213,290,66246,22,0,P|255:213|221:117,1,168,6|0,3:2|0:0,0:0:0:0:
237,138,66591,1,2,3:2:0:0:
68,211,66764,1,0,0:0:0:0:
133,159,66936,6,0,L|140:89,1,56,2|0,3:2|0:0,0:0:0:0:
200,252,67108,1,0,0:0:0:0:
15,309,67281,2,0,P|75:291|136:278,1,112,2|0,3:2|0:0,0:0:0:0:
184,336,67540,1,0,0:0:0:0:
184,336,67626,102,0,P|265:348|310:215,1,224,6|2,3:2|3:2,0:0:0:0:
178,109,68143,1,0,0:0:0:0:
305,29,68315,1,2,3:2:0:0:
257,198,68488,6,0,L|248:134,1,56
229,30,68660,2,0,P|172:20|111:12,1,112,2|0,3:2|0:0,0:0:0:0:
326,110,69005,101,6,3:2:0:0:
394,15,69177,1,0,0:0:0:0:
461,223,69350,1,2,3:2:0:0:
243,119,69522,1,0,0:0:0:0:
317,80,69695,5,2,3:2:0:0:
317,80,69867,1,0,0:0:0:0:
179,263,70040,2,0,P|160:200|175:138,1,112,2|0,3:2|0:0,0:0:0:0:
346,348,70384,102,0,P|425:358|531:376,1,168,6|0,3:2|0:0,0:0:0:0:
512,372,70729,1,2,3:2:0:0:
441,268,70902,1,0,0:0:0:0:
489,158,71074,6,0,P|419:176|351:211,1,112,2|0,3:2|0:0,0:0:0:0:
382,192,71333,2,0,P|345:137|362:77,1,112,0|0,3:3|0:0,0:0:0:0:
318,244,71591,2,0,L|311:308,1,56,0|0,3:3|0:0,0:0:0:0:
211,182,71764,6,0,P|224:243|238:388,2,195.999994018555,10|8|10,3:2|2:2|2:2,0:0:0:0:
258,121,72626,1,0,0:0:0:0:
168,54,72798,1,10,2:2:0:0:
233,3,72971,1,0,3:3:0:0:
133,213,73143,6,0,P|58:215|18:84,2,195.999994018555,10|10|10,3:2|2:2|2:2,0:0:0:0:
161,140,74005,1,0,0:0:0:0:
294,213,74177,102,0,L|300:277,1,48.9999985046387,8|0,2:2|0:0,0:0:0:0:
361,172,74350,2,0,L|368:112,1,48.9999985046387,8|0,2:2|0:0,0:0:0:0:
380,8,74522,69,8,3:2:0:0:
169,55,74695,1,8,2:2:0:0:
183,134,74867,101,8,2:2:0:0:
361,172,75040,1,8,2:2:0:0:
343,253,75212,5,8,2:2:0:0:
212,276,75384,1,8,2:2:0:0:
224,354,75557,101,8,2:2:0:0:
309,384,75729,1,8,2:2:0:0:
419,293,75902,6,0,P|435:217|369:139,1,168,8|0,3:2|0:0,0:0:0:0:
173,197,76246,2,0,P|157:273|223:351,1,168,8|0,3:2|0:0,0:0:0:0:
356,244,76591,102,0,P|298:237|209:231,1,112,8|0,3:2|0:0,0:0:0:0:
46,384,76936,2,0,P|27:285|3:172,1,168,8|0,3:2|0:0,0:0:0:0:
13,219,77281,21,4,3:2:0:0:
221,121,77453,1,0,0:0:0:0:
173,217,77626,1,8,2:2:0:0:
142,74,77798,1,0,0:0:0:0:
366,152,77971,6,0,P|441:166|516:181,1,140,2|0,2:2|3:3,0:0:0:0:
262,293,78315,2,0,P|169:293|142:170,1,210,10|0,2:2|0:0,0:0:0:0:
130,195,78660,102,0,P|121:120|110:53,1,140,6|0,3:2|0:0,0:0:0:0:
326,21,79005,1,10,2:2:0:0:
251,122,79177,2,0,L|256:40,1,70
338,262,79350,6,0,P|426:258|504:376,1,210,2|0,2:2|0:0,0:0:0:0:
501,344,79695,1,8,2:2:0:0:
417,377,79867,2,0,L|434:297,1,70
461,196,80040,101,4,3:2:0:0:
268,310,80212,1,0,0:0:0:0:
215,161,80384,1,8,2:2:0:0:
285,207,80557,1,0,0:0:0:0:
281,34,80729,6,0,L|270:108,1,70,2|0,2:2|0:0,0:0:0:0:
138,199,80902,1,0,3:3:0:0:
347,283,81074,2,0,P|369:212|334:135,1,140,10|0,2:2|0:0,0:0:0:0:
358,74,81333,1,0,0:0:0:0:
358,74,81419,102,0,L|130:109,1,210,6|0,3:2|0:0,0:0:0:0:
150,105,81764,1,10,2:2:0:0:
0,64,81936,1,0,3:3:0:0:
64,0,82108,2,0,P|73:35|79:79,1,70,2|0,2:2|0:0,0:0:0:0:
98,257,82281,5,0,3:3:0:0:
259,265,82453,2,0,P|249:190|232:104,1,140,8|0,2:2|0:0,0:0:0:0:
224,340,82798,101,4,3:2:0:0:
415,153,82971,1,0,0:0:0:0:
487,337,83143,1,8,2:2:0:0:
390,276,83315,1,0,0:0:0:0:
498,188,83488,6,0,P|501:110|514:24,1,140,2|0,2:2|3:3,0:0:0:0:
279,131,83833,2,0,L|293:211,1,70,10|0,2:2|0:0,0:0:0:0:
340,80,84005,1,0,0:0:0:0:
272,370,84177,102,0,P|190:371|146:191,2,280,6|10|2,3:2|2:2|2:2,0:0:0:0:
431,249,85040,1,0,3:3:0:0:
298,294,85212,1,8,2:2:0:0:
245,234,85384,2,0,L|261:164,1,70
41,260,85557,6,0,P|126:268|214:287,1,140,4|0,3:2|0:0,0:0:0:0:
383,182,85902,1,8,2:2:0:0:
200,75,86074,1,0,0:0:0:0:
269,28,86246,101,2,2:2:0:0:
231,179,86419,1,0,3:3:0:0:
399,321,86591,5,10,2:2:0:0:
325,114,86764,1,0,0:0:0:0:
142,127,86936,102,0,P|78:106|7:218,1,195.999994018555,6|10,3:2|2:2,0:0:0:0:
216,261,87453,2,0,L|204:147,1,97.9999970092774,0|0,3:3|0:0,0:0:0:0:
168,328,87798,5,0,3:3:0:0:
453,384,87971,2,0,L|461:317,1,48.9999985046387,8|0,2:2|0:0,0:0:0:0:
476,254,88143,1,0,0:0:0:0:
476,254,88229,1,0,0:0:0:0:
476,254,88315,53,4,3:2:0:0:
281,311,88488,1,0,0:0:0:0:
224,116,88660,1,10,3:2:0:0:
419,59,88833,1,0,0:0:0:0:
376,125,89005,102,0,L|317:114,1,56,2|10,3:2|3:2,0:0:0:0:
320,114,89522,1,0,0:0:0:0:
275,57,89695,5,4,3:2:0:0:
218,252,89868,1,0,0:0:0:0:
23,195,90040,1,10,3:2:0:0:
80,0,90213,1,0,0:0:0:0:
141,50,90384,102,0,L|148:113,1,56,2|10,3:2|3:2,0:0:0:0:
147,105,90902,1,0,0:0:0:0:
99,169,91074,5,4,3:2:0:0:
298,127,91247,1,0,0:0:0:0:
339,326,91419,1,10,3:2:0:0:
141,368,91592,1,0,0:0:0:0:
255,308,91764,102,0,P|217:300|140:286,1,105.000004005432,2|8,3:2|2:2,0:0:0:0:
377,361,92108,1,10,3:2:0:0:
336,288,92281,1,0,0:0:0:0:
507,176,92453,6,0,P|511:101|393:31,1,210.000008010865,6|10,3:2|3:2,0:0:0:0:
302,217,92971,1,0,0:0:0:0:
256,51,93143,102,0,B|242:121|262:96|251:171,1,105.000004005432,2|0,3:2|0:0,0:0:0:0:
253,155,93402,2,0,P|199:192|196:243,1,105.000004005432,0|0,3:3|0:0,0:0:0:0:
263,329,93660,2,0,L|251:258,1,52.5000020027161,0|0,3:3|0:0,0:0:0:0:
184,323,93833,5,4,3:2:0:0:
383,365,94006,1,0,0:0:0:0:
424,166,94178,1,10,3:2:0:0:
226,124,94351,1,0,0:0:0:0:
296,82,94522,102,0,L|287:18,1,56,2|10,3:2|3:2,0:0:0:0:
288,26,95040,1,0,0:0:0:0:
371,52,95212,5,4,3:2:0:0:
173,94,95385,1,0,0:0:0:0:
214,293,95557,1,10,3:2:0:0:
413,251,95730,1,0,0:0:0:0:
447,176,95902,102,0,L|504:159,1,56,2|10,3:2|3:2,0:0:0:0:
500,159,96419,1,0,0:0:0:0:
377,134,96591,5,4,3:2:0:0:
335,332,96764,1,0,0:0:0:0:
136,291,96936,1,10,3:2:0:0:
178,92,97109,1,0,0:0:0:0:
253,221,97281,102,0,P|247:282|240:342,1,105.000004005432,2|8,3:2|2:2,0:0:0:0:
184,173,97626,1,10,3:2:0:0:
310,105,97798,1,0,0:0:0:0:
212,3,97971,5,8,2:2:0:0:
202,17,98057,1,0,0:0:0:0:
197,34,98143,1,0,0:0:0:0:
198,51,98229,1,0,0:0:0:0:
205,67,98315,1,0,0:0:0:0:
217,80,98402,1,0,0:0:0:0:
232,89,98488,2,0,L|289:72,1,52.5000020027161,8|0,2:2|0:0,0:0:0:0:
425,28,98660,101,0,0:0:0:0:
455,51,98746,1,0,0:0:0:0:
468,88,98832,1,0,0:0:0:0:
458,125,98918,1,0,0:0:0:0:
429,151,99005,53,8,2:2:0:0:
364,141,99091,1,0,0:0:0:0:
299,131,99177,1,0,0:0:0:0:
234,121,99263,1,0,0:0:0:0:
169,111,99349,5,6,3:2:0:0:
321,1,99522,1,2,2:2:0:0:
91,78,99695,1,10,2:2:0:0:
193,199,99867,1,2,2:2:0:0:
65,269,100040,102,0,P|57:188|47:128,1,112,10|0,2:2|3:3,0:0:0:0:
173,14,100384,2,0,L|169:78,1,56,10|0,2:2|0:0,0:0:0:0:
241,129,100557,1,2,2:2:0:0:
241,129,100643,1,0,0:0:0:0:
241,129,100729,6,0,P|299:99|399:126,1,168,6|0,3:2|0:0,0:0:0:0:
394,122,101074,2,0,L|386:191,1,56,8|0,2:2|0:0,0:0:0:0:
465,92,101246,1,2,2:2:0:0:
509,299,101419,1,10,2:2:0:0:
315,210,101591,101,0,3:3:0:0:
162,377,101764,1,8,2:2:0:0:
162,377,101850,1,0,0:0:0:0:
162,377,101936,2,0,L|172:313,1,56
190,239,102108,5,6,3:2:0:0:
360,345,102281,1,2,2:2:0:0:
217,161,102453,1,10,2:2:0:0:
101,281,102626,1,2,2:2:0:0:
304,275,102798,102,0,P|380:263|437:262,1,112,10|0,2:2|3:3,0:0:0:0:
205,329,103143,2,0,L|278:345,1,56,10|0,2:2|0:0,0:0:0:0:
250,214,103315,1,2,2:2:0:0:
250,214,103402,1,0,0:0:0:0:
250,214,103488,6,0,L|226:34,1,168,6|0,3:2|0:0,0:0:0:0:
227,47,103833,2,0,L|156:29,1,56,8|0,2:2|0:0,0:0:0:0:
344,108,104005,2,0,P|360:52|334:-15,1,112,2|10,3:2|2:2,0:0:0:0:
125,93,104350,101,0,3:3:0:0:
20,288,104522,2,0,L|11:219,1,56,10|0,2:2|0:0,0:0:0:0:
84,192,104695,1,0,0:0:0:0:
84,192,104781,1,0,0:0:0:0:
84,192,104867,5,6,3:2:0:0:
236,375,105040,1,2,2:2:0:0:
441,250,105212,1,10,2:2:0:0:
290,232,105384,1,2,2:2:0:0:
394,308,105557,102,0,P|389:235|389:174,1,112,10|0,2:2|3:3,0:0:0:0:
499,65,105902,2,0,L|508:134,1,56,10|0,2:2|0:0,0:0:0:0:
426,21,106074,1,2,2:2:0:0:
426,21,106160,1,0,0:0:0:0:
426,21,106246,2,0,P|347:24|311:108,1,168,6|0,3:2|0:0,0:0:0:0:
309,96,106591,6,0,L|371:116,1,56,8|0,2:2|0:0,0:0:0:0:
381,200,106764,1,2,2:2:0:0:
135,284,106936,101,10,2:2:0:0:
205,45,107108,1,0,3:3:0:0:
301,180,107281,2,0,L|233:169,1,56,8|0,2:2|0:0,0:0:0:0:
345,116,107453,1,0,0:0:0:0:
345,116,107540,1,0,0:0:0:0:
345,116,107626,5,6,3:2:0:0:
463,324,107798,1,2,2:2:0:0:
224,371,107971,1,10,2:2:0:0:
300,271,108143,1,2,2:2:0:0:
106,157,108315,102,0,P|112:223|110:276,1,112,10|0,2:2|3:3,0:0:0:0:
230,178,108660,2,0,L|285:186,1,56,10|0,2:2|0:0,0:0:0:0:
28,133,108833,1,2,2:2:0:0:
28,133,108919,1,0,0:0:0:0:
28,133,109005,2,0,P|44:64|156:51,1,168,6|0,3:2|0:0,0:0:0:0:
129,37,109350,6,0,L|210:22,1,56,8|0,2:2|0:0,0:0:0:0:
345,197,109522,2,0,P|353:121|364:57,1,112,2|10,3:2|2:2,0:0:0:0:
198,303,109867,101,0,3:3:0:0:
282,82,110040,2,0,L|209:95,1,56,10|0,2:2|0:0,0:0:0:0:
413,252,110212,1,0,0:0:0:0:
413,252,110298,1,0,0:0:0:0:
413,252,110384,102,0,P|327:221|246:244,1,167.999994873047,4|8,3:2|2:2,0:0:0:0:
489,218,110902,1,0,0:0:0:0:
501,379,111074,2,0,P|509:311|518:262,1,83.9999974365235,0|0,0:0|3:3,0:0:0:0:
319,166,111419,1,8,2:2:0:0:
340,247,111591,1,0,0:0:0:0:
383,116,111764,101,4,3:2:0:0:
163,233,111936,1,0,0:0:0:0:
361,338,112108,1,8,2:2:0:0:
308,213,112281,1,0,0:0:0:0:
206,377,112453,6,0,P|141:378|124:260,1,167.999994873047,2|8,2:2|2:2,0:0:0:0:
262,316,112971,1,0,0:0:0:0:
221,84,113143,101,4,3:2:0:0:
221,84,113315,1,0,0:0:0:0:
245,237,113488,2,0,P|260:153|267:122,1,83.9999974365235,8|0,2:2|0:0,0:0:0:0:
162,12,113833,2,0,L|-2:56,1,167.999994873047,0|8,0:0|2:2,0:0:0:0:
234,49,114350,1,0,0:0:0:0:
59,11,114522,5,4,3:2:0:0:
216,175,114695,1,0,0:0:0:0:
311,58,114867,1,8,2:2:0:0:
370,118,115040,2,0,B|450:125|406:144|499:151,1,125.999996154785,0|0,3:3|0:0,0:0:0:0:
490,150,115384,101,0,3:3:0:0:
395,5,115557,2,0,L|402:59,1,41.9999987182618,8|0,2:2|0:0,0:0:0:0:
475,66,115729,1,0,0:0:0:0:
318,201,115902,6,0,P|257:219|166:147,1,167.999994873047,4|8,3:2|2:2,0:0:0:0:
24,293,116419,1,0,0:0:0:0:
83,97,116591,2,0,P|92:142|102:195,1,83.9999974365235,0|0,0:0|3:3,0:0:0:0:
224,380,116936,1,8,2:2:0:0:
84,351,117108,1,0,0:0:0:0:
282,250,117281,102,0,P|215:247|168:351,1,167.999994873047,4|8,3:2|2:2,0:0:0:0:
360,217,117798,1,0,0:0:0:0:
193,125,117971,1,2,2:2:0:0:
348,300,118143,1,0,3:3:0:0:
504,199,118315,2,0,P|495:144|488:100,1,83.9999974365235,8|0,2:2|0:0,0:0:0:0:
347,11,118660,5,4,3:2:0:0:
399,107,118833,1,0,0:0:0:0:
500,14,119005,1,8,2:2:0:0:
323,87,119177,1,0,0:0:0:0:
310,259,119350,102,0,P|242:278|147:311,1,167.999994873047,0|8,0:0|2:2,0:0:0:0:
374,307,119867,1,0,0:0:0:0:
465,118,120040,5,0,3:3:0:0:
450,281,120212,2,0,P|441:220|441:178,1,83.9999974365235,8|0,2:2|0:0,0:0:0:0:
241,170,120557,101,0,3:3:0:0:
287,72,120729,2,0,L|294:132,1,41.9999987182618,8|0,2:2|0:0,0:0:0:0:
98,253,120902,6,0,L|108:202,1,41.9999987182618,0|0,3:3|0:0,0:0:0:0:
54,157,121074,1,8,2:2:0:0:
1,211,121246,101,8,2:2:0:0:
465,118,121419,1,0,3:3:0:0:
