osu file format v14

[General]
AudioFilename: audio.mp3
AudioLeadIn: 0
PreviewTime: 55156
Countdown: 0
SampleSet: Soft
StackLeniency: 0.7
Mode: 0
LetterboxInBreaks: 0
WidescreenStoryboard: 1

[Editor]
Bookmarks: 11104,22138,33173,35932,44207,55242,66276,71794,77311,86966,88345,98001,99380,110414,121449
DistanceSpacing: 1
BeatDivisor: 4
GridSize: 32
TimelineZoom: 1.6

[Metadata]
Title:SHE IS HYPERACTIVE
TitleUnicode:SHE IS HYPERACTIVE
Artist:DVRST
ArtistUnicode:DVRST
Creator:Peter
Version:Normal
Source:
Tags:Phonk English Electronic drum & and n' bass dnb intiaz nyantiaz instrumental
BeatmapID:4084227
BeatmapSetID:1969003

[Difficulty]
HPDrainRate:4
CircleSize:3.5
OverallDifficulty:4
ApproachRate:5
SliderMultiplier:1.2
SliderTickRate:1

[Events]
//Background and Video events
0,0,"bggg.jpg",0,0
//Break Periods
//Storyboard Layer 0 (Background)
//Storyboard Layer 1 (Fail)
//Storyboard Layer 2 (Pass)
//Storyboard Layer 3 (Foreground)
//Storyboard Layer 4 (Overlay)
//Storyboard Sound Samples

[TimingPoints]
70,344.827586206897,4,2,1,50,1,0
70,-125,4,2,1,50,0,0
11104,-111.111111111111,4,2,1,60,0,0
22138,-90.9090909090909,4,2,1,80,0,1
33173,-100,4,2,1,80,0,0
33345,-100,4,2,1,80,0,0
34552,-100,4,2,1,80,0,0
35932,-90.9090909090909,4,2,1,80,0,1
44207,-125,4,2,1,50,0,0
55242,-111.111111111111,4,2,1,60,0,0
66276,-100,4,2,1,80,0,0
71794,-125,4,2,1,70,0,0
77311,-90.9090909090909,4,2,1,80,0,1
86966,-100,4,2,1,60,0,0
88345,-90.9090909090909,4,2,1,80,0,1
98001,-125,4,2,1,50,0,0
99380,-90.9090909090909,4,2,1,80,0,1
120070,-100,4,2,1,80,0,0
121449,525.164113785558,4,2,1,80,1,0

[Colours]
Combo1 : 132,121,91
Combo2 : 237,179,69
Combo3 : 218,228,210
Combo4 : 242,212,140
Combo5 : 119,99,85
Combo6 : 177,173,144
Combo7 : 215,213,191

[HitObjects]
407,22,70,5,2,0:0:0:0:
234,105,759,2,0,L|213:211,1,96,2|2,0:0|0:0,0:0:0:0:
120,216,1449,2,0,L|10:240,2,96,2|2|2,0:0|0:0|0:0,0:0:0:0:
91,307,2483,1,0,3:0:0:0:
164,368,2828,5,0,3:0:0:0:
341,295,3518,2,0,L|451:319,2,96,2|2|2,0:0|0:0|0:0,0:0:0:0:
276,223,4552,2,0,P|294:170|307:117,1,96,2|2,0:0|0:0,0:0:0:0:
259,40,5242,1,0,3:0:0:0:
164,57,5587,5,0,3:0:0:0:
93,235,6276,2,0,P|140:235|188:231,1,96,2|2,0:0|0:0,0:0:0:0:
270,282,6966,2,0,P|261:323|251:391,2,96,2|2|2,0:0|0:0|0:0,0:0:0:0:
357,322,8001,1,0,3:0:0:0:
445,285,8345,5,0,3:0:0:0:
417,94,9035,2,0,L|525:78,2,96,2|2|2,0:0|0:0|0:0,0:0:0:0:
334,43,10070,2,0,L|234:55,1,96,2|2,0:0|0:0,0:0:0:0:
148,20,10759,1,0,3:0:0:0:
86,108,11104,6,0,L|62:231,1,107.999996704102,2|2,1:2|1:2,0:0:0:0:
44,319,11794,1,2,1:2:0:0:
135,376,12138,1,2,1:2:0:0:
225,316,12483,2,0,P|290:318|343:343,1,107.999996704102,2|2,1:2|1:2,0:0:0:0:
380,364,13001,1,2,0:0:0:0:
380,364,13173,2,0,L|365:241,1,107.999996704102,2|0,1:2|1:0,0:0:0:0:
418,161,13863,6,0,L|401:44,1,107.999996704102,2|2,1:2|1:2,0:0:0:0:
305,102,14552,1,2,1:2:0:0:
222,31,14897,1,0,1:0:0:0:
148,109,15242,1,2,1:2:0:0:
177,213,15587,2,0,L|194:281,1,53.9999983520508,2|2,1:2|0:0,0:0:0:0:
207,316,15932,1,2,1:2:0:0:
112,367,16276,1,2,1:2:0:0:
20,310,16621,6,0,L|39:241,1,53.9999983520508,2|2,1:2|0:0,0:0:0:0:
51,206,16966,1,2,1:2:0:0:
72,100,17311,1,2,1:2:0:0:
162,159,17656,1,2,1:2:0:0:
232,77,18001,1,2,1:2:0:0:
323,133,18345,2,0,L|312:193,1,53.9999983520508,2|2,1:2|0:0,0:0:0:0:
306,239,18690,1,2,1:2:0:0:
356,334,19035,2,0,L|419:321,1,53.9999983520508,2|2,1:2|0:0,0:0:0:0:
460,308,19380,5,2,1:2:0:0:
507,211,19725,1,0,1:0:0:0:
471,108,20070,1,2,1:2:0:0:
370,69,20414,1,2,1:2:0:0:
282,131,20759,2,0,P|205:112|50:84,1,215.999993408203,10|2,0:0|0:0,0:0:0:0:
94,192,21794,1,2,0:0:0:0:
45,302,22138,6,0,L|118:314,1,66.0000020141602,6|2,1:2|0:0,0:0:0:0:
166,292,22483,2,0,L|244:303,1,66.0000020141602,8|2,0:1|0:0,0:0:0:0:
286,278,22828,1,2,0:1:0:0:
376,354,23173,1,10,0:1:0:0:
461,270,23518,2,0,L|444:110,1,132.00000402832,2|10,1:2|0:1,0:0:0:0:
444,83,24035,1,2,0:0:0:0:
444,83,24207,2,0,P|397:119|309:103,1,132.00000402832,2|8,0:1|0:1,0:0:0:0:
277,91,24725,1,2,0:0:0:0:
277,91,24897,5,2,1:2:0:0:
161,120,25242,2,0,L|93:109,1,66.0000020141602,8|2,0:1|0:0,0:0:0:0:
37,97,25587,1,2,0:1:0:0:
69,211,25932,1,10,0:1:0:0:
32,323,26276,2,0,P|102:328|162:274,1,132.00000402832,2|10,1:0|0:1,0:0:0:0:
199,257,26794,1,2,1:2:0:0:
199,257,26966,2,0,L|340:292,1,132.00000402832,2|8,0:1|0:1,0:0:0:0:
388,309,27483,1,2,0:0:0:0:
388,309,27656,5,2,1:0:0:0:
450,207,28001,2,0,L|527:181,2,66.0000020141602,10|2|2,0:1|0:0|0:1,0:0:0:0:
332,190,28690,2,0,L|252:171,1,66.0000020141602,10|2,0:1|0:0,0:0:0:0:
216,205,29035,1,2,1:0:0:0:
115,142,29380,2,0,L|134:53,1,66.0000020141602,10|2,0:1|0:0,0:0:0:0:
145,20,29725,1,2,0:1:0:0:
244,85,30070,2,0,L|332:72,1,66.0000020141602,8|2,0:1|0:0,0:0:0:0:
367,65,30414,5,2,1:2:0:0:
474,14,30759,1,8,0:1:0:0:
487,132,31104,2,0,L|497:213,1,66.0000020141602,2|2,0:1|1:2,0:0:0:0:
457,244,31449,2,0,L|465:327,1,66.0000020141602,10|2,0:1|0:0,0:0:0:0:
419,350,31794,1,2,1:0:0:0:
313,300,32138,1,10,0:1:0:0:
213,365,32483,2,0,L|138:348,1,66.0000020141602,2|0,0:1|1:0,0:0:0:0:
90,339,32828,1,10,0:1:0:0:
149,248,33173,6,0,P|181:152|90:56,2,240,2|10|2,0:0|0:0|3:2,0:0:0:0:
288,341,35070,1,2,3:2:0:0:
288,341,35242,2,0,L|420:307,1,120,10|2,0:0|3:2,0:0:0:0:
346,206,35932,5,0,1:2:0:0:
454,157,36276,2,0,L|464:77,1,66.0000020141602,8|2,0:1|0:0,0:0:0:0:
418,51,36621,2,0,L|329:72,1,66.0000020141602,2|0,0:0|1:0,0:0:0:0:
296,81,36966,1,8,0:1:0:0:
183,41,37311,2,0,L|100:57,1,66.0000020141602,2|2,1:2|0:0,0:0:0:0:
64,27,37656,2,0,L|39:100,1,66.0000020141602,8|2,0:1|1:2,0:0:0:0:
21,145,38001,1,2,0:0:0:0:
124,202,38345,2,0,L|202:180,1,66.0000020141602,8|2,0:1|0:0,0:0:0:0:
244,166,38690,5,2,1:2:0:0:
334,243,39035,2,0,L|323:319,1,66.0000020141602,8|2,0:1|0:0,0:0:0:0:
314,367,39380,1,2,0:0:0:0:
214,303,39725,1,8,0:1:0:0:
110,360,40070,2,0,P|30:328|18:268,1,132.00000402832,2|8,1:2|0:1,0:0:0:0:
33,232,40587,1,2,0:0:0:0:
33,232,40759,2,0,L|22:72,1,132.00000402832,2|8,0:0|0:1,0:0:0:0:
23,44,41276,1,2,0:0:0:0:
23,44,41449,5,2,1:2:0:0:
138,72,41794,2,0,L|221:87,1,66.0000020141602,8|2,0:1|0:0,0:0:0:0:
255,56,42138,2,0,L|340:75,1,66.0000020141602,2|0,0:0|1:0,0:0:0:0:
377,82,42483,1,8,0:1:0:0:
469,7,42828,2,0,P|506:59|479:136,1,132.00000402832,2|8,1:2|0:1,0:0:0:0:
499,185,43345,1,2,1:2:0:0:
499,185,43518,2,0,P|440:231|390:196,1,132.00000402832,2|8,0:0|0:0,0:0:0:0:
343,315,44207,5,2,0:0:0:0:
173,224,44896,2,0,L|68:240,2,96,2|2|2,0:0|0:0|0:0,0:0:0:0:
235,150,45931,2,0,L|346:135,1,96,2|2,0:0|0:0,0:0:0:0:
374,324,46965,5,0,3:0:0:0:
186,284,47655,2,0,L|76:260,2,96,2|2|2,0:0|0:0|0:0,0:0:0:0:
260,222,48689,2,0,P|272:175|287:130,1,96,2|2,0:0|0:0,0:0:0:0:
391,292,49724,5,4,3:2:0:0:
417,102,50413,2,0,P|458:111|526:121,2,96,2|2|2,0:0|0:0|0:0,0:0:0:0:
331,58,51448,2,0,P|261:59|220:63,1,96,2|2,0:0|0:0,0:0:0:0:
45,90,52482,5,0,3:0:0:0:
105,272,53172,2,0,L|-3:288,2,96,2|2|2,0:0|0:0|0:0,0:0:0:0:
172,340,54207,2,0,L|272:328,1,96,2|2,0:0|0:0,0:0:0:0:
319,330,54725,1,8,3:2:0:0:
319,330,54896,1,8,0:2:0:0:
413,382,55242,1,4,1:2:0:0:
466,288,55587,6,0,L|473:221,1,53.9999983520508,2|2,0:0|0:0,0:0:0:0:
433,195,55932,2,0,L|440:129,2,53.9999983520508,10|0|2,0:0|0:0|0:0,0:0:0:0:
329,226,56621,2,0,L|256:244,1,53.9999983520508,2|0,0:0|1:0,0:0:0:0:
224,254,56966,1,0,1:0:0:0:
139,321,57311,1,10,0:0:0:0:
41,273,57656,1,2,0:0:0:0:
59,166,58001,6,0,L|-12:174,2,53.9999983520508,0|2|2,1:0|0:0|0:0,0:0:0:0:
139,99,58690,1,10,0:0:0:0:
238,142,59035,1,2,0:0:0:0:
295,50,59380,1,2,0:0:0:0:
386,107,59725,1,2,1:2:0:0:
459,28,60070,2,0,L|526:46,1,53.9999983520508,10|0,0:0|1:0,0:0:0:0:
503,95,60414,1,2,0:0:0:0:
444,185,60759,5,4,1:2:0:0:
498,278,61104,2,0,L|512:344,1,53.9999983520508,2|0,0:0|0:0,0:0:0:0:
472,370,61449,1,10,0:0:0:0:
388,302,61794,2,0,L|313:288,2,53.9999983520508,2|2|2,0:0|0:0|0:0,0:0:0:0:
304,370,62483,1,2,1:2:0:0:
198,332,62828,2,0,L|137:345,1,53.9999983520508,10|2,0:0|0:0,0:0:0:0:
92,356,63173,1,0,0:0:0:0:
22,273,63518,5,0,1:0:0:0:
64,61,64207,1,0,1:0:0:0:
278,85,64897,1,0,1:0:0:0:
359,14,65242,1,0,1:0:0:0:
434,91,65587,2,0,P|422:134|408:211,1,107.999996704102,8|8,0:0|0:0,0:0:0:0:
290,182,66276,6,0,L|223:200,1,60,2|2,1:0|0:0,0:0:0:0:
173,213,66621,1,2,1:2:0:0:
203,329,66966,1,2,1:0:0:0:
319,298,67311,1,2,1:0:0:0:
421,361,67656,2,0,P|472:346|496:271,1,120,2|2,1:0|1:0,0:0:0:0:
475,233,68173,1,2,0:0:0:0:
475,233,68345,2,0,L|488:95,1,120,2|0,1:0|1:0,0:0:0:0:
410,19,69035,5,0,1:0:0:0:
309,85,69380,1,2,1:2:0:0:
205,23,69725,2,0,L|129:35,1,60,2|2,1:0|0:0,0:0:0:0:
86,40,70070,1,2,1:0:0:0:
10,104,70414,1,2,1:0:0:0:
97,186,70759,1,2,1:0:0:0:
87,305,71104,2,0,L|-1:285,2,90,2|0|2,1:0|1:0|1:2,0:0:0:0:
128,348,71794,6,0,L|236:328,1,96,10|8,0:0|0:0,0:0:0:0:
309,371,72483,1,10,0:0:0:0:
393,325,72828,1,10,0:0:0:0:
367,232,73173,2,0,P|384:160|389:119,1,96,2|10,1:2|0:2,0:0:0:0:
326,63,73863,2,0,L|225:86,1,96,10|10,0:0|0:0,0:0:0:0:
141,52,74552,5,10,1:2:0:0:
60,103,74897,1,8,0:0:0:0:
45,197,75242,1,10,0:0:0:0:
104,272,75587,1,10,0:0:0:0:
199,263,75932,2,0,L|312:287,2,96,4|12|4,1:2|1:2|1:2,0:0:0:0:
163,173,76966,1,4,1:2:0:0:
63,108,77311,6,0,L|115:30,1,66.0000020141602,6|2,1:2|0:0,0:0:0:0:
154,29,77656,2,0,L|213:69,1,66.0000020141602,8|2,0:1|0:0,0:0:0:0:
259,97,78001,1,2,0:1:0:0:
361,36,78346,1,10,0:1:0:0:
456,106,78691,2,0,P|421:181|436:254,1,132.00000402832,2|10,1:2|0:1,0:0:0:0:
456,284,79208,1,2,0:0:0:0:
456,284,79380,2,0,P|409:248|321:264,1,132.00000402832,2|8,0:1|0:1,0:0:0:0:
289,276,79898,1,2,0:0:0:0:
289,276,80070,5,2,1:2:0:0:
178,231,80415,2,0,L|110:242,1,66.0000020141602,8|2,0:1|0:0,0:0:0:0:
54,252,80760,1,2,0:1:0:0:
1,145,81105,1,10,0:1:0:0:
60,42,81449,2,0,P|130:37|190:91,1,132.00000402832,2|10,1:0|0:1,0:0:0:0:
208,128,81967,1,2,1:2:0:0:
208,128,82139,2,0,P|268:114|349:93,1,132.00000402832,2|8,0:1|0:1,0:0:0:0:
395,77,82656,1,2,0:0:0:0:
395,77,82829,5,2,1:0:0:0:
434,189,83174,2,0,L|511:215,2,66.0000020141602,10|2|2,0:1|0:0|0:1,0:0:0:0:
323,232,83863,2,0,L|236:201,1,66.0000020141602,10|2,0:1|0:0,0:0:0:0:
204,189,84208,1,2,1:0:0:0:
95,236,84553,2,0,L|114:325,1,66.0000020141602,10|2,0:1|0:0,0:0:0:0:
122,358,84898,1,2,0:1:0:0:
239,338,85243,2,0,L|327:351,1,66.0000020141602,8|2,0:1|0:0,0:0:0:0:
363,355,85587,5,2,1:2:0:0:
481,368,85932,1,8,0:1:0:0:
442,255,86277,2,0,L|452:174,1,66.0000020141602,2|2,0:1|1:2,0:0:0:0:
500,157,86622,2,0,L|508:74,1,66.0000020141602,10|2,0:1|0:0,0:0:0:0:
476,46,86967,1,2,1:0:0:0:
372,76,87311,2,0,L|227:52,2,120,10|2|8,0:1|0:1|0:1,0:0:0:0:
392,193,88345,6,0,L|360:335,1,132.00000402832,2|8,1:2|0:1,0:0:0:0:
314,357,88863,1,2,0:0:0:0:
314,357,89035,2,0,P|232:341|156:341,1,132.00000402832,2|8,1:2|0:1,0:0:0:0:
64,347,89725,1,2,1:2:0:0:
18,237,90070,1,8,0:1:0:0:
107,159,90414,2,0,L|131:84,1,66.0000020141602,2|2,1:2|0:0,0:0:0:0:
153,42,90759,1,8,0:1:0:0:
260,91,91104,6,0,P|332:95|382:43,1,132.00000402832,2|8,1:2|0:1,0:0:0:0:
425,26,91621,1,2,0:2:0:0:
425,26,91794,1,2,1:2:0:0:
506,111,92138,1,8,1:0:0:0:
427,200,92483,2,0,L|442:275,1,66.0000020141602,2|2,1:2|0:0,0:0:0:0:
448,323,92828,2,0,L|361:304,1,66.0000020141602,8|2,0:1|0:0,0:0:0:0:
326,292,93173,2,0,L|365:396,2,99.0000030212403,2|0|2,1:2|1:0|1:2,0:0:0:0:
306,235,93863,5,2,1:2:0:0:
340,121,94207,2,0,L|317:37,1,66.0000020141602,8|2,0:1|0:0,0:0:0:0:
272,25,94552,2,0,L|206:58,1,66.0000020141602,2|2,1:2|0:0,0:0:0:0:
162,86,94897,1,8,0:1:0:0:
48,49,95242,1,2,1:2:0:0:
9,161,95587,1,8,0:1:0:0:
117,208,95932,2,0,L|69:356,1,132.00000402832,2|8,1:2|0:1,0:0:0:0:
193,352,96621,6,0,P|276:323|335:336,1,132.00000402832,2|8,1:2|0:1,0:0:0:0:
376,356,97138,1,2,0:0:0:0:
376,356,97311,1,2,1:2:0:0:
475,290,97656,1,8,0:1:0:0:
406,205,98001,2,0,P|433:90|466:16,1,192,2|2,0:0|0:0,0:0:0:0:
233,86,99380,6,0,L|293:113,2,66.0000020141602,0|2|8,1:2|0:0|0:1,0:0:0:0:
179,73,99897,1,2,0:0:0:0:
179,73,100070,2,0,L|204:223,1,132.00000402832,2|8,0:0|0:1,0:0:0:0:
212,261,100587,1,2,0:0:0:0:
212,261,100759,1,2,1:2:0:0:
314,323,101104,2,0,L|397:344,1,66.0000020141602,8|2,0:1|0:2,0:0:0:0:
436,351,101449,1,2,0:0:0:0:
508,256,101794,1,8,0:1:0:0:
446,154,102138,6,0,L|472:69,2,66.0000020141602,0|2|8,1:0|0:0|0:1,0:0:0:0:
399,189,102656,1,2,0:0:0:0:
399,189,102828,1,2,0:0:0:0:
321,98,103173,2,0,L|243:111,1,66.0000020141602,8|2,0:1|0:0,0:0:0:0:
197,119,103518,1,2,1:2:0:0:
273,209,103863,1,8,0:1:0:0:
231,320,104207,1,2,0:0:0:0:
130,256,104552,2,0,L|65:264,1,66.0000020141602,8|2,0:1|0:0,0:0:0:0:
8,284,104897,6,0,P|51:218|36:148,1,132.00000402832,2|8,1:2|0:1,0:0:0:0:
29,110,105414,1,2,0:0:0:0:
29,110,105587,1,2,0:0:0:0:
125,40,105932,1,8,0:1:0:0:
233,86,106276,2,0,P|318:103|377:88,1,132.00000402832,2|8,1:2|0:1,0:0:0:0:
419,73,106794,1,2,0:0:0:0:
419,73,106966,2,0,P|379:132|427:197,1,132.00000402832,2|8,0:0|0:1,0:0:0:0:
489,262,107656,6,0,L|469:334,1,66.0000020141602,2|2,1:2|0:0,0:0:0:0:
416,349,108001,2,0,L|332:328,1,66.0000020141602,8|2,0:1|0:0,0:0:0:0:
295,313,108345,1,2,0:0:0:0:
183,354,108690,1,8,0:1:0:0:
91,278,109035,2,0,L|42:129,1,132.00000402832,2|8,1:2|0:1,0:0:0:0:
36,99,109552,1,2,1:2:0:0:
36,99,109725,1,2,0:0:0:0:
121,15,110070,1,8,0:1:0:0:
199,103,110414,6,0,L|247:239,1,132.00000402832,2|8,1:2|0:1,0:0:0:0:
269,281,110932,1,2,0:0:0:0:
269,281,111104,1,2,0:0:0:0:
379,236,111449,2,0,L|453:254,1,66.0000020141602,8|2,0:1|0:0,0:0:0:0:
499,269,111794,1,2,1:2:0:0:
467,154,112138,2,0,L|447:61,1,66.0000020141602,8|2,0:1|0:0,0:0:0:0:
442,30,112483,1,2,0:0:0:0:
339,90,112828,2,0,P|307:87|269:81,1,66.0000020141602,8|2,0:1|0:0,0:0:0:0:
223,49,113173,6,0,P|169:55|139:127,1,132.00000402832,2|8,1:2|0:1,0:0:0:0:
162,179,113690,1,2,0:0:0:0:
162,179,113863,2,0,L|130:332,1,132.00000402832,2|8,0:0|0:1,0:0:0:0:
244,355,114552,2,0,L|323:366,1,66.0000020141602,2|2,1:2|0:0,0:0:0:0:
359,332,114897,2,0,L|441:309,1,66.0000020141602,8|2,0:1|1:2,0:0:0:0:
478,293,115242,1,2,0:0:0:0:
413,192,115587,2,0,L|398:118,1,66.0000020141602,8|2,0:1|0:0,0:0:0:0:
388,68,115932,5,4,1:2:0:0:
277,110,116276,2,0,L|297:204,1,66.0000020141602,8|2,0:1|0:0,0:0:0:0:
256,223,116621,1,2,0:0:0:0:
173,305,116966,2,0,L|109:284,1,66.0000020141602,8|2,0:1|0:0,0:0:0:0:
78,233,117311,2,0,P|30:214|29:122,1,132.00000402832,2|8,1:2|0:1,0:0:0:0:
31,86,117828,1,2,0:0:0:0:
31,86,118001,2,0,L|175:56,1,132.00000402832,2|8,0:0|0:1,0:0:0:0:
264,116,118690,6,0,L|339:133,1,66.0000020141602,0|2,1:0|0:0,0:0:0:0:
385,145,119035,1,8,0:1:0:0:
467,230,119380,1,2,0:0:0:0:
396,325,119725,1,8,0:1:0:0:
293,291,120070,2,0,P|198:302|92:327,1,180,0|2,1:0|1:2,0:0:0:0:
38,247,120932,2,0,P|39:160|8:67,1,180,0|0,1:0|1:0,0:0:0:0:
