osu file format v14

[General]
AudioFilename: audio.mp3
AudioLeadIn: 0
PreviewTime: 11081
Countdown: 0
SampleSet: Normal
StackLeniency: 0.7
Mode: 1
LetterboxInBreaks: 0
WidescreenStoryboard: 1

[Editor]
Bookmarks: 11180,16697,22214,27732,33249,38766,44283,49801,55318,66352,77387,88421,93939,99456,104973,110490,116008,121525,132214
DistanceSpacing: 2.1
BeatDivisor: 4
GridSize: 32
TimelineZoom: 2

[Metadata]
Title:I Hate You I Love You
TitleUnicode:I Hate You I Love You
Artist:DVRST
ArtistUnicode:DVRST
Creator:SWAKE
Version:Ryxliee's Oni
Source:
Tags:dnb drum and & 'n' bass phonk instrumental electronic tachibana_ ryxliee english
BeatmapID:3563148
BeatmapSetID:1732773

[Difficulty]
HPDrainRate:5
CircleSize:2
OverallDifficulty:5.5
ApproachRate:9
SliderMultiplier:1.4
SliderTickRate:1

[Events]
//Background and Video events
0,0,"87187018_p0.jpg",0,24
//Break Periods
//Storyboard Layer 0 (Background)
//Storyboard Layer 1 (Fail)
//Storyboard Layer 2 (Pass)
//Storyboard Layer 3 (Foreground)
//Storyboard Layer 4 (Overlay)
//Storyboard Sound Samples

[TimingPoints]
133,344.827586206897,4,1,0,45,1,0
133,-100,4,1,0,45,0,0
10644,-100,4,1,0,50,0,0
10816,-100,4,1,0,55,0,0
10989,-100,4,1,0,60,0,0
11161,-100,4,1,0,65,0,0
20988,-100,4,1,0,65,0,0
21160,-100,4,1,0,65,0,0
21247,-100,4,1,0,65,0,0
21333,-100,4,1,0,65,0,0
21419,-100,4,1,0,65,0,0
21505,-100,4,1,0,65,0,0
21678,-100,4,1,0,65,0,0
21850,-100,4,1,0,65,0,0
22023,-100,4,1,0,65,0,0
22195,-100,4,1,0,65,0,0
23575,-100,4,1,0,65,0,0
23747,-100,4,1,0,65,0,0
23920,-100,4,1,0,65,0,0
24092,-100,4,1,0,65,0,0
24264,-100,4,1,0,65,0,0
24437,-100,4,1,0,65,0,0
24609,-100,4,1,0,65,0,0
24782,-100,4,1,0,65,0,0
24954,-100,4,1,0,65,0,0
32195,-100,4,1,0,65,0,0
32282,-100,4,1,0,65,0,0
32368,-100,4,1,0,65,0,0
32540,-100,4,1,0,65,0,0
32885,-100,4,1,0,65,0,0
33233,-100,4,1,0,65,0,0
54264,-100,4,1,0,60,0,0
54609,-100,4,1,0,55,0,0
54954,-100,4,1,0,50,0,0
55299,-100,4,1,0,45,0,0
60816,-100,4,1,0,45,0,0
61161,-100,4,1,0,46,0,0
61333,-100,4,1,0,46,0,0
61420,-100,4,1,0,47,0,0
61506,-100,4,1,0,47,0,0
61678,-100,4,1,0,48,0,0
61851,-100,4,1,0,49,0,0
62023,-100,4,1,0,49,0,0
62195,-100,4,1,0,50,0,0
62540,-100,4,1,0,50,0,0
62713,-100,4,1,0,51,0,0
62799,-100,4,1,0,52,0,0
62885,-100,4,1,0,52,0,0
63058,-100,4,1,0,53,0,0
63230,-100,4,1,0,53,0,0
63402,-100,4,1,0,54,0,0
63575,-100,4,1,0,55,0,0
63661,-100,4,1,0,55,0,0
63747,-100,4,1,0,56,0,0
63920,-100,4,1,0,57,0,0
64006,-100,4,1,0,57,0,0
64092,-100,4,1,0,58,0,0
64264,-100,4,1,0,58,0,0
64437,-100,4,1,0,59,0,0
64609,-100,4,1,0,60,0,0
64695,-100,4,1,0,60,0,0
64782,-100,4,1,0,61,0,0
64954,-100,4,1,0,61,0,0
65127,-100,4,1,0,62,0,0
65299,-100,4,1,0,63,0,0
65471,-100,4,1,0,63,0,0
65644,-100,4,1,0,64,0,0
65989,-100,4,1,0,64,0,0
66333,-100,4,1,0,45,0,0
77368,-100,4,1,0,65,0,0
77540,-100,4,1,0,65,0,0
77713,-100,4,1,0,65,0,0
77885,-100,4,1,0,65,0,0
78061,-100,4,1,0,65,0,0
78233,-100,4,1,0,65,0,0
78406,-100,4,1,0,65,0,0
78578,-100,4,1,0,65,0,0
78750,-100,4,1,0,65,0,0
78922,-100,4,1,0,65,0,0
79095,-100,4,1,0,65,0,0
79267,-100,4,1,0,65,0,0
79440,-100,4,1,0,65,0,0
79612,-100,4,1,0,65,0,0
79785,-100,4,1,0,65,0,0
79957,-100,4,1,0,65,0,0
80130,-100,4,1,0,65,0,0
80302,-100,4,1,0,65,0,0
80475,-100,4,1,0,65,0,0
80647,-100,4,1,0,65,0,0
80819,-100,4,1,0,65,0,0
80991,-100,4,1,0,65,0,0
81164,-100,4,1,0,65,0,0
81336,-100,4,1,0,65,0,0
81509,-100,4,1,0,65,0,0
81681,-100,4,1,0,65,0,0
81854,-100,4,1,0,65,0,0
82026,-100,4,1,0,65,0,0
82198,-100,4,1,0,65,0,0
82370,-100,4,1,0,65,0,0
82543,-100,4,1,0,65,0,0
82715,-100,4,1,0,65,0,0
82885,-100,4,1,0,65,0,0
98230,-100,4,1,0,65,0,0
98402,-100,4,1,0,65,0,0
98489,-100,4,1,0,65,0,0
98575,-100,4,1,0,65,0,0
98661,-100,4,1,0,65,0,0
98747,-100,4,1,0,65,0,0
98920,-100,4,1,0,65,0,0
99092,-100,4,1,0,65,0,0
99265,-100,4,1,0,65,0,0
99437,-100,4,1,0,65,0,0
102195,-100,4,1,0,65,0,0
120127,-100,4,1,0,65,0,0
120299,-100,4,1,0,63,0,0
120385,-100,4,1,0,61,0,0
120471,-100,4,1,0,59,0,0
120558,-100,4,1,0,57,0,0
120644,-100,4,1,0,55,0,0
120816,-100,4,1,0,53,0,0
120989,-100,4,1,0,51,0,0
121161,-100,4,1,0,49,0,0
121333,-100,4,1,0,47,0,0
121506,-100,4,1,0,45,0,0
127023,-100,4,1,0,45,0,0
127195,-100,4,1,0,45,0,0
127282,-100,4,1,0,44,0,0
127368,-100,4,1,0,44,0,0
127540,-100,4,1,0,43,0,0
127627,-100,4,1,0,43,0,0
127713,-100,4,1,0,42,0,0
127799,-100,4,1,0,42,0,0
127885,-100,4,1,0,41,0,0
128058,-100,4,1,0,41,0,0
128230,-100,4,1,0,40,0,0
128402,-100,4,1,0,40,0,0
128575,-100,4,1,0,39,0,0
128661,-100,4,1,0,39,0,0
128747,-100,4,1,0,38,0,0
128920,-100,4,1,0,38,0,0
129092,-100,4,1,0,38,0,0
129178,-100,4,1,0,37,0,0
129264,-100,4,1,0,37,0,0
129437,-100,4,1,0,36,0,0
129782,-100,4,1,0,36,0,0
129954,-100,4,1,0,35,0,0
130040,-100,4,1,0,35,0,0
130127,-100,4,1,0,34,0,0
130299,-100,4,1,0,34,0,0
130471,-100,4,1,0,33,0,0
130558,-100,4,1,0,33,0,0
130644,-100,4,1,0,32,0,0
130816,-100,4,1,0,32,0,0
131161,-100,4,1,0,31,0,0
131506,-100,4,1,0,31,0,0
131851,-100,4,1,0,30,0,0
132195,-100,4,1,0,30,0,0

[HitObjects]
256,192,133,5,0,0:0:0:0:
256,192,477,1,0,0:0:0:0:
256,192,650,1,8,0:0:0:0:
256,192,1512,1,0,0:0:0:0:
256,192,2029,1,0,0:0:0:0:
256,192,2546,1,8,0:0:0:0:
256,192,2891,1,0,0:0:0:0:
256,192,3236,1,0,0:0:0:0:
256,192,3408,1,8,0:0:0:0:
256,192,4270,1,0,0:0:0:0:
256,192,4788,1,0,0:0:0:0:
256,192,4960,1,8,0:0:0:0:
256,192,5133,1,0,0:0:0:0:
256,192,5305,1,8,0:0:0:0:
256,192,5477,1,8,0:0:0:0:
256,192,5650,1,0,0:0:0:0:
256,192,5995,1,0,0:0:0:0:
256,192,6167,1,8,0:0:0:0:
256,192,7029,1,0,0:0:0:0:
256,192,7546,1,0,0:0:0:0:
256,192,8064,1,8,0:0:0:0:
256,192,8408,1,0,0:0:0:0:
256,192,8753,1,0,0:0:0:0:
256,192,8926,1,8,0:0:0:0:
256,192,9443,1,0,0:0:0:0:
256,192,10133,1,0,0:0:0:0:
256,192,10477,1,0,0:0:0:0:
256,192,10650,1,8,0:0:0:0:
256,192,10822,1,0,0:0:0:0:
256,192,10995,1,8,0:0:0:0:
256,192,11167,1,0,0:0:0:0:
256,192,11339,1,0,0:0:0:0:
256,192,11426,1,0,0:0:0:0:
256,192,11512,1,8,0:0:0:0:
256,192,11684,1,0,0:0:0:0:
256,192,11857,1,8,0:0:0:0:
256,192,11943,1,8,0:0:0:0:
256,192,12029,1,0,0:0:0:0:
256,192,12201,1,8,0:0:0:0:
256,192,12374,1,8,0:0:0:0:
256,192,12546,1,0,0:0:0:0:
256,192,12633,1,8,0:0:0:0:
256,192,12719,1,0,0:0:0:0:
256,192,12891,1,8,0:0:0:0:
256,192,13064,1,0,0:0:0:0:
256,192,13236,1,8,0:0:0:0:
256,192,13322,1,8,0:0:0:0:
256,192,13408,1,0,0:0:0:0:
256,192,13581,1,8,0:0:0:0:
256,192,13926,1,0,0:0:0:0:
256,192,14098,1,0,0:0:0:0:
256,192,14270,1,8,0:0:0:0:
256,192,14443,1,8,0:0:0:0:
256,192,14615,1,0,0:0:0:0:
256,192,14701,1,8,0:0:0:0:
256,192,14788,1,0,0:0:0:0:
256,192,14960,1,8,0:0:0:0:
256,192,15133,1,8,0:0:0:0:
256,192,15305,1,0,0:0:0:0:
256,192,15650,1,8,0:0:0:0:
256,192,15822,1,0,0:0:0:0:
256,192,15995,1,8,0:0:0:0:
256,192,16081,1,8,0:0:0:0:
256,192,16167,1,0,0:0:0:0:
256,192,16253,1,0,0:0:0:0:
256,192,16339,1,8,0:0:0:0:
256,192,16512,1,8,0:0:0:0:
256,192,16684,1,0,0:0:0:0:
256,192,16857,1,8,0:0:0:0:
256,192,16943,1,0,0:0:0:0:
256,192,17029,1,8,0:0:0:0:
256,192,17201,1,8,0:0:0:0:
256,192,17374,1,0,0:0:0:0:
256,192,17460,1,8,0:0:0:0:
256,192,17546,1,0,0:0:0:0:
256,192,17719,1,8,0:0:0:0:
256,192,17891,1,0,0:0:0:0:
256,192,18064,1,8,0:0:0:0:
256,192,18150,1,8,0:0:0:0:
256,192,18236,1,0,0:0:0:0:
256,192,18408,1,8,0:0:0:0:
256,192,18581,1,0,0:0:0:0:
256,192,18753,1,0,0:0:0:0:
256,192,18839,1,8,0:0:0:0:
256,192,18926,1,0,0:0:0:0:
256,192,19098,1,8,0:0:0:0:
256,192,19443,1,0,0:0:0:0:
256,192,19615,1,0,0:0:0:0:
256,192,19788,1,8,0:0:0:0:
256,192,19960,1,8,0:0:0:0:
256,192,20133,1,0,0:0:0:0:
256,192,20219,1,8,0:0:0:0:
256,192,20305,1,0,0:0:0:0:
256,192,20477,1,8,0:0:0:0:
256,192,20650,1,8,0:0:0:0:
256,192,20822,1,0,0:0:0:0:
256,192,21167,1,8,0:0:0:0:
256,192,21339,1,0,0:0:0:0:
256,192,21512,1,8,0:0:0:0:
256,192,21598,1,8,0:0:0:0:
256,192,21684,1,0,0:0:0:0:
256,192,21770,1,0,0:0:0:0:
256,192,21857,1,8,0:0:0:0:
256,192,22029,1,8,0:0:0:0:
256,192,22201,1,0,0:0:0:0:
256,192,23581,1,12,0:0:0:0:
256,192,23926,1,12,0:0:0:0:
256,192,24270,1,12,0:0:0:0:
256,192,24615,1,12,0:0:0:0:
256,192,24960,1,0,0:0:0:0:
256,192,25133,1,0,0:0:0:0:
256,192,25305,1,8,0:0:0:0:
256,192,25477,1,8,0:0:0:0:
256,192,25650,1,0,0:0:0:0:
256,192,25736,1,8,0:0:0:0:
256,192,25822,1,0,0:0:0:0:
256,192,25995,1,8,0:0:0:0:
256,192,26167,1,8,0:0:0:0:
256,192,26339,1,0,0:0:0:0:
256,192,26684,1,8,0:0:0:0:
256,192,26857,1,0,0:0:0:0:
256,192,27029,1,8,0:0:0:0:
256,192,27115,1,8,0:0:0:0:
256,192,27201,1,0,0:0:0:0:
256,192,27288,1,0,0:0:0:0:
256,192,27374,1,8,0:0:0:0:
256,192,27546,1,8,0:0:0:0:
256,192,27719,1,0,0:0:0:0:
256,192,27891,1,0,0:0:0:0:
256,192,27977,1,0,0:0:0:0:
256,192,28064,1,8,0:0:0:0:
256,192,28236,1,0,0:0:0:0:
256,192,28408,1,8,0:0:0:0:
256,192,28495,1,8,0:0:0:0:
256,192,28581,1,0,0:0:0:0:
256,192,28753,1,8,0:0:0:0:
256,192,28926,1,8,0:0:0:0:
256,192,29098,1,0,0:0:0:0:
256,192,29184,1,8,0:0:0:0:
256,192,29270,1,0,0:0:0:0:
256,192,29443,1,8,0:0:0:0:
256,192,29615,1,0,0:0:0:0:
256,192,29788,1,8,0:0:0:0:
256,192,29874,1,8,0:0:0:0:
256,192,29960,1,0,0:0:0:0:
256,192,30133,1,8,0:0:0:0:
256,192,30477,1,0,0:0:0:0:
256,192,30650,1,0,0:0:0:0:
256,192,30822,1,8,0:0:0:0:
256,192,30995,1,8,0:0:0:0:
256,192,31167,1,0,0:0:0:0:
256,192,31253,1,8,0:0:0:0:
256,192,31339,1,0,0:0:0:0:
256,192,31512,1,8,0:0:0:0:
256,192,31684,1,0,0:0:0:0:
256,192,31857,1,0,0:0:0:0:
256,192,32201,1,8,0:0:0:0:
256,192,32374,1,8,0:0:0:0:
256,192,32546,1,0,0:0:0:0:
256,192,32891,1,8,0:0:0:0:
256,192,33236,1,0,0:0:0:0:
256,192,33408,1,8,0:0:0:0:
256,192,33581,1,8,0:0:0:0:
256,192,33667,1,0,0:0:0:0:
256,192,33753,1,8,0:0:0:0:
256,192,33926,1,8,0:0:0:0:
256,192,34098,1,0,0:0:0:0:
256,192,34270,1,8,0:0:0:0:
256,192,34357,1,0,0:0:0:0:
256,192,34443,1,8,0:0:0:0:
256,192,34529,1,0,0:0:0:0:
256,192,34615,1,8,0:0:0:0:
256,192,34960,1,8,0:0:0:0:
256,192,35133,1,0,0:0:0:0:
256,192,35305,1,0,0:0:0:0:
256,192,35391,1,8,0:0:0:0:
256,192,35477,1,0,0:0:0:0:
256,192,35650,1,8,0:0:0:0:
256,192,35822,1,0,0:0:0:0:
256,192,35995,1,8,0:0:0:0:
256,192,36110,1,0,0:0:0:0:
256,192,36224,1,0,0:0:0:0:
256,192,36339,1,8,0:0:0:0:
256,192,36512,1,0,0:0:0:0:
256,192,36684,1,8,0:0:0:0:
256,192,36770,1,8,0:0:0:0:
256,192,36857,1,0,0:0:0:0:
256,192,37029,1,8,0:0:0:0:
256,192,37201,1,8,0:0:0:0:
256,192,37374,1,0,0:0:0:0:
256,192,37719,1,8,0:0:0:0:
256,192,37891,1,0,0:0:0:0:
256,192,38064,1,8,0:0:0:0:
256,192,38150,1,8,0:0:0:0:
256,192,38236,1,0,0:0:0:0:
256,192,38408,1,8,0:0:0:0:
256,192,38581,1,8,0:0:0:0:
256,192,38753,1,0,0:0:0:0:
256,192,38926,1,0,0:0:0:0:
256,192,39012,1,0,0:0:0:0:
256,192,39098,1,8,0:0:0:0:
256,192,39270,1,0,0:0:0:0:
256,192,39443,1,8,0:0:0:0:
256,192,39529,1,8,0:0:0:0:
256,192,39615,1,0,0:0:0:0:
256,192,39788,1,8,0:0:0:0:
256,192,39960,1,0,0:0:0:0:
256,192,40133,1,8,0:0:0:0:
256,192,40305,1,0,0:0:0:0:
256,192,40477,1,8,0:0:0:0:
256,192,40564,1,0,0:0:0:0:
256,192,40650,1,8,0:0:0:0:
256,192,40822,1,0,0:0:0:0:
256,192,40908,1,8,0:0:0:0:
256,192,40995,1,0,0:0:0:0:
256,192,41081,1,0,0:0:0:0:
256,192,41167,1,8,0:0:0:0:
256,192,41512,1,0,0:0:0:0:
256,192,41684,1,0,0:0:0:0:
256,192,41857,1,8,0:0:0:0:
256,192,42029,1,8,0:0:0:0:
256,192,42201,1,0,0:0:0:0:
256,192,42288,1,8,0:0:0:0:
256,192,42374,1,0,0:0:0:0:
256,192,42546,1,8,0:0:0:0:
256,192,42719,1,8,0:0:0:0:
256,192,42891,1,0,0:0:0:0:
256,192,42977,1,8,0:0:0:0:
256,192,43064,1,0,0:0:0:0:
256,192,43150,1,0,0:0:0:0:
256,192,43236,1,8,0:0:0:0:
256,192,43408,1,0,0:0:0:0:
256,192,43581,1,8,0:0:0:0:
256,192,43753,1,0,0:0:0:0:
256,192,43839,1,0,0:0:0:0:
256,192,43926,1,8,0:0:0:0:
256,192,44098,1,8,0:0:0:0:
256,192,44270,1,0,0:0:0:0:
256,192,44615,1,8,0:0:0:0:
256,192,44788,1,0,0:0:0:0:
256,192,44960,1,8,0:0:0:0:
256,192,45046,1,8,0:0:0:0:
256,192,45133,1,0,0:0:0:0:
256,192,45305,1,8,0:0:0:0:
256,192,45391,1,0,0:0:0:0:
256,192,45477,1,8,0:0:0:0:
256,192,45650,1,0,0:0:0:0:
256,192,45995,1,8,0:0:0:0:
256,192,46167,1,0,0:0:0:0:
256,192,46339,1,8,0:0:0:0:
256,192,46426,1,8,0:0:0:0:
256,192,46512,1,0,0:0:0:0:
256,192,46684,1,8,0:0:0:0:
256,192,46770,1,0,0:0:0:0:
256,192,46857,1,8,0:0:0:0:
256,192,47029,1,0,0:0:0:0:
256,192,47201,1,0,0:0:0:0:
256,192,47374,1,8,0:0:0:0:
256,192,47546,1,0,0:0:0:0:
256,192,47719,1,0,0:0:0:0:
256,192,47805,1,8,0:0:0:0:
256,192,47891,1,0,0:0:0:0:
256,192,48064,1,8,0:0:0:0:
256,192,48236,1,8,0:0:0:0:
256,192,48408,1,0,0:0:0:0:
256,192,48581,1,0,0:0:0:0:
256,192,48753,1,8,0:0:0:0:
256,192,48926,1,0,0:0:0:0:
256,192,49098,1,8,0:0:0:0:
256,192,49184,1,0,0:0:0:0:
256,192,49270,1,8,0:0:0:0:
256,192,49357,1,0,0:0:0:0:
256,192,49443,1,8,0:0:0:0:
256,192,49615,1,8,0:0:0:0:
256,192,49788,1,0,0:0:0:0:
256,192,49874,1,0,0:0:0:0:
256,192,49960,1,8,0:0:0:0:
256,192,50133,1,8,0:0:0:0:
256,192,50305,1,0,0:0:0:0:
256,192,50477,1,8,0:0:0:0:
256,192,50564,1,8,0:0:0:0:
256,192,50650,1,0,0:0:0:0:
256,192,50822,1,8,0:0:0:0:
256,192,50995,1,0,0:0:0:0:
256,192,51167,1,8,0:0:0:0:
256,192,51253,1,8,0:0:0:0:
256,192,51339,1,0,0:0:0:0:
256,192,51426,1,0,0:0:0:0:
256,192,51512,1,8,0:0:0:0:
256,192,51684,1,0,0:0:0:0:
256,192,51857,1,0,0:0:0:0:
256,192,51943,1,8,0:0:0:0:
256,192,52029,1,0,0:0:0:0:
256,192,52201,1,8,0:0:0:0:
256,192,52546,1,0,0:0:0:0:
256,192,52719,1,0,0:0:0:0:
256,192,52891,1,8,0:0:0:0:
256,192,53064,1,0,0:0:0:0:
256,192,53236,1,8,0:0:0:0:
256,192,53322,1,0,0:0:0:0:
256,192,53408,1,0,0:0:0:0:
256,192,53581,1,8,0:0:0:0:
256,192,53753,1,8,0:0:0:0:
256,192,53926,1,0,0:0:0:0:
256,192,54270,1,8,0:0:0:0:
256,192,54615,1,0,0:0:0:0:
256,192,54960,1,8,0:0:0:0:
256,192,55305,1,0,0:0:0:0:
256,192,55650,1,0,0:0:0:0:
256,192,55822,1,0,0:0:0:0:
256,192,55995,1,8,0:0:0:0:
256,192,56167,1,0,0:0:0:0:
256,192,56339,1,8,0:0:0:0:
256,192,56684,1,0,0:0:0:0:
256,192,57029,1,8,0:0:0:0:
256,192,57201,1,8,0:0:0:0:
256,192,57374,1,0,0:0:0:0:
256,192,57546,1,0,0:0:0:0:
256,192,57719,1,8,0:0:0:0:
256,192,58064,1,0,0:0:0:0:
256,192,58236,1,0,0:0:0:0:
256,192,58408,1,8,0:0:0:0:
256,192,58581,1,8,0:0:0:0:
256,192,58753,1,0,0:0:0:0:
256,192,58926,1,0,0:0:0:0:
256,192,59098,1,8,0:0:0:0:
256,192,59184,1,8,0:0:0:0:
256,192,59270,1,8,0:0:0:0:
256,192,59443,1,0,0:0:0:0:
256,192,59788,1,0,0:0:0:0:
256,192,59960,1,8,0:0:0:0:
256,192,60133,1,0,0:0:0:0:
256,192,60477,1,8,0:0:0:0:
256,192,60822,1,0,0:0:0:0:
256,192,61167,1,0,0:0:0:0:
256,192,61339,1,0,0:0:0:0:
256,192,61512,1,8,0:0:0:0:
256,192,61684,1,0,0:0:0:0:
256,192,61857,1,8,0:0:0:0:
256,192,62201,1,0,0:0:0:0:
256,192,62546,1,8,0:0:0:0:
256,192,62719,1,8,0:0:0:0:
256,192,62891,1,0,0:0:0:0:
256,192,63064,1,0,0:0:0:0:
256,192,63236,1,8,0:0:0:0:
256,192,63581,1,0,0:0:0:0:
256,192,63753,1,0,0:0:0:0:
256,192,63926,1,8,0:0:0:0:
256,192,64012,1,8,0:0:0:0:
256,192,64098,1,0,0:0:0:0:
256,192,64270,1,8,0:0:0:0:
256,192,64443,1,0,0:0:0:0:
256,192,64615,1,0,0:0:0:0:
256,192,64701,1,8,0:0:0:0:
256,192,64788,1,0,0:0:0:0:
256,192,64960,1,8,0:0:0:0:
256,192,65133,1,0,0:0:0:0:
256,192,65305,1,8,0:0:0:0:
256,192,65477,1,8,0:0:0:0:
256,192,65650,1,0,0:0:0:0:
256,192,65995,1,8,0:0:0:0:
256,192,66339,1,0,0:0:0:0:
256,192,66857,1,8,0:0:0:0:
256,192,67719,1,8,0:0:0:0:
256,192,68236,1,0,0:0:0:0:
256,192,68753,1,8,0:0:0:0:
256,192,69098,1,0,0:0:0:0:
256,192,69615,1,8,0:0:0:0:
256,192,70477,1,8,0:0:0:0:
256,192,70995,1,0,0:0:0:0:
256,192,71167,1,8,0:0:0:0:
256,192,71339,1,8,0:0:0:0:
256,192,71512,1,0,0:0:0:0:
256,192,71684,1,8,0:0:0:0:
256,192,71857,1,0,0:0:0:0:
256,192,72374,1,8,0:0:0:0:
256,192,73236,1,8,0:0:0:0:
256,192,73753,1,0,0:0:0:0:
256,192,74270,1,8,0:0:0:0:
256,192,74615,1,0,0:0:0:0:
256,192,74788,1,0,0:0:0:0:
256,192,74960,1,0,0:0:0:0:
256,192,75046,1,8,0:0:0:0:
256,192,75133,1,0,0:0:0:0:
256,192,75305,1,8,0:0:0:0:
256,192,75650,1,8,0:0:0:0:
256,192,75822,1,8,0:0:0:0:
256,192,75908,1,8,0:0:0:0:
256,192,75995,1,0,0:0:0:0:
256,192,77374,1,12,0:0:0:0:
256,192,77719,1,12,0:0:0:0:
256,192,78064,1,4,0:0:0:0:
256,192,78408,1,4,0:0:0:0:
256,192,78753,1,12,0:0:0:0:
256,192,79098,1,12,0:0:0:0:
256,192,79443,1,4,0:0:0:0:
256,192,79788,1,4,0:0:0:0:
256,192,79960,1,8,0:0:0:0:
256,192,80133,1,4,0:0:0:0:
256,192,80477,1,12,0:0:0:0:
256,192,80650,1,0,0:0:0:0:
256,192,80822,1,12,0:0:0:0:
256,192,81167,1,4,0:0:0:0:
256,192,81339,1,8,0:0:0:0:
256,192,81512,1,4,0:0:0:0:
256,192,81857,1,12,0:0:0:0:
256,192,82029,1,0,0:0:0:0:
256,192,82201,1,12,0:0:0:0:
256,192,82546,1,0,0:0:0:0:
256,192,82719,1,8,0:0:0:0:
256,192,82891,1,0,0:0:0:0:
256,192,83064,1,0,0:0:0:0:
256,192,83150,1,0,0:0:0:0:
256,192,83236,1,8,0:0:0:0:
256,192,83408,1,0,0:0:0:0:
256,192,83581,1,8,0:0:0:0:
256,192,83667,1,8,0:0:0:0:
256,192,83753,1,0,0:0:0:0:
256,192,83926,1,8,0:0:0:0:
256,192,84098,1,8,0:0:0:0:
256,192,84270,1,0,0:0:0:0:
256,192,84357,1,8,0:0:0:0:
256,192,84443,1,0,0:0:0:0:
256,192,84615,1,8,0:0:0:0:
256,192,84788,1,0,0:0:0:0:
256,192,84960,1,8,0:0:0:0:
256,192,85046,1,8,0:0:0:0:
256,192,85133,1,0,0:0:0:0:
256,192,85305,1,8,0:0:0:0:
256,192,85650,1,0,0:0:0:0:
256,192,85822,1,0,0:0:0:0:
256,192,85995,1,8,0:0:0:0:
256,192,86167,1,8,0:0:0:0:
256,192,86339,1,0,0:0:0:0:
256,192,86426,1,8,0:0:0:0:
256,192,86512,1,0,0:0:0:0:
256,192,86684,1,8,0:0:0:0:
256,192,86857,1,8,0:0:0:0:
256,192,87029,1,0,0:0:0:0:
256,192,87374,1,8,0:0:0:0:
256,192,87546,1,0,0:0:0:0:
256,192,87719,1,8,0:0:0:0:
256,192,87805,1,8,0:0:0:0:
256,192,87891,1,0,0:0:0:0:
256,192,87977,1,0,0:0:0:0:
256,192,88064,1,8,0:0:0:0:
256,192,88236,1,8,0:0:0:0:
256,192,88408,1,0,0:0:0:0:
256,192,88495,1,8,0:0:0:0:
256,192,88581,1,0,0:0:0:0:
256,192,88753,1,8,0:0:0:0:
256,192,88926,1,0,0:0:0:0:
256,192,89098,1,8,0:0:0:0:
256,192,89184,1,8,0:0:0:0:
256,192,89270,1,0,0:0:0:0:
256,192,89443,1,8,0:0:0:0:
256,192,89615,1,8,0:0:0:0:
256,192,89788,1,0,0:0:0:0:
256,192,89874,1,8,0:0:0:0:
256,192,89960,1,8,0:0:0:0:
256,192,90133,1,8,0:0:0:0:
256,192,90305,1,0,0:0:0:0:
256,192,90477,1,0,0:0:0:0:
256,192,90564,1,8,0:0:0:0:
256,192,90650,1,0,0:0:0:0:
256,192,90822,1,8,0:0:0:0:
256,192,90908,1,0,0:0:0:0:
256,192,90995,1,8,0:0:0:0:
256,192,91167,1,0,0:0:0:0:
256,192,91282,1,8,0:0:0:0:
256,192,91397,1,0,0:0:0:0:
256,192,91512,1,8,0:0:0:0:
256,192,91684,1,0,0:0:0:0:
256,192,91857,1,8,0:0:0:0:
256,192,91943,1,8,0:0:0:0:
256,192,92029,1,0,0:0:0:0:
256,192,92201,1,8,0:0:0:0:
256,192,92546,1,0,0:0:0:0:
256,192,92719,1,0,0:0:0:0:
256,192,92891,1,8,0:0:0:0:
256,192,93064,1,8,0:0:0:0:
256,192,93236,1,0,0:0:0:0:
256,192,93322,1,8,0:0:0:0:
256,192,93408,1,0,0:0:0:0:
256,192,93581,1,8,0:0:0:0:
256,192,93753,1,8,0:0:0:0:
256,192,93926,1,0,0:0:0:0:
256,192,94098,1,8,0:0:0:0:
256,192,94184,1,0,0:0:0:0:
256,192,94270,1,8,0:0:0:0:
256,192,94443,1,0,0:0:0:0:
256,192,94615,1,0,0:0:0:0:
256,192,94701,1,8,0:0:0:0:
256,192,94788,1,0,0:0:0:0:
256,192,94960,1,8,0:0:0:0:
256,192,95133,1,0,0:0:0:0:
256,192,95305,1,8,0:0:0:0:
256,192,95391,1,0,0:0:0:0:
256,192,95477,1,8,0:0:0:0:
256,192,95650,1,8,0:0:0:0:
256,192,95822,1,0,0:0:0:0:
256,192,95995,1,8,0:0:0:0:
256,192,96081,1,8,0:0:0:0:
256,192,96167,1,0,0:0:0:0:
256,192,96339,1,8,0:0:0:0:
256,192,96684,1,0,0:0:0:0:
256,192,96857,1,0,0:0:0:0:
256,192,97029,1,8,0:0:0:0:
256,192,97201,1,8,0:0:0:0:
256,192,97374,1,0,0:0:0:0:
256,192,97460,1,8,0:0:0:0:
256,192,97546,1,0,0:0:0:0:
256,192,97719,1,8,0:0:0:0:
256,192,97891,1,8,0:0:0:0:
256,192,98064,1,0,0:0:0:0:
256,192,98408,1,8,0:0:0:0:
256,192,98581,1,0,0:0:0:0:
256,192,98753,1,8,0:0:0:0:
256,192,98839,1,8,0:0:0:0:
256,192,98926,1,0,0:0:0:0:
256,192,99012,1,0,0:0:0:0:
256,192,99098,1,8,0:0:0:0:
256,192,99270,1,8,0:0:0:0:
256,192,99443,1,0,0:0:0:0:
256,192,99788,1,8,0:0:0:0:
256,192,99960,1,0,0:0:0:0:
256,192,100133,1,0,0:0:0:0:
256,192,100219,1,8,0:0:0:0:
256,192,100305,1,0,0:0:0:0:
256,192,100477,1,8,0:0:0:0:
256,192,100650,1,0,0:0:0:0:
256,192,100822,1,8,0:0:0:0:
256,192,100908,1,0,0:0:0:0:
256,192,100995,1,0,0:0:0:0:
256,192,101167,1,8,0:0:0:0:
256,192,101339,1,0,0:0:0:0:
256,192,101512,1,8,0:0:0:0:
256,192,101598,1,8,0:0:0:0:
256,192,101684,1,0,0:0:0:0:
256,192,101857,1,8,0:0:0:0:
256,192,102201,1,0,0:0:0:0:
256,192,102374,1,0,0:0:0:0:
256,192,102546,1,8,0:0:0:0:
256,192,102891,1,8,0:0:0:0:
256,192,103064,1,0,0:0:0:0:
256,192,103236,1,8,0:0:0:0:
256,192,103322,1,8,0:0:0:0:
256,192,103408,1,0,0:0:0:0:
256,192,103495,1,0,0:0:0:0:
256,192,103581,1,8,0:0:0:0:
256,192,103753,1,0,0:0:0:0:
256,192,103926,1,8,0:0:0:0:
256,192,104098,1,0,0:0:0:0:
256,192,104270,1,0,0:0:0:0:
256,192,104357,1,8,0:0:0:0:
256,192,104443,1,0,0:0:0:0:
256,192,104615,1,8,0:0:0:0:
256,192,104788,1,8,0:0:0:0:
256,192,104960,1,0,0:0:0:0:
256,192,105133,1,0,0:0:0:0:
256,192,105305,1,8,0:0:0:0:
256,192,105477,1,0,0:0:0:0:
256,192,105650,1,0,0:0:0:0:
256,192,105736,1,0,0:0:0:0:
256,192,105822,1,8,0:0:0:0:
256,192,105995,1,8,0:0:0:0:
256,192,106081,1,8,0:0:0:0:
256,192,106167,1,0,0:0:0:0:
256,192,106339,1,8,0:0:0:0:
256,192,106512,1,0,0:0:0:0:
256,192,106684,1,8,0:0:0:0:
256,192,106857,1,8,0:0:0:0:
256,192,107029,1,0,0:0:0:0:
256,192,107115,1,8,0:0:0:0:
256,192,107201,1,0,0:0:0:0:
256,192,107374,1,8,0:0:0:0:
256,192,107546,1,0,0:0:0:0:
256,192,107719,1,8,0:0:0:0:
256,192,108064,1,8,0:0:0:0:
256,192,108236,1,0,0:0:0:0:
256,192,108408,1,8,0:0:0:0:
256,192,108495,1,8,0:0:0:0:
256,192,108581,1,0,0:0:0:0:
256,192,108753,1,8,0:0:0:0:
256,192,108926,1,0,0:0:0:0:
256,192,109098,1,8,0:0:0:0:
256,192,109270,1,0,0:0:0:0:
256,192,109443,1,8,0:0:0:0:
256,192,109615,1,0,0:0:0:0:
256,192,109788,1,0,0:0:0:0:
256,192,109874,1,8,0:0:0:0:
256,192,109960,1,0,0:0:0:0:
256,192,110133,1,8,0:0:0:0:
256,192,110305,1,8,0:0:0:0:
256,192,110477,1,0,0:0:0:0:
256,192,110650,1,0,0:0:0:0:
256,192,110822,1,8,0:0:0:0:
256,192,111167,1,8,0:0:0:0:
256,192,111253,1,8,0:0:0:0:
256,192,111339,1,0,0:0:0:0:
256,192,111426,1,0,0:0:0:0:
256,192,111512,1,8,0:0:0:0:
256,192,111684,1,0,0:0:0:0:
256,192,111857,1,8,0:0:0:0:
256,192,112029,1,0,0:0:0:0:
256,192,112201,1,8,0:0:0:0:
256,192,112374,1,0,0:0:0:0:
256,192,112546,1,8,0:0:0:0:
256,192,112633,1,8,0:0:0:0:
256,192,112719,1,0,0:0:0:0:
256,192,112805,1,0,0:0:0:0:
256,192,112891,1,8,0:0:0:0:
256,192,113236,1,0,0:0:0:0:
256,192,113408,1,0,0:0:0:0:
256,192,113581,1,8,0:0:0:0:
256,192,113753,1,0,0:0:0:0:
256,192,113926,1,8,0:0:0:0:
256,192,114012,1,8,0:0:0:0:
256,192,114098,1,0,0:0:0:0:
256,192,114270,1,8,0:0:0:0:
256,192,114443,1,8,0:0:0:0:
256,192,114615,1,0,0:0:0:0:
256,192,114960,1,8,0:0:0:0:
256,192,115305,1,0,0:0:0:0:
256,192,115391,1,8,0:0:0:0:
256,192,115477,1,0,0:0:0:0:
256,192,115650,1,8,0:0:0:0:
256,192,115822,1,8,0:0:0:0:
256,192,115995,1,0,0:0:0:0:
256,192,116167,1,0,0:0:0:0:
256,192,116339,1,8,0:0:0:0:
256,192,116512,1,8,0:0:0:0:
256,192,116684,1,0,0:0:0:0:
256,192,116770,1,0,0:0:0:0:
256,192,116857,1,8,0:0:0:0:
256,192,116943,1,0,0:0:0:0:
256,192,117029,1,8,0:0:0:0:
256,192,117201,1,8,0:0:0:0:
256,192,117374,1,0,0:0:0:0:
256,192,117546,1,0,0:0:0:0:
256,192,117719,1,8,0:0:0:0:
256,192,117891,1,8,0:0:0:0:
256,192,118064,1,0,0:0:0:0:
256,192,118150,1,8,0:0:0:0:
256,192,118236,1,0,0:0:0:0:
256,192,118408,1,8,0:0:0:0:
256,192,118753,1,0,0:0:0:0:
256,192,118926,1,0,0:0:0:0:
256,192,119098,1,8,0:0:0:0:
256,192,119270,1,0,0:0:0:0:
256,192,119443,1,8,0:0:0:0:
256,192,119529,1,8,0:0:0:0:
256,192,119615,1,0,0:0:0:0:
256,192,119788,1,8,0:0:0:0:
256,192,120133,1,0,0:0:0:0:
256,192,120305,1,0,0:0:0:0:
256,192,120391,1,0,0:0:0:0:
256,192,120477,1,8,0:0:0:0:
256,192,120650,1,0,0:0:0:0:
256,192,120822,1,8,0:0:0:0:
256,192,120995,1,0,0:0:0:0:
256,192,121167,1,8,0:0:0:0:
256,192,121339,1,8,0:0:0:0:
256,192,121512,1,0,0:0:0:0:
256,192,121857,1,8,0:0:0:0:
256,192,122029,1,0,0:0:0:0:
256,192,122115,1,0,0:0:0:0:
256,192,122201,1,8,0:0:0:0:
256,192,122288,1,8,0:0:0:0:
256,192,122374,1,0,0:0:0:0:
256,192,122546,1,8,0:0:0:0:
256,192,122719,1,0,0:0:0:0:
256,192,122891,1,8,0:0:0:0:
256,192,123236,1,8,0:0:0:0:
256,192,123408,1,0,0:0:0:0:
256,192,123495,1,0,0:0:0:0:
256,192,123581,1,0,0:0:0:0:
256,192,123753,1,0,0:0:0:0:
256,192,123926,1,8,0:0:0:0:
256,192,124270,1,0,0:0:0:0:
256,192,124615,1,8,0:0:0:0:
256,192,124788,1,0,0:0:0:0:
256,192,124874,1,0,0:0:0:0:
256,192,124960,1,0,0:0:0:0:
256,192,125133,1,0,0:0:0:0:
256,192,125305,1,8,0:0:0:0:
256,192,125650,1,0,0:0:0:0:
256,192,125995,1,8,0:0:0:0:
256,192,126339,1,0,0:0:0:0:
256,192,126684,1,8,0:0:0:0:
256,192,127029,1,0,0:0:0:0:
256,192,127374,1,8,0:0:0:0:
256,192,127546,1,0,0:0:0:0:
256,192,127633,1,0,0:0:0:0:
256,192,127719,1,8,0:0:0:0:
256,192,127805,1,8,0:0:0:0:
256,192,127891,1,0,0:0:0:0:
256,192,128064,1,8,0:0:0:0:
256,192,128236,1,0,0:0:0:0:
256,192,128408,1,8,0:0:0:0:
256,192,128753,1,8,0:0:0:0:
256,192,128926,1,0,0:0:0:0:
256,192,129012,1,0,0:0:0:0:
256,192,129098,1,0,0:0:0:0:
256,192,129270,1,0,0:0:0:0:
256,192,129443,1,8,0:0:0:0:
256,192,129788,1,0,0:0:0:0:
256,192,130133,1,8,0:0:0:0:
256,192,130305,1,0,0:0:0:0:
256,192,130650,1,8,0:0:0:0:
256,192,130822,1,0,0:0:0:0:
256,192,131167,1,0,0:0:0:0:
256,192,131512,1,8,0:0:0:0:
256,192,131857,1,0,0:0:0:0:
256,192,132201,1,8,0:0:0:0:
